999
DXF file: Z:\m-mpl-abox.dxf
999
Pro/ENGINEER 2021284 by Parametric Technology Corporation
  0
SECTION
  2
HEADER
  9
$ACADVER
  1
AC1027
  9
$DWGCODEPAGE
  3
ANSI_1252
  9
$EXTMAX
 10
420.0
 20
297.0
 30
0.0
  9
$EXTMIN
 10
0.0
 20
0.0
 30
0.0
  9
$LIMMIN
 10
0.0
 20
0.0
  9
$LIMMAX
 10
420.0
 20
297.0
  9
$VIEWCTR
 10
210.0
 20
148.5
  9
$VIEWSIZE
 40
297.0
  9
$CLAYER
  8
0
  9
$LTSCALE
 40
23.1
  9
$CELTYPE
  6
BYLAYER
  9
$DIMSCALE
 40
1.0
  9
$DIMASZ
 40
3.5
  9
$DIMEXO
 40
0.0
  9
$DIMDLI
 40
15.96
  9
$DIMEXE
 40
1.5
  9
$DIMCEN
 40
3.78
  9
$DIMLFAC
 40
1.0
  9
$DIMBLK
  1
_FILLED
  9
$DIMALT
 70
0
  9
$DIMALTF
 40
0.0393700787
  9
$DIMTXT
 40
2.5
  9
$DIMTOL
 70
1
  9
$DIMLIM
 70
0
  9
$DIMTFAC
 40
1.0
  9
$DIMTP
 40
0.05
  9
$DIMTM
 40
0.05
  9
$DIMGAP
 40
0.625
  9
$DIMDSEP
 70
46
  9
$AUNITS
 70
0
  9
$PDMODE
 70
3
  9
$PDSIZE
 40
0.3125
  9
$HANDSEED
  5
52B
  9
$TILEMODE
 70
1
  9
$MEASUREMENT
 70
1
  9
$INSUNITS
 70
4
  0
ENDSEC
  0
SECTION
  2
CLASSES
  0
CLASS
  1
ACDBDICTIONARYWDFLT
  2
AcDbDictionaryWithDefault
  3
AutoCAD 2000
 90
0
 91
1
280
0
281
0
  0
CLASS
  1
ACDBPLACEHOLDER
  2
AcDbPlaceHolder
  3
AutoCAD 2000
 90
0
 91
1
280
0
281
0
  0
CLASS
  1
LAYOUT
  2
AcDbLayout
  3
AutoCAD 2000
 90
0
 91
0
280
0
281
0
  0
CLASS
  1
TABLESTYLE
  2
AcDbTableStyle
  3
ObjectDBX Classes
 90
2047
 91
1
280
0
281
0
  0
CLASS
  1
ACAD_TABLE
  2
AcDbTable
  3
ObjectDBX Classes
 90
1025
 91
2
280
0
281
1
  0
ENDSEC
  0
SECTION
  2
TABLES
  0
TABLE
  2
VPORT
  5
8
100
AcDbSymbolTable
 70
2
  0
VPORT
  5
1F4
100
AcDbSymbolTableRecord
100
AcDbViewportTableRecord
  2
*ACTIVE
 70
0
 10
0.0
 20
0.0
 11
1.0
 21
1.0
 12
210.0
 22
148.5
 13
0.0
 23
0.0
 14
1.0
 24
1.0
 15
0.0
 25
0.0
 16
0.0
 26
0.0
 36
1.0
 17
0.0
 27
0.0
 37
0.0
 40
297.0
 41
1.4141414141
 42
50.0
 43
0.0
 44
0.0
 50
0.0
 51
0.0
 71
0
 72
100
 73
1
 74
1
 75
0
 76
0
 77
0
 78
0
  0
ENDTAB
  0
TABLE
  2
LTYPE
  5
5
100
AcDbSymbolTable
 70
6
  0
LTYPE
  5
14
100
AcDbSymbolTableRecord
100
AcDbLinetypeTableRecord
  2
BYBLOCK
 70
0
  3

 72
65
 73
0
 40
0.0
  0
LTYPE
  5
15
100
AcDbSymbolTableRecord
100
AcDbLinetypeTableRecord
  2
BYLAYER
 70
0
  3

 72
65
 73
0
 40
0.0
  0
LTYPE
  5
16
100
AcDbSymbolTableRecord
100
AcDbLinetypeTableRecord
  2
CONTINUOUS
 70
64
  3
Solid line
 72
65
 73
0
 40
0.0
  0
LTYPE
  5
1F5
100
AcDbSymbolTableRecord
100
AcDbLinetypeTableRecord
  2
CENTER
 70
64
  3
____ _ ____ _ ____ _ ____ _ ____ _ ____ _ ____
 72
65
 73
4
 40
0.6
 49
0.375
 74
0
 49
-0.075
 74
0
 49
0.075
 74
0
 49
-0.075
 74
0
  0
LTYPE
  5
1F6
100
AcDbSymbolTableRecord
100
AcDbLinetypeTableRecord
  2
HIDDEN
 70
64
  3
- - - - - - - - - - - - - - - - - - - -
 72
65
 73
2
 40
0.2
 49
0.1
 74
0
 49
-0.1
 74
0
  0
LTYPE
  5
1F7
100
AcDbSymbolTableRecord
100
AcDbLinetypeTableRecord
  2
PHANTOM
 70
64
  3
_____ _ _ _____ _ _ _____ _ _ _____
 72
65
 73
6
 40
0.8
 49
0.45
 74
0
 49
-0.05
 74
0
 49
0.1
 74
0
 49
-0.05
 74
0
 49
0.1
 74
0
 49
-0.05
 74
0
  0
LTYPE
  5
1F8
100
AcDbSymbolTableRecord
100
AcDbLinetypeTableRecord
  2
DOT
 70
64
  3
. . . . . . . . . . . . . . . . . . . .
 72
65
 73
2
 40
0.2
 49
0.1
 74
0
 49
-0.1
 74
0
  0
LTYPE
  5
1F9
100
AcDbSymbolTableRecord
100
AcDbLinetypeTableRecord
  2
DASHED
 70
64
  3
- - - - - - - - - - - - - - - - - - - -
 72
65
 73
2
 40
0.2
 49
0.1
 74
0
 49
-0.1
 74
0
  0
ENDTAB
  0
TABLE
  2
LAYER
  5
2
100
AcDbSymbolTable
 70
36
  0
LAYER
  5
10
100
AcDbSymbolTableRecord
100
AcDbLayerTableRecord
  2
0
 70
0
 62
7
  6
CONTINUOUS
370
-3
390
F
  0
LAYER
  5
1FA
100
AcDbSymbolTableRecord
100
AcDbLayerTableRecord
  2
DEFAULT_1
 70
0
 62
7
  6
CENTER
370
-3
390
F
  0
LAYER
  5
1FB
100
AcDbSymbolTableRecord
100
AcDbLayerTableRecord
  2
DEFAULT_2
 70
0
 62
8
  6
HIDDEN
370
-3
390
F
  0
LAYER
  5
1FC
100
AcDbSymbolTableRecord
100
AcDbLayerTableRecord
  2
DEFAULT_3
 70
0
 62
7
  6
PHANTOM
370
-3
390
F
  0
LAYER
  5
1FD
100
AcDbSymbolTableRecord
100
AcDbLayerTableRecord
  2
2D-BEMASSUNG
 70
0
 62
7
  6
CONTINUOUS
370
-3
390
F
  0
LAYER
  5
1FE
100
AcDbSymbolTableRecord
100
AcDbLayerTableRecord
  2
AM-BALLONS
 70
0
 62
7
  6
CONTINUOUS
370
-3
390
F
  0
LAYER
  5
1FF
100
AcDbSymbolTableRecord
100
AcDbLayerTableRecord
  2
AUSBLENDEN
 70
0
 62
7
  6
CONTINUOUS
370
-3
390
F
  0
LAYER
  5
200
100
AcDbSymbolTableRecord
100
AcDbLayerTableRecord
  2
BEZUGSACHSEN
 70
0
 62
7
  6
CONTINUOUS
370
-3
390
F
  0
LAYER
  5
201
100
AcDbSymbolTableRecord
100
AcDbLayerTableRecord
  2
BG_STARTBEZUEGE
 70
0
 62
7
  6
CONTINUOUS
370
-3
390
F
  0
LAYER
  5
202
100
AcDbSymbolTableRecord
100
AcDbLayerTableRecord
  2
BOHRUNGEN
 70
0
 62
7
  6
CONTINUOUS
370
-3
390
F
  0
LAYER
  5
203
100
AcDbSymbolTableRecord
100
AcDbLayerTableRecord
  2
EINRASTLINIEN
 70
0
 62
7
  6
CONTINUOUS
370
-3
390
F
  0
LAYER
  5
204
100
AcDbSymbolTableRecord
100
AcDbLayerTableRecord
  2
GEWINDE
 70
0
 62
7
  6
CONTINUOUS
370
-3
390
F
  0
LAYER
  5
205
100
AcDbSymbolTableRecord
100
AcDbLayerTableRecord
  2
HILFEN
 70
0
 62
7
  6
CONTINUOUS
370
-3
390
F
  0
LAYER
  5
206
100
AcDbSymbolTableRecord
100
AcDbLayerTableRecord
  2
KURVEN
 70
0
 62
7
  6
CONTINUOUS
370
-3
390
F
  0
LAYER
  5
207
100
AcDbSymbolTableRecord
100
AcDbLayerTableRecord
  2
NOTIZ
 70
0
 62
7
  6
CONTINUOUS
370
-3
390
F
  0
LAYER
  5
208
100
AcDbSymbolTableRecord
100
AcDbLayerTableRecord
  2
TEIL_STARTBEZUEGE
 70
0
 62
7
  6
CONTINUOUS
370
-3
390
F
  0
LAYER
  5
209
100
AcDbSymbolTableRecord
100
AcDbLayerTableRecord
  2
ZEICHNUNGSBEMASSUNGEN
 70
0
 62
7
  6
CONTINUOUS
370
-3
390
F
  0
ENDTAB
  0
TABLE
  2
STYLE
  5
3
100
AcDbSymbolTable
 70
1
  0
STYLE
  5
11
100
AcDbSymbolTableRecord
100
AcDbTextStyleTableRecord
  2
STANDARD
 70
0
 40
0.0
 41
0.7
 50
0.0
 71
0
 42
0.2
  3
txt
  4

  0
STYLE
  5
20A
100
AcDbSymbolTableRecord
100
AcDbTextStyleTableRecord
  2
TEXTSTYLE_1
 70
0
 40
0.0
 41
0.8
 50
0.0
 71
0
 42
0.2
  3
gdt
  4

  0
STYLE
  5
20B
100
AcDbSymbolTableRecord
100
AcDbTextStyleTableRecord
  2
TEXTSTYLE_2
 70
0
 40
0.0
 41
0.5714285714
 50
0.0
 71
0
 42
0.2
  3
txt
  4

  0
STYLE
  5
20C
100
AcDbSymbolTableRecord
100
AcDbTextStyleTableRecord
  2
TEXTSTYLE_3
 70
0
 40
0.0
 41
0.7857142857
 50
0.0
 71
0
 42
0.2
  3
txt
  4

  0
STYLE
  5
20D
100
AcDbSymbolTableRecord
100
AcDbTextStyleTableRecord
  2
TEXTSTYLE_4
 70
0
 40
0.0
 41
0.7142857143
 50
0.0
 71
0
 42
0.2
  3
txt
  4

  0
STYLE
  5
20E
100
AcDbSymbolTableRecord
100
AcDbTextStyleTableRecord
  2
TEXTSTYLE_5
 70
0
 40
0.0
 41
0.9047619048
 50
0.0
 71
0
 42
0.2
  3
txt
  4

  0
STYLE
  5
20F
100
AcDbSymbolTableRecord
100
AcDbTextStyleTableRecord
  2
TEXTSTYLE_6
 70
0
 40
0.0
 41
0.8333333333
 50
0.0
 71
0
 42
0.2
  3
txt
  4

  0
STYLE
  5
210
100
AcDbSymbolTableRecord
100
AcDbTextStyleTableRecord
  2
TEXTSTYLE_7
 70
0
 40
0.0
 41
0.8571428571
 50
0.0
 71
0
 42
0.2
  3
txt
  4

  0
STYLE
  5
211
100
AcDbSymbolTableRecord
100
AcDbTextStyleTableRecord
  2
TEXTSTYLE_8
 70
0
 40
0.0
 41
0.8
 50
0.0
 71
0
 42
0.2
  3
txt
  4

  0
STYLE
  5
212
100
AcDbSymbolTableRecord
100
AcDbTextStyleTableRecord
  2
TEXTSTYLE_9
 70
0
 40
0.0
 41
0.7
 50
0.0
 71
0
 42
0.2
  3
txt
  4

  0
ENDTAB
  0
TABLE
  2
VIEW
  5
6
100
AcDbSymbolTable
 70
0
  0
ENDTAB
  0
TABLE
  2
UCS
  5
7
100
AcDbSymbolTable
 70
0
  0
ENDTAB
  0
TABLE
  2
APPID
  5
9
100
AcDbSymbolTable
 70
1
  0
APPID
  5
213
100
AcDbSymbolTableRecord
100
AcDbRegAppTableRecord
  2
ACAD
 70
0
  0
ENDTAB
  0
TABLE
  2
BLOCK_RECORD
  5
1
100
AcDbSymbolTable
 70
0
  0
BLOCK_RECORD
  5
214
100
AcDbSymbolTableRecord
100
AcDbBlockTableRecord
  2
*Model_Space
  0
BLOCK_RECORD
  5
215
100
AcDbSymbolTableRecord
100
AcDbBlockTableRecord
  2
*Paper_Space
  0
BLOCK_RECORD
  5
216
100
AcDbSymbolTableRecord
100
AcDbBlockTableRecord
  2
_FILLED
  0
BLOCK_RECORD
  5
217
100
AcDbSymbolTableRecord
100
AcDbBlockTableRecord
  2
*D0
  0
BLOCK_RECORD
  5
218
100
AcDbSymbolTableRecord
100
AcDbBlockTableRecord
  2
*D1
  0
BLOCK_RECORD
  5
219
100
AcDbSymbolTableRecord
100
AcDbBlockTableRecord
  2
*D2
  0
BLOCK_RECORD
  5
21A
100
AcDbSymbolTableRecord
100
AcDbBlockTableRecord
  2
*D3
  0
BLOCK_RECORD
  5
21B
100
AcDbSymbolTableRecord
100
AcDbBlockTableRecord
  2
*D4
  0
BLOCK_RECORD
  5
21C
100
AcDbSymbolTableRecord
100
AcDbBlockTableRecord
  2
*D5
  0
BLOCK_RECORD
  5
21D
100
AcDbSymbolTableRecord
100
AcDbBlockTableRecord
  2
*D6
  0
BLOCK_RECORD
  5
21E
100
AcDbSymbolTableRecord
100
AcDbBlockTableRecord
  2
*D7
  0
BLOCK_RECORD
  5
21F
100
AcDbSymbolTableRecord
100
AcDbBlockTableRecord
  2
*D8
  0
BLOCK_RECORD
  5
220
100
AcDbSymbolTableRecord
100
AcDbBlockTableRecord
  2
*D9
  0
BLOCK_RECORD
  5
221
100
AcDbSymbolTableRecord
100
AcDbBlockTableRecord
  2
*D10
  0
BLOCK_RECORD
  5
222
100
AcDbSymbolTableRecord
100
AcDbBlockTableRecord
  2
*D11
  0
BLOCK_RECORD
  5
223
100
AcDbSymbolTableRecord
100
AcDbBlockTableRecord
  2
*D12
  0
BLOCK_RECORD
  5
224
100
AcDbSymbolTableRecord
100
AcDbBlockTableRecord
  2
*D13
  0
BLOCK_RECORD
  5
225
100
AcDbSymbolTableRecord
100
AcDbBlockTableRecord
  2
ELS-SPELSBERG-LOGO_BL1
  0
BLOCK_RECORD
  5
226
100
AcDbSymbolTableRecord
100
AcDbBlockTableRecord
  2
ANSICHTEN_NACH_DIN_BL0
  0
BLOCK_RECORD
  5
227
100
AcDbSymbolTableRecord
100
AcDbBlockTableRecord
  2
*T1
  0
BLOCK_RECORD
  5
228
100
AcDbSymbolTableRecord
100
AcDbBlockTableRecord
  2
*T2
  0
ENDTAB
  0
TABLE
  2
DIMSTYLE
  5
A
100
AcDbSymbolTable
 70
1
100
AcDbDimStyleTable
 71
0
  0
DIMSTYLE
105
229
100
AcDbSymbolTableRecord
100
AcDbDimStyleTableRecord
  2
STANDARD
 70
0
  3

  4

 40
1.0
 41
3.5
 42
0.0
 43
0.38
 44
1.5
 45
0.0
 46
0.0
 47
0.05
 48
0.05
140
2.5
141
0.09
142
0.0
143
25.4
144
1.0
145
0.0
146
1.0
147
0.625
 71
1
 72
0
 73
0
 74
0
 75
0
 76
0
 77
1
 78
8
 79
2
170
0
171
1
172
0
173
0
174
0
175
0
176
0
177
0
178
5
270
2
179
2
271
2
272
2
273
2
274
2
275
0
280
0
281
0
282
0
283
1
284
8
285
0
286
0
287
3
288
0
340
11
278
46
341
216
342
216
343
216
344
216
  0
DIMSTYLE
105
22A
100
AcDbSymbolTableRecord
100
AcDbDimStyleTableRecord
  2
DIMSTYLE_1
 70
0
  3

  4

 40
1.0
 41
3.5
 42
0.0
 43
0.38
 44
1.5
 45
0.0
 46
0.0
 47
0.3
 48
0.3
140
2.5
141
0.09
142
0.0
143
25.4
144
1.0
145
0.0
146
1.0
147
0.625
 71
0
 72
0
 73
0
 74
0
 75
0
 76
0
 77
1
 78
8
 79
2
170
0
171
1
172
0
173
0
174
0
175
0
176
0
177
0
178
5
270
2
179
2
271
0
272
0
273
2
274
2
275
0
280
0
281
0
282
0
283
1
284
8
285
0
286
0
287
3
288
0
340
11
278
46
341
216
342
216
343
216
344
216
  0
DIMSTYLE
105
22B
100
AcDbSymbolTableRecord
100
AcDbDimStyleTableRecord
  2
DIMSTYLE_2
 70
0
  3

  4

 40
1.0
 41
3.5
 42
0.0
 43
0.38
 44
1.5
 45
0.0
 46
0.0
 47
0.3
 48
0.3
140
2.5
141
0.09
142
0.0
143
25.4
144
1.0
145
0.0
146
1.0
147
0.625
 71
0
 72
0
 73
0
 74
0
 75
0
 76
0
 77
1
 78
8
 79
2
170
0
171
1
172
0
173
0
174
0
175
0
176
0
177
0
178
5
270
2
179
2
271
2
272
2
273
2
274
2
275
0
280
0
281
0
282
0
283
1
284
8
285
0
286
0
287
3
288
0
340
11
278
46
341
216
342
216
343
216
344
216
  0
DIMSTYLE
105
22C
100
AcDbSymbolTableRecord
100
AcDbDimStyleTableRecord
  2
DIMSTYLE_3
 70
0
  3

  4

 40
1.0
 41
3.5
 42
0.0
 43
0.38
 44
1.5
 45
0.0
 46
0.0
 47
1.0
 48
1.0
140
2.5
141
0.09
142
0.0
143
25.4
144
1.0
145
0.0
146
1.0
147
0.625
 71
0
 72
0
 73
0
 74
0
 75
0
 76
0
 77
1
 78
8
 79
2
170
0
171
1
172
0
173
0
174
0
175
0
176
0
177
0
178
5
270
2
179
2
271
2
272
2
273
2
274
2
275
0
280
0
281
0
282
0
283
1
284
8
285
0
286
0
287
3
288
0
340
11
278
46
341
216
342
216
343
216
344
216
  0
DIMSTYLE
105
22D
100
AcDbSymbolTableRecord
100
AcDbDimStyleTableRecord
  2
DIMSTYLE_4
 70
0
  3

  4

 40
1.0
 41
3.5
 42
0.0
 43
0.38
 44
1.5
 45
0.0
 46
0.0
 47
0.1
 48
0.1
140
2.5
141
0.09
142
0.0
143
25.4
144
1.0
145
0.0
146
1.0
147
0.625
 71
0
 72
0
 73
0
 74
0
 75
0
 76
0
 77
1
 78
8
 79
2
170
0
171
1
172
0
173
0
174
0
175
0
176
0
177
0
178
5
270
2
179
2
271
2
272
2
273
2
274
2
275
0
280
0
281
0
282
0
283
1
284
8
285
0
286
0
287
3
288
0
340
11
278
46
341
216
342
216
343
216
344
216
  0
DIMSTYLE
105
22E
100
AcDbSymbolTableRecord
100
AcDbDimStyleTableRecord
  2
DIMSTYLE_5
 70
0
  3

  4

 40
1.0
 41
3.5
 42
0.0
 43
0.38
 44
1.5
 45
0.0
 46
0.0
 47
0.5
 48
0.5
140
2.5
141
0.09
142
0.0
143
25.4
144
1.0
145
0.0
146
1.0
147
0.625
 71
0
 72
0
 73
0
 74
0
 75
0
 76
0
 77
1
 78
8
 79
2
170
0
171
1
172
0
173
0
174
0
175
0
176
0
177
0
178
5
270
2
179
2
271
2
272
2
273
2
274
2
275
0
280
0
281
0
282
0
283
1
284
8
285
0
286
0
287
3
288
0
340
11
278
46
341
216
342
216
343
216
344
216
  0
DIMSTYLE
105
22F
100
AcDbSymbolTableRecord
100
AcDbDimStyleTableRecord
  2
DIMSTYLE_6
 70
0
  3

  4

 40
1.0
 41
3.5
 42
0.0
 43
0.38
 44
1.5
 45
0.0
 46
0.0
 47
0.2
 48
0.2
140
2.5
141
0.09
142
0.0
143
25.4
144
1.0
145
0.0
146
1.0
147
0.625
 71
0
 72
0
 73
0
 74
0
 75
0
 76
0
 77
1
 78
8
 79
2
170
0
171
1
172
0
173
0
174
0
175
0
176
0
177
0
178
5
270
2
179
2
271
2
272
2
273
2
274
2
275
0
280
0
281
0
282
0
283
1
284
8
285
0
286
0
287
3
288
0
340
11
278
46
341
216
342
216
343
216
344
216
  0
ENDTAB
  0
ENDSEC
  0
SECTION
  2
BLOCKS
  0
BLOCK
  5
20
100
AcDbEntity
  8
0
100
AcDbBlockBegin
  2
*Model_Space
 70
0
 10
0.0
 20
0.0
 30
0.0
  3
*Model_Space
  1

  0
ENDBLK
  5
21
100
AcDbEntity
  8
0
100
AcDbBlockEnd
  0
BLOCK
  5
1C
100
AcDbEntity
  8
0
100
AcDbBlockBegin
  2
*Paper_Space
 70
0
 10
0.0
 20
0.0
 30
0.0
  3
*Paper_Space
  1

  0
ENDBLK
  5
1D
100
AcDbEntity
  8
0
100
AcDbBlockEnd
  0
BLOCK
  5
230
100
AcDbEntity
  8
0
100
AcDbBlockBegin
 62
5
  6
CONTINUOUS
  2
ELS-SPELSBERG-LOGO_BL1
 70
64
 10
317.9843691281
 20
17.2519462583
  3
ELS-SPELSBERG-LOGO_BL1
  1

  0
LINE
  5
231
100
AcDbEntity
  8
0
100
AcDbLine
 62
5
  6
CONTINUOUS
 10
297.9250163542
 20
22.4999873543
 11
297.9250163542
 21
12.4999873543
  0
LINE
  5
232
100
AcDbEntity
  8
0
100
AcDbLine
 62
5
  6
CONTINUOUS
 10
298.3250163542
 20
12.8999873543
 11
298.3250163542
 21
22.0999873543
  0
LINE
  5
233
100
AcDbEntity
  8
0
100
AcDbLine
 62
5
  6
CONTINUOUS
 10
302.1330163542
 20
21.8079873543
 11
302.1330163542
 21
13.313285385
  0
LINE
  5
234
100
AcDbEntity
  8
0
100
AcDbLine
 62
5
  6
CONTINUOUS
 10
302.9970163542
 20
13.313285385
 11
302.9970163542
 21
21.8079873543
  0
LINE
  5
235
100
AcDbEntity
  8
0
100
AcDbLine
 62
5
  6
CONTINUOUS
 10
306.7250163542
 20
22.0999873543
 11
306.7250163542
 21
12.8999873543
  0
LINE
  5
236
100
AcDbEntity
  8
0
100
AcDbLine
 62
5
  6
CONTINUOUS
 10
307.1250163542
 20
12.4999873543
 11
307.1250163542
 21
22.4999873543
  0
LINE
  5
237
100
AcDbEntity
  8
0
100
AcDbLine
 62
5
  6
CONTINUOUS
 10
314.4809055562
 20
16.7879224857
 11
314.4491052761
 21
16.98304245
  0
LINE
  5
238
100
AcDbEntity
  8
0
100
AcDbLine
 62
5
  6
CONTINUOUS
 10
313.5342773815
 20
16.98304245
 11
313.5342773815
 21
14.7361126909
  0
LINE
  5
239
100
AcDbEntity
  8
0
100
AcDbLine
 62
5
  6
CONTINUOUS
 10
313.5342773815
 20
14.3343253456
 11
313.5342773815
 21
12.1178692055
  0
LINE
  5
23A
100
AcDbEntity
  8
0
100
AcDbLine
 62
5
  6
CONTINUOUS
 10
314.5130163542
 20
15.0950240842
 11
314.5130163542
 21
15.4941600252
  0
LINE
  5
23B
100
AcDbEntity
  8
0
100
AcDbLine
 62
5
  6
CONTINUOUS
 10
314.5313801835
 20
12.1178692055
 11
314.5313801835
 21
13.5983251512
  0
LINE
  5
23C
100
AcDbEntity
  8
0
100
AcDbLine
 62
5
  6
CONTINUOUS
 10
316.1370163542
 20
15.4255595093
 11
316.1370163542
 21
15.2079873543
  0
LINE
  5
23D
100
AcDbEntity
  8
0
100
AcDbLine
 62
5
  6
CONTINUOUS
 10
320.7450163542
 20
21.8079873543
 11
320.7450163542
 21
15.4656574306
  0
LINE
  5
23E
100
AcDbEntity
  8
0
100
AcDbLine
 62
5
  6
CONTINUOUS
 10
320.7450163542
 20
14.9472650171
 11
320.7450163542
 21
13.3359873543
  0
LINE
  5
23F
100
AcDbEntity
  8
0
100
AcDbLine
 62
5
  6
CONTINUOUS
 10
321.6530163542
 20
13.3359873543
 11
321.6530163542
 21
21.8079873543
  0
LINE
  5
240
100
AcDbEntity
  8
0
100
AcDbLine
 62
5
  6
CONTINUOUS
 10
325.2210163315
 20
21.8443873543
 11
325.2210163315
 21
13.3519873543
  0
LINE
  5
241
100
AcDbEntity
  8
0
100
AcDbLine
 62
5
  6
CONTINUOUS
 10
326.171156789
 20
13.3519873543
 11
326.171156789
 21
13.952774047
  0
LINE
  5
242
100
AcDbEntity
  8
0
100
AcDbLine
 62
5
  6
CONTINUOUS
 10
326.2055820823
 20
16.2916655
 11
326.2055820823
 21
21.8443873543
  0
LINE
  5
243
100
AcDbEntity
  8
0
100
AcDbLine
 62
5
  6
CONTINUOUS
 10
313.5342773815
 20
12.1178692055
 11
314.5313801835
 21
12.1178692055
  0
LINE
  5
244
100
AcDbEntity
  8
0
100
AcDbLine
 62
5
  6
CONTINUOUS
 10
297.9250163542
 20
12.4999873543
 11
307.1250163542
 21
12.4999873543
  0
LINE
  5
245
100
AcDbEntity
  8
0
100
AcDbLine
 62
5
  6
CONTINUOUS
 10
306.7250163542
 20
12.8999873543
 11
298.3250163542
 21
12.8999873543
  0
LINE
  5
246
100
AcDbEntity
  8
0
100
AcDbLine
 62
5
  6
CONTINUOUS
 10
335.5806838693
 20
13.0800281012
 11
334.640046115
 21
13.0800281012
  0
LINE
  5
247
100
AcDbEntity
  8
0
100
AcDbLine
 62
5
  6
CONTINUOUS
 10
302.1330163542
 20
13.313285385
 11
302.9970163542
 21
13.313285385
  0
LINE
  5
248
100
AcDbEntity
  8
0
100
AcDbLine
 62
5
  6
CONTINUOUS
 10
320.7450163542
 20
13.3359873543
 11
321.6530163542
 21
13.3359873543
  0
LINE
  5
249
100
AcDbEntity
  8
0
100
AcDbLine
 62
5
  6
CONTINUOUS
 10
332.5050163499
 20
13.3399873543
 11
333.4171874831
 21
13.3399873543
  0
LINE
  5
24A
100
AcDbEntity
  8
0
100
AcDbLine
 62
5
  6
CONTINUOUS
 10
325.2210163315
 20
13.3519873543
 11
326.171156789
 21
13.3519873543
  0
LINE
  5
24B
100
AcDbEntity
  8
0
100
AcDbLine
 62
5
  6
CONTINUOUS
 10
332.4366879395
 20
14.3977928324
 11
331.3977654427
 21
14.3977928324
  0
LINE
  5
24C
100
AcDbEntity
  8
0
100
AcDbLine
 62
5
  6
CONTINUOUS
 10
301.8597074781
 20
14.4244272493
 11
300.9121988999
 21
14.4244272493
  0
LINE
  5
24D
100
AcDbEntity
  8
0
100
AcDbLine
 62
5
  6
CONTINUOUS
 10
320.7296121571
 20
14.4271292186
 11
319.6906896604
 21
14.4271292186
  0
LINE
  5
24E
100
AcDbEntity
  8
0
100
AcDbLine
 62
5
  6
CONTINUOUS
 10
322.7585951681
 20
14.548334914
 11
321.7890163542
 21
14.548334914
  0
LINE
  5
24F
100
AcDbEntity
  8
0
100
AcDbLine
 62
5
  6
CONTINUOUS
 10
311.1905951681
 20
14.552334914
 11
310.2210163542
 21
14.552334914
  0
LINE
  5
250
100
AcDbEntity
  8
0
100
AcDbLine
 62
5
  6
CONTINUOUS
 10
304.0686769308
 20
14.5536329447
 11
303.1211684252
 21
14.5536329447
  0
LINE
  5
251
100
AcDbEntity
  8
0
100
AcDbLine
 62
5
  6
CONTINUOUS
 10
329.8430145078
 20
14.9179286309
 11
332.480279111
 21
14.9179286309
  0
LINE
  5
252
100
AcDbEntity
  8
0
100
AcDbLine
 62
5
  6
CONTINUOUS
 10
299.4942491947
 20
14.9445630478
 11
301.8994630991
 21
14.9445630478
  0
LINE
  5
253
100
AcDbEntity
  8
0
100
AcDbLine
 62
5
  6
CONTINUOUS
 10
318.1359387255
 20
14.9472650171
 11
320.7450163542
 21
14.9472650171
  0
LINE
  5
254
100
AcDbEntity
  8
0
100
AcDbLine
 62
5
  6
CONTINUOUS
 10
331.4413566143
 20
15.5705830689
 11
329.8502797297
 21
15.5705830689
  0
LINE
  5
255
100
AcDbEntity
  8
0
100
AcDbLine
 62
5
  6
CONTINUOUS
 10
300.9519545208
 20
15.5972174858
 11
299.5008751558
 21
15.5972174858
  0
LINE
  5
256
100
AcDbEntity
  8
0
100
AcDbLine
 62
5
  6
CONTINUOUS
 10
319.7342808319
 20
15.5999194551
 11
318.1432039473
 21
15.5999194551
  0
LINE
  5
257
100
AcDbEntity
  8
0
100
AcDbLine
 62
5
  6
CONTINUOUS
 10
324.0366762337
 20
15.8768346901
 11
325.0062549732
 21
15.8768346901
  0
LINE
  5
258
100
AcDbEntity
  8
0
100
AcDbLine
 62
5
  6
CONTINUOUS
 10
312.4686762337
 20
15.8808346901
 11
313.4382549732
 21
15.8808346901
  0
LINE
  5
259
100
AcDbEntity
  8
0
100
AcDbLine
 62
5
  6
CONTINUOUS
 10
305.3176653195
 20
15.8821327208
 11
306.2651737524
 21
15.8821327208
  0
LINE
  5
25A
100
AcDbEntity
  8
0
100
AcDbLine
 62
5
  6
CONTINUOUS
 10
333.3565886277
 20
16.7686025292
 11
332.5050163499
 21
16.7686025292
  0
LINE
  5
25B
100
AcDbEntity
  8
0
100
AcDbLine
 62
5
  6
CONTINUOUS
 10
338.043721902
 20
16.8354660726
 11
337.2744815567
 21
16.8354660726
  0
LINE
  5
25C
100
AcDbEntity
  8
0
100
AcDbLine
 62
5
  6
CONTINUOUS
 10
314.4491052761
 20
16.98304245
 11
313.5342773815
 21
16.98304245
  0
LINE
  5
25D
100
AcDbEntity
  8
0
100
AcDbLine
 62
5
  6
CONTINUOUS
 10
334.4888288739
 20
16.0815442551
 11
334.6366077596
 21
16.0590003035
  0
LINE
  5
25E
100
AcDbEntity
  8
0
100
AcDbLine
 62
5
  6
CONTINUOUS
 10
312.5771605797
 20
15.5097823248
 11
311.7431872354
 21
15.698621379
  0
LINE
  5
25F
100
AcDbEntity
  8
0
100
AcDbLine
 62
5
  6
CONTINUOUS
 10
324.1451605797
 20
15.5057823248
 11
323.3111872354
 21
15.694621379
  0
LINE
  5
260
100
AcDbEntity
  8
0
100
AcDbLine
 62
5
  6
CONTINUOUS
 10
305.4236802603
 20
15.5110803555
 11
304.608690467
 21
15.6999194096
  0
LINE
  5
261
100
AcDbEntity
  8
0
100
AcDbLine
 62
5
  6
CONTINUOUS
 10
333.4937146393
 20
16.4010224699
 11
333.3565886277
 21
16.7686025292
  0
LINE
  5
262
100
AcDbEntity
  8
0
100
AcDbLine
 62
5
  6
CONTINUOUS
 10
332.5050163499
 20
16.7686025292
 11
332.5050163499
 21
13.3399873543
  0
LINE
  5
263
100
AcDbEntity
  8
0
100
AcDbLine
 62
5
  6
CONTINUOUS
 10
333.4171874831
 20
13.3399873543
 11
333.4171874831
 21
14.6960186117
  0
LINE
  5
264
100
AcDbEntity
  8
0
100
AcDbLine
 62
5
  6
CONTINUOUS
 10
334.6366077596
 20
16.0590003035
 11
334.6366077596
 21
16.8131690501
  0
LINE
  5
265
100
AcDbEntity
  8
0
100
AcDbLine
 62
5
  6
CONTINUOUS
 10
337.2744815567
 20
16.8354660726
 11
337.2744815567
 21
16.3938367534
  0
LINE
  5
266
100
AcDbEntity
  8
0
100
AcDbLine
 62
5
  6
CONTINUOUS
 10
338.043721902
 20
13.3495923808
 11
338.043721902
 21
16.8354660726
  0
LINE
  5
267
100
AcDbEntity
  8
0
100
AcDbLine
 62
5
  6
CONTINUOUS
 10
333.4171874831
 20
14.6960186117
 11
333.4637139877
 21
15.1173010613
  0
LINE
  5
268
100
AcDbEntity
  8
0
100
AcDbLine
 62
5
  6
CONTINUOUS
 10
321.6530163542
 20
21.8079873543
 11
320.7450163542
 21
21.8079873543
  0
LINE
  5
269
100
AcDbEntity
  8
0
100
AcDbLine
 62
5
  6
CONTINUOUS
 10
302.9970163542
 20
21.8079873543
 11
302.1330163542
 21
21.8079873543
  0
LINE
  5
26A
100
AcDbEntity
  8
0
100
AcDbLine
 62
5
  6
CONTINUOUS
 10
326.2055820823
 20
21.8443873543
 11
325.2210163315
 21
21.8443873543
  0
LINE
  5
26B
100
AcDbEntity
  8
0
100
AcDbLine
 62
5
  6
CONTINUOUS
 10
298.3250163542
 20
22.0999873543
 11
306.7250163542
 21
22.0999873543
  0
LINE
  5
26C
100
AcDbEntity
  8
0
100
AcDbLine
 62
5
  6
CONTINUOUS
 10
307.1250163542
 20
22.4999873543
 11
297.9250163542
 21
22.4999873543
  0
ARC
  5
26D
100
AcDbEntity
  8
0
100
AcDbCircle
 62
5
  6
CONTINUOUS
 10
336.2785437196
 20
20.7212476445
 40
8.013993536
100
AcDbArc
 50
268.9290579739
 51
271.0709420261
  0
ARC
  5
26E
100
AcDbEntity
  8
0
100
AcDbCircle
 62
5
  6
CONTINUOUS
 10
340.3985069657
 20
13.7568332552
 40
3.3193039142
100
AcDbArc
 50
179.9741546701
 51
183.2978387268
  0
ARC
  5
26F
100
AcDbEntity
  8
0
100
AcDbCircle
 62
5
  6
CONTINUOUS
 10
336.219721902
 20
15.0754660726
 40
3.084
100
AcDbArc
 50
262.5863261985
 51
287.7362518
  0
ARC
  5
270
100
AcDbEntity
  8
0
100
AcDbCircle
 62
5
  6
CONTINUOUS
 10
323.5446992769
 20
12.8742297155
 40
2.6991893064
100
AcDbArc
 50
69.711904135
 51
77.1464457876
  0
ARC
  5
271
100
AcDbEntity
  8
0
100
AcDbCircle
 62
5
  6
CONTINUOUS
 10
311.9766992769
 20
12.8782297155
 40
2.6991893064
100
AcDbArc
 50
69.711904135
 51
77.1464457876
  0
ARC
  5
272
100
AcDbEntity
  8
0
100
AcDbCircle
 62
5
  6
CONTINUOUS
 10
304.8340368968
 20
12.9863601654
 40
2.5926610528
100
AcDbArc
 50
69.2757911335
 51
76.854313548
  0
ARC
  5
273
100
AcDbEntity
  8
0
100
AcDbCircle
 62
5
  6
CONTINUOUS
 10
315.1981194045
 20
15.1881870034
 40
1.9675366406
100
AcDbArc
 50
309.7462536266
 51
348.1342686422
  0
ARC
  5
274
100
AcDbEntity
  8
0
100
AcDbCircle
 62
5
  6
CONTINUOUS
 10
315.1981194045
 20
15.1881870034
 40
1.9675366406
100
AcDbArc
 50
11.311960254
 51
46.3381254223
  0
ARC
  5
275
100
AcDbEntity
  8
0
100
AcDbCircle
 62
5
  6
CONTINUOUS
 10
314.3730163542
 20
15.2079873543
 40
1.764
100
AcDbArc
 50
343.6739161688
 51
360.0
  0
ARC
  5
276
100
AcDbEntity
  8
0
100
AcDbCircle
 62
5
  6
CONTINUOUS
 10
315.521243094
 20
15.0520776234
 40
1.6875637879
100
AcDbArc
 50
262.225530142
 51
297.7740136114
  0
ARC
  5
277
100
AcDbEntity
  8
0
100
AcDbCircle
 62
5
  6
CONTINUOUS
 10
336.027721902
 20
13.5999051623
 40
1.596
100
AcDbArc
 50
236.3397201072
 51
262.5863261985
  0
ARC
  5
278
100
AcDbEntity
  8
0
100
AcDbCircle
 62
5
  6
CONTINUOUS
 10
334.7687303471
 20
14.9731748352
 40
1.3129509007
100
AcDbArc
 50
148.1557474017
 51
173.6977844408
  0
ARC
  5
279
100
AcDbEntity
  8
0
100
AcDbCircle
 62
5
  6
CONTINUOUS
 10
336.771721902
 20
13.3495923808
 40
1.272
100
AcDbArc
 50
287.7362518
 51
360.0
  0
ARC
  5
27A
100
AcDbEntity
  8
0
100
AcDbCircle
 62
5
  6
CONTINUOUS
 10
315.6490163542
 20
15.0950240842
 40
1.136
100
AcDbArc
 50
180.0
 51
207.1129411294
  0
ARC
  5
27B
100
AcDbEntity
  8
0
100
AcDbCircle
 62
5
  6
CONTINUOUS
 10
334.4045846962
 20
15.0336833684
 40
1.0512418938
100
AcDbArc
 50
85.40351539
 51
100.4696754519
  0
ARC
  5
27C
100
AcDbEntity
  8
0
100
AcDbCircle
 62
5
  6
CONTINUOUS
 10
315.1250163542
 20
15.4255595093
 40
1.012
100
AcDbArc
 50
0.0
 51
31.788330617
  0
ARC
  5
27D
100
AcDbEntity
  8
0
100
AcDbCircle
 62
5
  6
CONTINUOUS
 10
336.3566310249
 20
15.1559873543
 40
1.004
100
AcDbArc
 50
136.0170368696
 51
224.1103501111
  0
ARC
  5
27E
100
AcDbEntity
  8
0
100
AcDbCircle
 62
5
  6
CONTINUOUS
 10
336.1218668705
 20
15.1559873543
 40
1.004
100
AcDbArc
 50
325.2838374326
 51
10.5325754549
  0
ARC
  5
27F
100
AcDbEntity
  8
0
100
AcDbCircle
 62
5
  6
CONTINUOUS
 10
336.1401034932
 20
13.5114564223
 40
0.946163226
100
AcDbArc
 50
324.7130554607
 51
3.2978387268
  0
ARC
  5
280
100
AcDbEntity
  8
0
100
AcDbCircle
 62
5
  6
CONTINUOUS
 10
336.2530163542
 20
15.2559873543
 40
0.86
100
AcDbArc
 50
5.5735187429
 51
136.0170368696
  0
ARC
  5
281
100
AcDbEntity
  8
0
100
AcDbCircle
 62
5
  6
CONTINUOUS
 10
315.3450163542
 20
15.4941600252
 40
0.832
100
AcDbArc
 50
105.4660099534
 51
180.0
  0
ARC
  5
282
100
AcDbEntity
  8
0
100
AcDbCircle
 62
5
  6
CONTINUOUS
 10
336.2450163542
 20
14.9999873543
 40
0.816
100
AcDbArc
 50
221.6998787553
 51
329.3664120252
  0
ARC
  5
283
100
AcDbEntity
  8
0
100
AcDbCircle
 62
5
  6
CONTINUOUS
 10
334.3608293905
 20
15.270465196
 40
0.8104511949
100
AcDbArc
 50
100.4696754519
 51
150.7957950668
  0
ARC
  5
284
100
AcDbEntity
  8
0
100
AcDbCircle
 62
5
  6
CONTINUOUS
 10
315.3250163542
 20
14.9291325534
 40
0.772
100
AcDbArc
 50
207.1129411294
 51
343.6739161688
  0
ARC
  5
285
100
AcDbEntity
  8
0
100
AcDbCircle
 62
5
  6
CONTINUOUS
 10
315.3290163542
 20
15.5519873543
 40
0.772
100
AcDbArc
 50
31.788330617
 51
105.4660099534
  0
ARC
  5
286
100
AcDbEntity
  8
0
100
AcDbCircle
 62
5
  6
CONTINUOUS
 10
336.416983946
 20
13.3155088374
 40
0.6069608659
100
AcDbArc
 50
271.0709420261
 51
324.7130554606
  0
ARC
  5
287
100
AcDbEntity
  8
0
100
AcDbCircle
 62
5
  6
CONTINUOUS
 10
336.1401034932
 20
13.3155088374
 40
0.6069608659
100
AcDbArc
 50
202.8280540764
 51
268.9290579739
  0
ARC
  5
288
100
AcDbEntity
  8
0
100
AcDbCircle
 62
5
  6
CONTINUOUS
 10
316.0622796559
 20
14.0247813756
 40
0.5265047274
100
AcDbArc
 50
297.7740136114
 51
318.4231605891
  0
ARC
  5
289
100
AcDbEntity
  8
0
100
AcDbCircle
 62
5
  6
CONTINUOUS
 10
334.458912988
 20
16.5170528642
 40
0.345340741
100
AcDbArc
 50
59.0326782368
 51
85.0304008414
  0
SPLINE
  5
28A
100
AcDbEntity
  8
0
100
AcDbSpline
 62
5
  6
CONTINUOUS
 70
0
 71
3
 72
8
 73
4
 74
0
 42
0.0000001
 43
0.0000001
 44
0.0000000001
 40
0.0
 40
0.0
 40
0.0
 40
0.0
 40
1.0
 40
1.0
 40
1.0
 40
1.0
 10
303.1211684252
 20
14.5536329447
 30
0.0
 10
303.1741758955
 20
13.725391302
 30
0.0
 10
303.7373802591
 20
13.3145834157
 30
0.0
 10
304.8140944601
 20
13.3145834157
 30
0.0
  0
SPLINE
  5
28B
100
AcDbEntity
  8
0
100
AcDbSpline
 62
5
  6
CONTINUOUS
 70
0
 71
3
 72
8
 73
4
 74
0
 42
0.0000001
 43
0.0000001
 44
0.0000000001
 40
0.0
 40
0.0
 40
0.0
 40
0.0
 40
1.0
 40
1.0
 40
1.0
 40
1.0
 10
304.8140944601
 20
13.3145834157
 30
0.0
 10
305.3309172417
 20
13.3145834157
 30
0.0
 10
305.7185344006
 20
13.4272242857
 30
0.0
 10
305.9802587258
 20
13.652505948
 30
0.0
  0
SPLINE
  5
28C
100
AcDbEntity
  8
0
100
AcDbSpline
 62
5
  6
CONTINUOUS
 70
0
 71
3
 72
8
 73
4
 74
0
 42
0.0000001
 43
0.0000001
 44
0.0000000001
 40
0.0
 40
0.0
 40
0.0
 40
0.0
 40
1.0
 40
1.0
 40
1.0
 40
1.0
 10
305.9802587258
 20
13.652505948
 30
0.0
 10
306.2419832159
 20
13.877787752
 30
0.0
 10
306.3745018555
 20
14.1759547638
 30
0.0
 10
306.3745018555
 20
14.5470070564
 30
0.0
  0
SPLINE
  5
28D
100
AcDbEntity
  8
0
100
AcDbSpline
 62
5
  6
CONTINUOUS
 70
0
 71
3
 72
8
 73
4
 74
0
 42
0.0000001
 43
0.0000001
 44
0.0000000001
 40
0.0
 40
0.0
 40
0.0
 40
0.0
 40
1.0
 40
1.0
 40
1.0
 40
1.0
 10
306.3745018555
 20
14.5470070564
 30
0.0
 10
306.3745018555
 20
14.7159683727
 30
0.0
 10
306.3413719774
 20
14.8650518059
 30
0.0
 10
306.2745637152
 20
14.9906514468
 30
0.0
  0
SPLINE
  5
28E
100
AcDbEntity
  8
0
100
AcDbSpline
 62
5
  6
CONTINUOUS
 70
0
 71
3
 72
8
 73
4
 74
0
 42
0.0000001
 43
0.0000001
 44
0.0000000001
 40
0.0
 40
0.0
 40
0.0
 40
0.0
 40
1.0
 40
1.0
 40
1.0
 40
1.0
 10
306.2745637152
 20
14.9906514468
 30
0.0
 10
306.1757237507
 20
15.1764707397
 30
0.0
 10
306.0034494902
 20
15.3156152676
 30
0.0
 10
305.7515020195
 20
15.4112620362
 30
0.0
  0
SPLINE
  5
28F
100
AcDbEntity
  8
0
100
AcDbSpline
 62
5
  6
CONTINUOUS
 70
0
 71
3
 72
8
 73
4
 74
0
 42
0.0000001
 43
0.0000001
 44
0.0000000001
 40
0.0
 40
0.0
 40
0.0
 40
0.0
 40
1.0
 40
1.0
 40
1.0
 40
1.0
 10
304.608690467
 20
15.6999194096
 30
0.0
 10
304.492736621
 20
15.7197972201
 30
0.0
 10
304.3966605855
 20
15.7529269527
 30
0.0
 10
304.3189259164
 20
15.7964583347
 30
0.0
  0
SPLINE
  5
290
100
AcDbEntity
  8
0
100
AcDbSpline
 62
5
  6
CONTINUOUS
 70
0
 71
3
 72
8
 73
4
 74
0
 42
0.0000001
 43
0.0000001
 44
0.0000000001
 40
0.0
 40
0.0
 40
0.0
 40
0.0
 40
1.0
 40
1.0
 40
1.0
 40
1.0
 10
304.3189259164
 20
15.7964583347
 30
0.0
 10
304.2310122133
 20
15.8456899714
 30
0.0
 10
304.1879437209
 20
15.9252010678
 30
0.0
 10
304.1879437209
 20
16.0378421878
 30
0.0
  0
SPLINE
  5
291
100
AcDbEntity
  8
0
100
AcDbSpline
 62
5
  6
CONTINUOUS
 70
0
 71
3
 72
8
 73
4
 74
0
 42
0.0000001
 43
0.0000001
 44
0.0000000001
 40
0.0
 40
0.0
 40
0.0
 40
0.0
 40
1.0
 40
1.0
 40
1.0
 40
1.0
 10
304.1879437209
 20
16.0378421878
 30
0.0
 10
304.1879437209
 20
16.1372309493
 30
0.0
 10
304.2343252302
 20
16.2134291743
 30
0.0
 10
304.3311263098
 20
16.271843624
 30
0.0
  0
SPLINE
  5
292
100
AcDbEntity
  8
0
100
AcDbSpline
 62
5
  6
CONTINUOUS
 70
0
 71
3
 72
8
 73
4
 74
0
 42
0.0000001
 43
0.0000001
 44
0.0000000001
 40
0.0
 40
0.0
 40
0.0
 40
0.0
 40
1.0
 40
1.0
 40
1.0
 40
1.0
 10
304.3311263098
 20
16.271843624
 30
0.0
 10
304.4264773012
 20
16.3293830203
 30
0.0
 10
304.5490570355
 20
16.3591998814
 30
0.0
 10
304.6948275972
 20
16.3591998814
 30
0.0
  0
SPLINE
  5
293
100
AcDbEntity
  8
0
100
AcDbSpline
 62
5
  6
CONTINUOUS
 70
0
 71
3
 72
8
 73
4
 74
0
 42
0.0000001
 43
0.0000001
 44
0.0000000001
 40
0.0
 40
0.0
 40
0.0
 40
0.0
 40
1.0
 40
1.0
 40
1.0
 40
1.0
 10
304.6948275972
 20
16.3591998814
 30
0.0
 10
305.0526280404
 20
16.3591998814
 30
0.0
 10
305.2580320335
 20
16.2001773976
 30
0.0
 10
305.3176653195
 20
15.8821327208
 30
0.0
  0
SPLINE
  5
294
100
AcDbEntity
  8
0
100
AcDbSpline
 62
5
  6
CONTINUOUS
 70
0
 71
3
 72
8
 73
4
 74
0
 42
0.0000001
 43
0.0000001
 44
0.0000000001
 40
0.0
 40
0.0
 40
0.0
 40
0.0
 40
1.0
 40
1.0
 40
1.0
 40
1.0
 10
306.2651737524
 20
15.8821327208
 30
0.0
 10
306.2121663547
 20
16.683870592
 30
0.0
 10
305.6887175394
 20
17.0847395276
 30
0.0
 10
304.6948275972
 20
17.0847395276
 30
0.0
  0
SPLINE
  5
295
100
AcDbEntity
  8
0
100
AcDbSpline
 62
5
  6
CONTINUOUS
 70
0
 71
3
 72
8
 73
4
 74
0
 42
0.0000001
 43
0.0000001
 44
0.0000000001
 40
0.0
 40
0.0
 40
0.0
 40
0.0
 40
1.0
 40
1.0
 40
1.0
 40
1.0
 10
304.6948275972
 20
17.0847395276
 30
0.0
 10
304.2442641355
 20
17.0847395276
 30
0.0
 10
303.8897767092
 20
16.9787247323
 30
0.0
 10
303.6307051615
 20
16.7675071482
 30
0.0
  0
SPLINE
  5
296
100
AcDbEntity
  8
0
100
AcDbSpline
 62
5
  6
CONTINUOUS
 70
0
 71
3
 72
8
 73
4
 74
0
 42
0.0000001
 43
0.0000001
 44
0.0000000001
 40
0.0
 40
0.0
 40
0.0
 40
0.0
 40
1.0
 40
1.0
 40
1.0
 40
1.0
 10
303.6307051615
 20
16.7675071482
 30
0.0
 10
303.3696409471
 20
16.5546649693
 30
0.0
 10
303.2404352153
 20
16.2697498797
 30
0.0
 10
303.2404352153
 20
15.9119492911
 30
0.0
  0
SPLINE
  5
297
100
AcDbEntity
  8
0
100
AcDbSpline
 62
5
  6
CONTINUOUS
 70
0
 71
3
 72
8
 73
4
 74
0
 42
0.0000001
 43
0.0000001
 44
0.0000000001
 40
0.0
 40
0.0
 40
0.0
 40
0.0
 40
1.0
 40
1.0
 40
1.0
 40
1.0
 10
303.2404352153
 20
15.9119492911
 30
0.0
 10
303.2404352153
 20
15.5243322777
 30
0.0
 10
303.3762668718
 20
15.26260787
 30
0.0
 10
303.6475385597
 20
15.1227067206
 30
0.0
  0
SPLINE
  5
298
100
AcDbEntity
  8
0
100
AcDbSpline
 62
5
  6
CONTINUOUS
 70
0
 71
3
 72
8
 73
4
 74
0
 42
0.0000001
 43
0.0000001
 44
0.0000000001
 40
0.0
 40
0.0
 40
0.0
 40
0.0
 40
1.0
 40
1.0
 40
1.0
 40
1.0
 10
303.6475385597
 20
15.1227067206
 30
0.0
 10
303.9030285586
 20
14.9909445571
 30
0.0
 10
304.2409511186
 20
14.8915556501
 30
0.0
 10
304.6615502536
 20
14.8211104089
 30
0.0
  0
SPLINE
  5
299
100
AcDbEntity
  8
0
100
AcDbSpline
 62
5
  6
CONTINUOUS
 70
0
 71
3
 72
8
 73
4
 74
0
 42
0.0000001
 43
0.0000001
 44
0.0000000001
 40
0.0
 40
0.0
 40
0.0
 40
0.0
 40
1.0
 40
1.0
 40
1.0
 40
1.0
 10
304.6615502536
 20
14.8211104089
 30
0.0
 10
304.9134833671
 20
14.7789146756
 30
0.0
 10
305.1122614719
 20
14.7225942611
 30
0.0
 10
305.2504337531
 20
14.6544053174
 30
0.0
  0
SPLINE
  5
29A
100
AcDbEntity
  8
0
100
AcDbSpline
 62
5
  6
CONTINUOUS
 70
0
 71
3
 72
8
 73
4
 74
0
 42
0.0000001
 43
0.0000001
 44
0.0000000001
 40
0.0
 40
0.0
 40
0.0
 40
0.0
 40
1.0
 40
1.0
 40
1.0
 40
1.0
 10
305.2504337531
 20
14.6544053174
 30
0.0
 10
305.3673598457
 20
14.5967015098
 30
0.0
 10
305.4269932772
 20
14.5039384912
 30
0.0
 10
305.4269932772
 20
14.371419779
 30
0.0
  0
SPLINE
  5
29B
100
AcDbEntity
  8
0
100
AcDbSpline
 62
5
  6
CONTINUOUS
 70
0
 71
3
 72
8
 73
4
 74
0
 42
0.0000001
 43
0.0000001
 44
0.0000000001
 40
0.0
 40
0.0
 40
0.0
 40
0.0
 40
1.0
 40
1.0
 40
1.0
 40
1.0
 10
305.4269932772
 20
14.371419779
 30
0.0
 10
305.4269932772
 20
14.2720307993
 30
0.0
 10
305.3673598457
 20
14.1925196301
 30
0.0
 10
305.2543665737
 20
14.1335665811
 30
0.0
  0
SPLINE
  5
29C
100
AcDbEntity
  8
0
100
AcDbSpline
 62
5
  6
CONTINUOUS
 70
0
 71
3
 72
8
 73
4
 74
0
 42
0.0000001
 43
0.0000001
 44
0.0000000001
 40
0.0
 40
0.0
 40
0.0
 40
0.0
 40
1.0
 40
1.0
 40
1.0
 40
1.0
 10
305.2543665737
 20
14.1335665811
 30
0.0
 10
305.1387651707
 20
14.0732527672
 30
0.0
 10
304.9963076259
 20
14.0434361242
 30
0.0
 10
304.8273462368
 20
14.0434361242
 30
0.0
  0
SPLINE
  5
29D
100
AcDbEntity
  8
0
100
AcDbSpline
 62
5
  6
CONTINUOUS
 70
0
 71
3
 72
8
 73
4
 74
0
 42
0.0000001
 43
0.0000001
 44
0.0000000001
 40
0.0
 40
0.0
 40
0.0
 40
0.0
 40
1.0
 40
1.0
 40
1.0
 40
1.0
 10
304.8273462368
 20
14.0434361242
 30
0.0
 10
304.6517591048
 20
14.0434361242
 30
0.0
 10
304.4894237495
 20
14.0732527672
 30
0.0
 10
304.3400731599
 20
14.1389013872
 30
0.0
  0
SPLINE
  5
29E
100
AcDbEntity
  8
0
100
AcDbSpline
 62
5
  6
CONTINUOUS
 70
0
 71
3
 72
8
 73
4
 74
0
 42
0.0000001
 43
0.0000001
 44
0.0000000001
 40
0.0
 40
0.0
 40
0.0
 40
0.0
 40
1.0
 40
1.0
 40
1.0
 40
1.0
 10
304.3400731599
 20
14.1389013872
 30
0.0
 10
304.1879437209
 20
14.2057714795
 30
0.0
 10
304.0984936465
 20
14.341603136
 30
0.0
 10
304.0686769308
 20
14.5536329447
 30
0.0
  0
SPLINE
  5
29F
100
AcDbEntity
  8
0
100
AcDbSpline
 62
5
  6
CONTINUOUS
 70
0
 71
3
 72
8
 73
4
 74
0
 42
0.0000001
 43
0.0000001
 44
0.0000000001
 40
0.0
 40
0.0
 40
0.0
 40
0.0
 40
1.0
 40
1.0
 40
1.0
 40
1.0
 10
299.5008751558
 20
15.5972174858
 30
0.0
 10
299.5737604366
 20
16.0477809476
 30
0.0
 10
299.8222329222
 20
16.2730626058
 30
0.0
 10
300.2462926851
 20
16.2730626058
 30
0.0
  0
SPLINE
  5
2A0
100
AcDbEntity
  8
0
100
AcDbSpline
 62
5
  6
CONTINUOUS
 70
0
 71
3
 72
8
 73
4
 74
0
 42
0.0000001
 43
0.0000001
 44
0.0000000001
 40
0.0
 40
0.0
 40
0.0
 40
0.0
 40
1.0
 40
1.0
 40
1.0
 40
1.0
 10
300.2462926851
 20
16.2730626058
 30
0.0
 10
300.6703524481
 20
16.2730626058
 30
0.0
 10
300.9055731569
 20
16.0477809476
 30
0.0
 10
300.9519545208
 20
15.5972174858
 30
0.0
  0
SPLINE
  5
2A1
100
AcDbEntity
  8
0
100
AcDbSpline
 62
5
  6
CONTINUOUS
 70
0
 71
3
 72
8
 73
4
 74
0
 42
0.0000001
 43
0.0000001
 44
0.0000000001
 40
0.0
 40
0.0
 40
0.0
 40
0.0
 40
1.0
 40
1.0
 40
1.0
 40
1.0
 10
298.5467407255
 20
15.1400281357
 30
0.0
 10
298.5467407255
 20
14.5967015098
 30
0.0
 10
298.6991372119
 20
14.1560769533
 30
0.0
 10
299.0039301298
 20
13.818154373
 30
0.0
  0
SPLINE
  5
2A2
100
AcDbEntity
  8
0
100
AcDbSpline
 62
5
  6
CONTINUOUS
 70
0
 71
3
 72
8
 73
4
 74
0
 42
0.0000001
 43
0.0000001
 44
0.0000000001
 40
0.0
 40
0.0
 40
0.0
 40
0.0
 40
1.0
 40
1.0
 40
1.0
 40
1.0
 10
299.0039301298
 20
13.818154373
 30
0.0
 10
299.3087230848
 20
13.4802317516
 30
0.0
 10
299.7228438698
 20
13.3145834157
 30
0.0
 10
300.2529185735
 20
13.3145834157
 30
0.0
  0
SPLINE
  5
2A3
100
AcDbEntity
  8
0
100
AcDbSpline
 62
5
  6
CONTINUOUS
 70
0
 71
3
 72
8
 73
4
 74
0
 42
0.0000001
 43
0.0000001
 44
0.0000000001
 40
0.0
 40
0.0
 40
0.0
 40
0.0
 40
1.0
 40
1.0
 40
1.0
 40
1.0
 10
300.2529185735
 20
13.3145834157
 30
0.0
 10
300.5941542231
 20
13.3145834157
 30
0.0
 10
300.8956341063
 20
13.3907816521
 30
0.0
 10
301.1533378796
 20
13.5345010714
 30
0.0
  0
SPLINE
  5
2A4
100
AcDbEntity
  8
0
100
AcDbSpline
 62
5
  6
CONTINUOUS
 70
0
 71
3
 72
8
 73
4
 74
0
 42
0.0000001
 43
0.0000001
 44
0.0000000001
 40
0.0
 40
0.0
 40
0.0
 40
0.0
 40
1.0
 40
1.0
 40
1.0
 40
1.0
 10
301.1533378796
 20
13.5345010714
 30
0.0
 10
301.4124568878
 20
13.6790097564
 30
0.0
 10
301.6476775967
 20
13.9771767681
 30
0.0
 10
301.8597074781
 20
14.4244272493
 30
0.0
  0
SPLINE
  5
2A5
100
AcDbEntity
  8
0
100
AcDbSpline
 62
5
  6
CONTINUOUS
 70
0
 71
3
 72
8
 73
4
 74
0
 42
0.0000001
 43
0.0000001
 44
0.0000000001
 40
0.0
 40
0.0
 40
0.0
 40
0.0
 40
1.0
 40
1.0
 40
1.0
 40
1.0
 10
300.9121988999
 20
14.4244272493
 30
0.0
 10
300.7896193109
 20
14.2919086098
 30
0.0
 10
300.6869172417
 20
14.2090844237
 30
0.0
 10
300.6040931183
 20
14.1759547888
 30
0.0
  0
SPLINE
  5
2A6
100
AcDbEntity
  8
0
100
AcDbSpline
 62
5
  6
CONTINUOUS
 70
0
 71
3
 72
8
 73
4
 74
0
 42
0.0000001
 43
0.0000001
 44
0.0000000001
 40
0.0
 40
0.0
 40
0.0
 40
0.0
 40
1.0
 40
1.0
 40
1.0
 40
1.0
 10
300.6040931183
 20
14.1759547888
 30
0.0
 10
300.5212688695
 20
14.1428251039
 30
0.0
 10
300.4152539287
 20
14.1262602376
 30
0.0
 10
300.2860483061
 20
14.1262602376
 30
0.0
  0
SPLINE
  5
2A7
100
AcDbEntity
  8
0
100
AcDbSpline
 62
5
  6
CONTINUOUS
 70
0
 71
3
 72
8
 73
4
 74
0
 42
0.0000001
 43
0.0000001
 44
0.0000000001
 40
0.0
 40
0.0
 40
0.0
 40
0.0
 40
1.0
 40
1.0
 40
1.0
 40
1.0
 10
300.2860483061
 20
14.1262602376
 30
0.0
 10
299.7957292233
 20
14.1262602376
 30
0.0
 10
299.5306917988
 20
14.3979235505
 30
0.0
 10
299.4942491947
 20
14.9445630478
 30
0.0
  0
SPLINE
  5
2A8
100
AcDbEntity
  8
0
100
AcDbSpline
 62
5
  6
CONTINUOUS
 70
0
 71
3
 72
8
 73
4
 74
0
 42
0.0000001
 43
0.0000001
 44
0.0000000001
 40
0.0
 40
0.0
 40
0.0
 40
0.0
 40
1.0
 40
1.0
 40
1.0
 40
1.0
 10
301.8994630991
 20
14.9445630478
 30
0.0
 10
301.8928370653
 20
15.5508359765
 30
0.0
 10
301.8199518572
 20
15.991460533
 30
0.0
 10
301.6734939681
 20
16.2660690934
 30
0.0
  0
SPLINE
  5
2A9
100
AcDbEntity
  8
0
100
AcDbSpline
 62
5
  6
CONTINUOUS
 70
0
 71
3
 72
8
 73
4
 74
0
 42
0.0000001
 43
0.0000001
 44
0.0000000001
 40
0.0
 40
0.0
 40
0.0
 40
0.0
 40
1.0
 40
1.0
 40
1.0
 40
1.0
 10
301.6734939681
 20
16.2660690934
 30
0.0
 10
301.5284107338
 20
16.5381001758
 30
0.0
 10
301.3329456459
 20
16.7435040234
 30
0.0
 10
301.0877861773
 20
16.8793356799
 30
0.0
  0
SPLINE
  5
2AA
100
AcDbEntity
  8
0
100
AcDbSpline
 62
5
  6
CONTINUOUS
 70
0
 71
3
 72
8
 73
4
 74
0
 42
0.0000001
 43
0.0000001
 44
0.0000000001
 40
0.0
 40
0.0
 40
0.0
 40
0.0
 40
1.0
 40
1.0
 40
1.0
 40
1.0
 10
301.0877861773
 20
16.8793356799
 30
0.0
 10
300.8426267086
 20
17.0151673364
 30
0.0
 10
300.5577114736
 20
17.0847395276
 30
0.0
 10
300.233040763
 20
17.0847395276
 30
0.0
  0
SPLINE
  5
2AB
100
AcDbEntity
  8
0
100
AcDbSpline
 62
5
  6
CONTINUOUS
 70
0
 71
3
 72
8
 73
4
 74
0
 42
0.0000001
 43
0.0000001
 44
0.0000000001
 40
0.0
 40
0.0
 40
0.0
 40
0.0
 40
1.0
 40
1.0
 40
1.0
 40
1.0
 10
300.233040763
 20
17.0847395276
 30
0.0
 10
299.6797753774
 20
17.0847395276
 30
0.0
 10
299.2590285586
 20
16.9091522502
 30
0.0
 10
298.9741135182
 20
16.5579779463
 30
0.0
  0
SPLINE
  5
2AC
100
AcDbEntity
  8
0
100
AcDbSpline
 62
5
  6
CONTINUOUS
 70
0
 71
3
 72
8
 73
4
 74
0
 42
0.0000001
 43
0.0000001
 44
0.0000000001
 40
0.0
 40
0.0
 40
0.0
 40
0.0
 40
1.0
 40
1.0
 40
1.0
 40
1.0
 10
298.9741135182
 20
16.5579779463
 30
0.0
 10
298.6891983067
 20
16.2068034314
 30
0.0
 10
298.5467407255
 20
15.7363621592
 30
0.0
 10
298.5467407255
 20
15.1400281357
 30
0.0
  0
SPLINE
  5
2AD
100
AcDbEntity
  8
0
100
AcDbSpline
 62
5
  6
CONTINUOUS
 70
0
 71
3
 72
8
 73
4
 74
0
 42
0.0000001
 43
0.0000001
 44
0.0000000001
 40
0.0
 40
0.0
 40
0.0
 40
0.0
 40
1.0
 40
1.0
 40
1.0
 40
1.0
 10
334.640046115
 20
13.0800281012
 30
0.0
 10
334.6935190802
 20
12.7877266437
 30
0.0
 10
334.7897704489
 20
12.5716777706
 30
0.0
 10
334.9278079666
 20
12.4342720069
 30
0.0
  0
SPLINE
  5
2AE
100
AcDbEntity
  8
0
100
AcDbSpline
 62
5
  6
CONTINUOUS
 70
0
 71
3
 72
8
 73
4
 74
0
 42
0.0000001
 43
0.0000001
 44
0.0000000001
 40
0.0
 40
0.0
 40
0.0
 40
0.0
 40
1.0
 40
1.0
 40
1.0
 40
1.0
 10
334.9278079666
 20
12.4342720069
 30
0.0
 10
334.9900866911
 20
12.3722783124
 30
0.0
 10
335.0618120012
 20
12.3180624324
 30
0.0
 10
335.1431109005
 20
12.2714928106
 30
0.0
  0
SPLINE
  5
2AF
100
AcDbEntity
  8
0
100
AcDbSpline
 62
5
  6
CONTINUOUS
 70
0
 71
3
 72
8
 73
4
 74
0
 42
0.0000001
 43
0.0000001
 44
0.0000000001
 40
0.0
 40
0.0
 40
0.0
 40
0.0
 40
1.0
 40
1.0
 40
1.0
 40
1.0
 10
337.2744815567
 20
16.3938367534
 30
0.0
 10
337.1033679428
 20
16.6098855568
 30
0.0
 10
336.9286894098
 20
16.7560362506
 30
0.0
 10
336.7426730471
 20
16.8277711225
 30
0.0
  0
SPLINE
  5
2B0
100
AcDbEntity
  8
0
100
AcDbSpline
 62
5
  6
CONTINUOUS
 70
0
 71
3
 72
8
 73
4
 74
0
 42
0.0000001
 43
0.0000001
 44
0.0000000001
 40
0.0
 40
0.0
 40
0.0
 40
0.0
 40
1.0
 40
1.0
 40
1.0
 40
1.0
 10
336.7426730471
 20
16.8277711225
 30
0.0
 10
336.5579436115
 20
16.899009707
 30
0.0
 10
336.354746195
 20
16.9371359992
 30
0.0
 10
336.1337246524
 20
16.9371359992
 30
0.0
  0
SPLINE
  5
2B1
100
AcDbEntity
  8
0
100
AcDbSpline
 62
5
  6
CONTINUOUS
 70
0
 71
3
 72
8
 73
4
 74
0
 42
0.0000001
 43
0.0000001
 44
0.0000000001
 40
0.0
 40
0.0
 40
0.0
 40
0.0
 40
1.0
 40
1.0
 40
1.0
 40
1.0
 10
336.1337246524
 20
16.9371359992
 30
0.0
 10
335.6560326889
 20
16.9371359992
 30
0.0
 10
335.2674623733
 20
16.7750993968
 30
0.0
 10
334.9608838795
 20
16.4542032003
 30
0.0
  0
SPLINE
  5
2B2
100
AcDbEntity
  8
0
100
AcDbSpline
 62
5
  6
CONTINUOUS
 70
0
 71
3
 72
8
 73
4
 74
0
 42
0.0000001
 43
0.0000001
 44
0.0000000001
 40
0.0
 40
0.0
 40
0.0
 40
0.0
 40
1.0
 40
1.0
 40
1.0
 40
1.0
 10
334.9608838795
 20
16.4542032003
 30
0.0
 10
334.6543055567
 20
16.1333071828
 30
0.0
 10
334.5010163624
 20
15.6789690531
 30
0.0
 10
334.5010163624
 20
15.0880118025
 30
0.0
  0
SPLINE
  5
2B3
100
AcDbEntity
  8
0
100
AcDbSpline
 62
5
  6
CONTINUOUS
 70
0
 71
3
 72
8
 73
4
 74
0
 42
0.0000001
 43
0.0000001
 44
0.0000000001
 40
0.0
 40
0.0
 40
0.0
 40
0.0
 40
1.0
 40
1.0
 40
1.0
 40
1.0
 10
334.5010163624
 20
15.0880118025
 30
0.0
 10
334.5010163624
 20
14.566952731
 30
0.0
 10
334.6507407159
 20
14.1570952988
 30
0.0
 10
334.9563518317
 20
13.860826434
 30
0.0
  0
SPLINE
  5
2B4
100
AcDbEntity
  8
0
100
AcDbSpline
 62
5
  6
CONTINUOUS
 70
0
 71
3
 72
8
 73
4
 74
0
 42
0.0000001
 43
0.0000001
 44
0.0000000001
 40
0.0
 40
0.0
 40
0.0
 40
0.0
 40
1.0
 40
1.0
 40
1.0
 40
1.0
 10
334.9563518317
 20
13.860826434
 30
0.0
 10
335.2603326133
 20
13.5661380656
 30
0.0
 10
335.6489030071
 20
13.4199873543
 30
0.0
 10
336.1265948141
 20
13.4199873543
 30
0.0
  0
SPLINE
  5
2B5
100
AcDbEntity
  8
0
100
AcDbSpline
 62
5
  6
CONTINUOUS
 70
0
 71
3
 72
8
 73
4
 74
0
 42
0.0000001
 43
0.0000001
 44
0.0000000001
 40
0.0
 40
0.0
 40
0.0
 40
0.0
 40
1.0
 40
1.0
 40
1.0
 40
1.0
 10
336.1265948141
 20
13.4199873543
 30
0.0
 10
336.4963564858
 20
13.4199873543
 30
0.0
 10
336.8145716525
 20
13.5315582142
 30
0.0
 10
337.0792033892
 20
13.7583305471
 30
0.0
  0
SPLINE
  5
2B6
100
AcDbEntity
  8
0
100
AcDbSpline
 62
5
  6
CONTINUOUS
 70
0
 71
3
 72
8
 73
4
 74
0
 42
0.0000001
 43
0.0000001
 44
0.0000000001
 40
0.0
 40
0.0
 40
0.0
 40
0.0
 40
1.0
 40
1.0
 40
1.0
 40
1.0
 10
334.4888288739
 20
16.8610954011
 30
0.0
 10
334.4154724679
 20
16.8674740364
 30
0.0
 10
334.3612526678
 20
16.870663494
 30
0.0
 10
334.322979736
 20
16.870663494
 30
0.0
  0
SPLINE
  5
2B7
100
AcDbEntity
  8
0
100
AcDbSpline
 62
5
  6
CONTINUOUS
 70
0
 71
3
 72
8
 73
4
 74
0
 42
0.0000001
 43
0.0000001
 44
0.0000000001
 40
0.0
 40
0.0
 40
0.0
 40
0.0
 40
1.0
 40
1.0
 40
1.0
 40
1.0
 10
334.322979736
 20
16.870663494
 30
0.0
 10
334.0075080316
 20
16.870663494
 30
0.0
 10
333.7314321437
 20
16.7130806891
 30
0.0
 10
333.4937146393
 20
16.4010224699
 30
0.0
  0
SPLINE
  5
2B8
100
AcDbEntity
  8
0
100
AcDbSpline
 62
5
  6
CONTINUOUS
 70
0
 71
3
 72
8
 73
4
 74
0
 42
0.0000001
 43
0.0000001
 44
0.0000000001
 40
0.0
 40
0.0
 40
0.0
 40
0.0
 40
1.0
 40
1.0
 40
1.0
 40
1.0
 10
330.6676137976
 20
16.2464281888
 30
0.0
 10
331.1325860815
 20
16.2464281888
 30
0.0
 10
331.3905004601
 20
16.0211465307
 30
0.0
 10
331.4413566143
 20
15.5705830689
 30
0.0
  0
SPLINE
  5
2B9
100
AcDbEntity
  8
0
100
AcDbSpline
 62
5
  6
CONTINUOUS
 70
0
 71
3
 72
8
 73
4
 74
0
 42
0.0000001
 43
0.0000001
 44
0.0000000001
 40
0.0
 40
0.0
 40
0.0
 40
0.0
 40
1.0
 40
1.0
 40
1.0
 40
1.0
 10
329.8502797297
 20
15.5705830689
 30
0.0
 10
329.9301968509
 20
16.0211465307
 30
0.0
 10
330.2026415137
 20
16.2464281888
 30
0.0
 10
330.6676137976
 20
16.2464281888
 30
0.0
  0
SPLINE
  5
2BA
100
AcDbEntity
  8
0
100
AcDbSpline
 62
5
  6
CONTINUOUS
 70
0
 71
3
 72
8
 73
4
 74
0
 42
0.0000001
 43
0.0000001
 44
0.0000000001
 40
0.0
 40
0.0
 40
0.0
 40
0.0
 40
1.0
 40
1.0
 40
1.0
 40
1.0
 10
327.8339025613
 20
15.0997304088
 30
0.0
 10
327.8339025613
 20
14.3929226223
 30
0.0
 10
327.5550567192
 20
14.0395186232
 30
0.0
 10
327.0042508189
 20
14.0395186232
 30
0.0
  0
SPLINE
  5
2BB
100
AcDbEntity
  8
0
100
AcDbSpline
 62
5
  6
CONTINUOUS
 70
0
 71
3
 72
8
 73
4
 74
0
 42
0.0000001
 43
0.0000001
 44
0.0000000001
 40
0.0
 40
0.0
 40
0.0
 40
0.0
 40
1.0
 40
1.0
 40
1.0
 40
1.0
 10
327.0042508189
 20
14.0395186232
 30
0.0
 10
326.8458941075
 20
14.0395186232
 30
0.0
 10
326.7116350711
 20
14.0716462467
 30
0.0
 10
326.6009334213
 20
14.1383299788
 30
0.0
  0
SPLINE
  5
2BC
100
AcDbEntity
  8
0
100
AcDbSpline
 62
5
  6
CONTINUOUS
 70
0
 71
3
 72
8
 73
4
 74
0
 42
0.0000001
 43
0.0000001
 44
0.0000000001
 40
0.0
 40
0.0
 40
0.0
 40
0.0
 40
1.0
 40
1.0
 40
1.0
 40
1.0
 10
326.6009334213
 20
14.1383299788
 30
0.0
 10
326.3329559391
 20
14.2997524931
 30
0.0
 10
326.1986970538
 20
14.6113905041
 30
0.0
 10
326.1986970538
 20
15.0804538207
 30
0.0
  0
SPLINE
  5
2BD
100
AcDbEntity
  8
0
100
AcDbSpline
 62
5
  6
CONTINUOUS
 70
0
 71
3
 72
8
 73
4
 74
0
 42
0.0000001
 43
0.0000001
 44
0.0000000001
 40
0.0
 40
0.0
 40
0.0
 40
0.0
 40
1.0
 40
1.0
 40
1.0
 40
1.0
 10
326.1986970538
 20
15.0804538207
 30
0.0
 10
326.1986970538
 20
15.4563471491
 30
0.0
 10
326.3019732357
 20
15.7390703484
 30
0.0
 10
326.5153774699
 20
15.9286557702
 30
0.0
  0
SPLINE
  5
2BE
100
AcDbEntity
  8
0
100
AcDbSpline
 62
5
  6
CONTINUOUS
 70
0
 71
3
 72
8
 73
4
 74
0
 42
0.0000001
 43
0.0000001
 44
0.0000000001
 40
0.0
 40
0.0
 40
0.0
 40
0.0
 40
1.0
 40
1.0
 40
1.0
 40
1.0
 10
326.5153774699
 20
15.9286557702
 30
0.0
 10
326.6599971313
 20
16.0571339122
 30
0.0
 10
326.8321238995
 20
16.1213890181
 30
0.0
 10
327.0352336735
 20
16.1213890181
 30
0.0
  0
SPLINE
  5
2BF
100
AcDbEntity
  8
0
100
AcDbSpline
 62
5
  6
CONTINUOUS
 70
0
 71
3
 72
8
 73
4
 74
0
 42
0.0000001
 43
0.0000001
 44
0.0000000001
 40
0.0
 40
0.0
 40
0.0
 40
0.0
 40
1.0
 40
1.0
 40
1.0
 40
1.0
 10
327.0352336735
 20
16.1213890181
 30
0.0
 10
327.2762113304
 20
16.1213890181
 30
0.0
 10
327.4724360759
 20
16.0314317006
 30
0.0
 10
327.6170225957
 20
15.8579425286
 30
0.0
  0
SPLINE
  5
2C0
100
AcDbEntity
  8
0
100
AcDbSpline
 62
5
  6
CONTINUOUS
 70
0
 71
3
 72
8
 73
4
 74
0
 42
0.0000001
 43
0.0000001
 44
0.0000000001
 40
0.0
 40
0.0
 40
0.0
 40
0.0
 40
1.0
 40
1.0
 40
1.0
 40
1.0
 10
327.6170225957
 20
15.8579425286
 30
0.0
 10
327.7616090829
 20
15.6844533955
 30
0.0
 10
327.8339025613
 20
15.4306450786
 30
0.0
 10
327.8339025613
 20
15.0997304088
 30
0.0
  0
SPLINE
  5
2C1
100
AcDbEntity
  8
0
100
AcDbSpline
 62
5
  6
CONTINUOUS
 70
0
 71
3
 72
8
 73
4
 74
0
 42
0.0000001
 43
0.0000001
 44
0.0000000001
 40
0.0
 40
0.0
 40
0.0
 40
0.0
 40
1.0
 40
1.0
 40
1.0
 40
1.0
 10
326.171156789
 20
13.952774047
 30
0.0
 10
326.3363985289
 20
13.4837106422
 30
0.0
 10
326.6978650143
 20
13.2523916987
 30
0.0
 10
327.2555560941
 20
13.2523916987
 30
0.0
  0
SPLINE
  5
2C2
100
AcDbEntity
  8
0
100
AcDbSpline
 62
5
  6
CONTINUOUS
 70
0
 71
3
 72
8
 73
4
 74
0
 42
0.0000001
 43
0.0000001
 44
0.0000000001
 40
0.0
 40
0.0
 40
0.0
 40
0.0
 40
1.0
 40
1.0
 40
1.0
 40
1.0
 10
327.2555560941
 20
13.2523916987
 30
0.0
 10
327.7202986101
 20
13.2523916987
 30
0.0
 10
328.0955351524
 20
13.4226681409
 30
0.0
 10
328.3847083538
 20
13.7632210918
 30
0.0
  0
SPLINE
  5
2C3
100
AcDbEntity
  8
0
100
AcDbSpline
 62
5
  6
CONTINUOUS
 70
0
 71
3
 72
8
 73
4
 74
0
 42
0.0000001
 43
0.0000001
 44
0.0000000001
 40
0.0
 40
0.0
 40
0.0
 40
0.0
 40
1.0
 40
1.0
 40
1.0
 40
1.0
 10
328.3847083538
 20
13.7632210918
 30
0.0
 10
328.6367202389
 20
14.0600099738
 30
0.0
 10
328.7789191015
 20
14.4470820012
 30
0.0
 10
328.8113048128
 20
14.9223106464
 30
0.0
  0
SPLINE
  5
2C4
100
AcDbEntity
  8
0
100
AcDbSpline
 62
5
  6
CONTINUOUS
 70
0
 71
3
 72
8
 73
4
 74
0
 42
0.0000001
 43
0.0000001
 44
0.0000000001
 40
0.0
 40
0.0
 40
0.0
 40
0.0
 40
1.0
 40
1.0
 40
1.0
 40
1.0
 10
328.8113048128
 20
14.9223106464
 30
0.0
 10
328.8465835132
 20
14.4658389278
 30
0.0
 10
329.0112787039
 20
14.0889087188
 30
0.0
 10
329.3053903439
 20
13.7915199561
 30
0.0
  0
SPLINE
  5
2C5
100
AcDbEntity
  8
0
100
AcDbSpline
 62
5
  6
CONTINUOUS
 70
0
 71
3
 72
8
 73
4
 74
0
 42
0.0000001
 43
0.0000001
 44
0.0000000001
 40
0.0
 40
0.0
 40
0.0
 40
0.0
 40
1.0
 40
1.0
 40
1.0
 40
1.0
 10
329.3053903439
 20
13.7915199561
 30
0.0
 10
329.6395891735
 20
13.4535973346
 30
0.0
 10
330.0936635848
 20
13.2879489988
 30
0.0
 10
330.6748789397
 20
13.2879489988
 30
0.0
  0
SPLINE
  5
2C6
100
AcDbEntity
  8
0
100
AcDbSpline
 62
5
  6
CONTINUOUS
 70
0
 71
3
 72
8
 73
4
 74
0
 42
0.0000001
 43
0.0000001
 44
0.0000000001
 40
0.0
 40
0.0
 40
0.0
 40
0.0
 40
1.0
 40
1.0
 40
1.0
 40
1.0
 10
330.6748789397
 20
13.2879489988
 30
0.0
 10
331.0490363892
 20
13.2879489988
 30
0.0
 10
331.3796025077
 20
13.3641472352
 30
0.0
 10
331.6621690763
 20
13.5078666545
 30
0.0
  0
SPLINE
  5
2C7
100
AcDbEntity
  8
0
100
AcDbSpline
 62
5
  6
CONTINUOUS
 70
0
 71
3
 72
8
 73
4
 74
0
 42
0.0000001
 43
0.0000001
 44
0.0000000001
 40
0.0
 40
0.0
 40
0.0
 40
0.0
 40
1.0
 40
1.0
 40
1.0
 40
1.0
 10
331.6621690763
 20
13.5078666545
 30
0.0
 10
331.946287419
 20
13.6523753394
 30
0.0
 10
332.2042017975
 20
13.9505423512
 30
0.0
 10
332.4366879395
 20
14.3977928324
 30
0.0
  0
SPLINE
  5
2C8
100
AcDbEntity
  8
0
100
AcDbSpline
 62
5
  6
CONTINUOUS
 70
0
 71
3
 72
8
 73
4
 74
0
 42
0.0000001
 43
0.0000001
 44
0.0000000001
 40
0.0
 40
0.0
 40
0.0
 40
0.0
 40
1.0
 40
1.0
 40
1.0
 40
1.0
 10
331.3977654427
 20
14.3977928324
 30
0.0
 10
331.2633595962
 20
14.2652741929
 30
0.0
 10
331.1507490165
 20
14.1824500068
 30
0.0
 10
331.0599341711
 20
14.149320372
 30
0.0
  0
SPLINE
  5
2C9
100
AcDbEntity
  8
0
100
AcDbSpline
 62
5
  6
CONTINUOUS
 70
0
 71
3
 72
8
 73
4
 74
0
 42
0.0000001
 43
0.0000001
 44
0.0000000001
 40
0.0
 40
0.0
 40
0.0
 40
0.0
 40
1.0
 40
1.0
 40
1.0
 40
1.0
 10
331.0599341711
 20
14.149320372
 30
0.0
 10
330.9691191882
 20
14.116190687
 30
0.0
 10
330.8528761172
 20
14.0996258207
 30
0.0
 10
330.7112049691
 20
14.0996258207
 30
0.0
  0
SPLINE
  5
2CA
100
AcDbEntity
  8
0
100
AcDbSpline
 62
5
  6
CONTINUOUS
 70
0
 71
3
 72
8
 73
4
 74
0
 42
0.0000001
 43
0.0000001
 44
0.0000000001
 40
0.0
 40
0.0
 40
0.0
 40
0.0
 40
1.0
 40
1.0
 40
1.0
 40
1.0
 10
330.7112049691
 20
14.0996258207
 30
0.0
 10
330.1735807858
 20
14.0996258207
 30
0.0
 10
329.8829730286
 20
14.3712891336
 30
0.0
 10
329.8430145078
 20
14.9179286309
 30
0.0
  0
SPLINE
  5
2CB
100
AcDbEntity
  8
0
100
AcDbSpline
 62
5
  6
CONTINUOUS
 70
0
 71
3
 72
8
 73
4
 74
0
 42
0.0000001
 43
0.0000001
 44
0.0000000001
 40
0.0
 40
0.0
 40
0.0
 40
0.0
 40
1.0
 40
1.0
 40
1.0
 40
1.0
 10
332.480279111
 20
14.9179286309
 30
0.0
 10
332.4730138095
 20
15.5242015596
 30
0.0
 10
332.3930967679
 20
15.9648261161
 30
0.0
 10
332.2325088859
 20
16.2394346765
 30
0.0
  0
SPLINE
  5
2CC
100
AcDbEntity
  8
0
100
AcDbSpline
 62
5
  6
CONTINUOUS
 70
0
 71
3
 72
8
 73
4
 74
0
 42
0.0000001
 43
0.0000001
 44
0.0000000001
 40
0.0
 40
0.0
 40
0.0
 40
0.0
 40
1.0
 40
1.0
 40
1.0
 40
1.0
 10
332.2325088859
 20
16.2394346765
 30
0.0
 10
332.0734282829
 20
16.5114657588
 30
0.0
 10
331.8591050759
 20
16.7168696066
 30
0.0
 10
331.5902930639
 20
16.852701263
 30
0.0
  0
SPLINE
  5
2CD
100
AcDbEntity
  8
0
100
AcDbSpline
 62
5
  6
CONTINUOUS
 70
0
 71
3
 72
8
 73
4
 74
0
 42
0.0000001
 43
0.0000001
 44
0.0000000001
 40
0.0
 40
0.0
 40
0.0
 40
0.0
 40
1.0
 40
1.0
 40
1.0
 40
1.0
 10
331.5902930639
 20
16.852701263
 30
0.0
 10
331.3214810519
 20
16.9885329195
 30
0.0
 10
331.009077709
 20
17.0581051107
 30
0.0
 10
330.6530833539
 20
17.0581051107
 30
0.0
  0
SPLINE
  5
2CE
100
AcDbEntity
  8
0
100
AcDbSpline
 62
5
  6
CONTINUOUS
 70
0
 71
3
 72
8
 73
4
 74
0
 42
0.0000001
 43
0.0000001
 44
0.0000000001
 40
0.0
 40
0.0
 40
0.0
 40
0.0
 40
1.0
 40
1.0
 40
1.0
 40
1.0
 10
330.6530833539
 20
17.0581051107
 30
0.0
 10
330.0464399219
 20
17.0581051107
 30
0.0
 10
329.585100209
 20
16.8825178333
 30
0.0
 10
329.2726970795
 20
16.5313435294
 30
0.0
  0
SPLINE
  5
2CF
100
AcDbEntity
  8
0
100
AcDbSpline
 62
5
  6
CONTINUOUS
 70
0
 71
3
 72
8
 73
4
 74
0
 42
0.0000001
 43
0.0000001
 44
0.0000000001
 40
0.0
 40
0.0
 40
0.0
 40
0.0
 40
1.0
 40
1.0
 40
1.0
 40
1.0
 10
329.2726970795
 20
16.5313435294
 30
0.0
 10
329.0003541909
 20
16.2252011918
 30
0.0
 10
328.8467210881
 20
15.8284187874
 30
0.0
 10
328.8117977355
 20
15.3366064402
 30
0.0
  0
SPLINE
  5
2D0
100
AcDbEntity
  8
0
100
AcDbSpline
 62
5
  6
CONTINUOUS
 70
0
 71
3
 72
8
 73
4
 74
0
 42
0.0000001
 43
0.0000001
 44
0.0000000001
 40
0.0
 40
0.0
 40
0.0
 40
0.0
 40
1.0
 40
1.0
 40
1.0
 40
1.0
 10
328.8117977355
 20
15.3366064402
 30
0.0
 10
328.7816892197
 20
15.7727311627
 30
0.0
 10
328.6496537818
 20
16.1314332766
 30
0.0
 10
328.4156913333
 20
16.4169633022
 30
0.0
  0
SPLINE
  5
2D1
100
AcDbEntity
  8
0
100
AcDbSpline
 62
5
  6
CONTINUOUS
 70
0
 71
3
 72
8
 73
4
 74
0
 42
0.0000001
 43
0.0000001
 44
0.0000000001
 40
0.0
 40
0.0
 40
0.0
 40
0.0
 40
1.0
 40
1.0
 40
1.0
 40
1.0
 10
328.4156913333
 20
16.4169633022
 30
0.0
 10
328.1471733944
 20
16.7446651812
 30
0.0
 10
327.7719368522
 20
16.9085160396
 30
0.0
 10
327.2899815384
 20
16.9085160396
 30
0.0
  0
SPLINE
  5
2D2
100
AcDbEntity
  8
0
100
AcDbSpline
 62
5
  6
CONTINUOUS
 70
0
 71
3
 72
8
 73
4
 74
0
 42
0.0000001
 43
0.0000001
 44
0.0000000001
 40
0.0
 40
0.0
 40
0.0
 40
0.0
 40
1.0
 40
1.0
 40
1.0
 40
1.0
 10
327.2899815384
 20
16.9085160396
 30
0.0
 10
327.0696591178
 20
16.9085160396
 30
0.0
 10
326.8699919337
 20
16.8667500516
 30
0.0
 10
326.6906423139
 20
16.7838577035
 30
0.0
  0
SPLINE
  5
2D3
100
AcDbEntity
  8
0
100
AcDbSpline
 62
5
  6
CONTINUOUS
 70
0
 71
3
 72
8
 73
4
 74
0
 42
0.0000001
 43
0.0000001
 44
0.0000000001
 40
0.0
 40
0.0
 40
0.0
 40
0.0
 40
1.0
 40
1.0
 40
1.0
 40
1.0
 10
326.6906423139
 20
16.7838577035
 30
0.0
 10
326.5085254483
 20
16.6996863814
 30
0.0
 10
326.3467261471
 20
16.5358355229
 30
0.0
 10
326.2055820823
 20
16.2916655
 30
0.0
  0
SPLINE
  5
2D4
100
AcDbEntity
  8
0
100
AcDbSpline
 62
5
  6
CONTINUOUS
 70
0
 71
3
 72
8
 73
4
 74
0
 42
0.0000001
 43
0.0000001
 44
0.0000000001
 40
0.0
 40
0.0
 40
0.0
 40
0.0
 40
1.0
 40
1.0
 40
1.0
 40
1.0
 10
321.7890163542
 20
14.548334914
 30
0.0
 10
321.8432585271
 20
13.7200932713
 30
0.0
 10
322.4195816056
 20
13.309285385
 30
0.0
 10
323.5213757022
 20
13.309285385
 30
0.0
  0
SPLINE
  5
2D5
100
AcDbEntity
  8
0
100
AcDbSpline
 62
5
  6
CONTINUOUS
 70
0
 71
3
 72
8
 73
4
 74
0
 42
0.0000001
 43
0.0000001
 44
0.0000000001
 40
0.0
 40
0.0
 40
0.0
 40
0.0
 40
1.0
 40
1.0
 40
1.0
 40
1.0
 10
323.5213757022
 20
13.309285385
 30
0.0
 10
324.0502368328
 20
13.309285385
 30
0.0
 10
324.4468827552
 20
13.421926255
 30
0.0
 10
324.7147034231
 20
13.6472079172
 30
0.0
  0
SPLINE
  5
2D6
100
AcDbEntity
  8
0
100
AcDbSpline
 62
5
  6
CONTINUOUS
 70
0
 71
3
 72
8
 73
4
 74
0
 42
0.0000001
 43
0.0000001
 44
0.0000000001
 40
0.0
 40
0.0
 40
0.0
 40
0.0
 40
1.0
 40
1.0
 40
1.0
 40
1.0
 10
324.7147034231
 20
13.6472079172
 30
0.0
 10
324.9825242597
 20
13.8724897214
 30
0.0
 10
325.1181296549
 20
14.1706567331
 30
0.0
 10
325.1181296549
 20
14.5417090257
 30
0.0
  0
SPLINE
  5
2D7
100
AcDbEntity
  8
0
100
AcDbSpline
 62
5
  6
CONTINUOUS
 70
0
 71
3
 72
8
 73
4
 74
0
 42
0.0000001
 43
0.0000001
 44
0.0000000001
 40
0.0
 40
0.0
 40
0.0
 40
0.0
 40
1.0
 40
1.0
 40
1.0
 40
1.0
 10
325.1181296549
 20
14.5417090257
 30
0.0
 10
325.1181296549
 20
14.710670342
 30
0.0
 10
325.0842280829
 20
14.8597537752
 30
0.0
 10
325.0158636563
 20
14.9853534162
 30
0.0
  0
SPLINE
  5
2D8
100
AcDbEntity
  8
0
100
AcDbSpline
 62
5
  6
CONTINUOUS
 70
0
 71
3
 72
8
 73
4
 74
0
 42
0.0000001
 43
0.0000001
 44
0.0000000001
 40
0.0
 40
0.0
 40
0.0
 40
0.0
 40
1.0
 40
1.0
 40
1.0
 40
1.0
 10
325.0158636563
 20
14.9853534162
 30
0.0
 10
324.9147214133
 20
15.171172709
 30
0.0
 10
324.7384343698
 20
15.310317237
 30
0.0
 10
324.4806182887
 20
15.4059640055
 30
0.0
  0
SPLINE
  5
2D9
100
AcDbEntity
  8
0
100
AcDbSpline
 62
5
  6
CONTINUOUS
 70
0
 71
3
 72
8
 73
4
 74
0
 42
0.0000001
 43
0.0000001
 44
0.0000000001
 40
0.0
 40
0.0
 40
0.0
 40
0.0
 40
1.0
 40
1.0
 40
1.0
 40
1.0
 10
323.3111872354
 20
15.694621379
 30
0.0
 10
323.1925324774
 20
15.7144991894
 30
0.0
 10
323.0942185435
 20
15.747628922
 30
0.0
 10
323.0146732014
 20
15.791160304
 30
0.0
  0
SPLINE
  5
2DA
100
AcDbEntity
  8
0
100
AcDbSpline
 62
5
  6
CONTINUOUS
 70
0
 71
3
 72
8
 73
4
 74
0
 42
0.0000001
 43
0.0000001
 44
0.0000000001
 40
0.0
 40
0.0
 40
0.0
 40
0.0
 40
1.0
 40
1.0
 40
1.0
 40
1.0
 10
323.0146732014
 20
15.791160304
 30
0.0
 10
322.9247117251
 20
15.8403919406
 30
0.0
 10
322.8806400387
 20
15.9199030371
 30
0.0
 10
322.8806400387
 20
16.0325441571
 30
0.0
  0
SPLINE
  5
2DB
100
AcDbEntity
  8
0
100
AcDbSpline
 62
5
  6
CONTINUOUS
 70
0
 71
3
 72
8
 73
4
 74
0
 42
0.0000001
 43
0.0000001
 44
0.0000000001
 40
0.0
 40
0.0
 40
0.0
 40
0.0
 40
1.0
 40
1.0
 40
1.0
 40
1.0
 10
322.8806400387
 20
16.0325441571
 30
0.0
 10
322.8806400387
 20
16.1319329186
 30
0.0
 10
322.9281019121
 20
16.2081311436
 30
0.0
 10
323.0271577785
 20
16.2665455932
 30
0.0
  0
SPLINE
  5
2DC
100
AcDbEntity
  8
0
100
AcDbSpline
 62
5
  6
CONTINUOUS
 70
0
 71
3
 72
8
 73
4
 74
0
 42
0.0000001
 43
0.0000001
 44
0.0000000001
 40
0.0
 40
0.0
 40
0.0
 40
0.0
 40
1.0
 40
1.0
 40
1.0
 40
1.0
 10
323.0271577785
 20
16.2665455932
 30
0.0
 10
323.1247297798
 20
16.3240849896
 30
0.0
 10
323.2501647629
 20
16.3539018508
 30
0.0
 10
323.3993307572
 20
16.3539018508
 30
0.0
  0
SPLINE
  5
2DD
100
AcDbEntity
  8
0
100
AcDbSpline
 62
5
  6
CONTINUOUS
 70
0
 71
3
 72
8
 73
4
 74
0
 42
0.0000001
 43
0.0000001
 44
0.0000000001
 40
0.0
 40
0.0
 40
0.0
 40
0.0
 40
1.0
 40
1.0
 40
1.0
 40
1.0
 10
323.3993307572
 20
16.3539018508
 30
0.0
 10
323.7654654433
 20
16.3539018508
 30
0.0
 10
323.9756539101
 20
16.1948793669
 30
0.0
 10
324.0366762337
 20
15.8768346901
 30
0.0
  0
SPLINE
  5
2DE
100
AcDbEntity
  8
0
100
AcDbSpline
 62
5
  6
CONTINUOUS
 70
0
 71
3
 72
8
 73
4
 74
0
 42
0.0000001
 43
0.0000001
 44
0.0000000001
 40
0.0
 40
0.0
 40
0.0
 40
0.0
 40
1.0
 40
1.0
 40
1.0
 40
1.0
 10
325.0062549732
 20
15.8768346901
 30
0.0
 10
324.9520128747
 20
16.6785725613
 30
0.0
 10
324.4163713701
 20
17.0794414969
 30
0.0
 10
323.3993307572
 20
17.0794414969
 30
0.0
  0
SPLINE
  5
2DF
100
AcDbEntity
  8
0
100
AcDbSpline
 62
5
  6
CONTINUOUS
 70
0
 71
3
 72
8
 73
4
 74
0
 42
0.0000001
 43
0.0000001
 44
0.0000000001
 40
0.0
 40
0.0
 40
0.0
 40
0.0
 40
1.0
 40
1.0
 40
1.0
 40
1.0
 10
323.3993307572
 20
17.0794414969
 30
0.0
 10
322.9382723242
 20
17.0794414969
 30
0.0
 10
322.575527825
 20
16.9734267016
 30
0.0
 10
322.3104217258
 20
16.7622091175
 30
0.0
  0
SPLINE
  5
2E0
100
AcDbEntity
  8
0
100
AcDbSpline
 62
5
  6
CONTINUOUS
 70
0
 71
3
 72
8
 73
4
 74
0
 42
0.0000001
 43
0.0000001
 44
0.0000000001
 40
0.0
 40
0.0
 40
0.0
 40
0.0
 40
1.0
 40
1.0
 40
1.0
 40
1.0
 10
322.3104217258
 20
16.7622091175
 30
0.0
 10
322.0432765446
 20
16.5493669386
 30
0.0
 10
321.9110612247
 20
16.264451849
 30
0.0
 10
321.9110612247
 20
15.9066512604
 30
0.0
  0
SPLINE
  5
2E1
100
AcDbEntity
  8
0
100
AcDbSpline
 62
5
  6
CONTINUOUS
 70
0
 71
3
 72
8
 73
4
 74
0
 42
0.0000001
 43
0.0000001
 44
0.0000000001
 40
0.0
 40
0.0
 40
0.0
 40
0.0
 40
1.0
 40
1.0
 40
1.0
 40
1.0
 10
321.9110612247
 20
15.9066512604
 30
0.0
 10
321.9110612247
 20
15.519034247
 30
0.0
 10
322.0500568069
 20
15.2573098393
 30
0.0
 10
322.3276472241
 20
15.1174086899
 30
0.0
  0
SPLINE
  5
2E2
100
AcDbEntity
  8
0
100
AcDbSpline
 62
5
  6
CONTINUOUS
 70
0
 71
3
 72
8
 73
4
 74
0
 42
0.0000001
 43
0.0000001
 44
0.0000000001
 40
0.0
 40
0.0
 40
0.0
 40
0.0
 40
1.0
 40
1.0
 40
1.0
 40
1.0
 10
322.3276472241
 20
15.1174086899
 30
0.0
 10
322.5890883497
 20
14.9856465264
 30
0.0
 10
322.9348821372
 20
14.8862576194
 30
0.0
 10
323.3652782847
 20
14.8158123782
 30
0.0
  0
SPLINE
  5
2E3
100
AcDbEntity
  8
0
100
AcDbSpline
 62
5
  6
CONTINUOUS
 70
0
 71
3
 72
8
 73
4
 74
0
 42
0.0000001
 43
0.0000001
 44
0.0000000001
 40
0.0
 40
0.0
 40
0.0
 40
0.0
 40
1.0
 40
1.0
 40
1.0
 40
1.0
 10
323.3652782847
 20
14.8158123782
 30
0.0
 10
323.6230796742
 20
14.7736166449
 30
0.0
 10
323.8264879158
 20
14.7172962304
 30
0.0
 10
323.967878643
 20
14.6491072868
 30
0.0
  0
SPLINE
  5
2E4
100
AcDbEntity
  8
0
100
AcDbSpline
 62
5
  6
CONTINUOUS
 70
0
 71
3
 72
8
 73
4
 74
0
 42
0.0000001
 43
0.0000001
 44
0.0000000001
 40
0.0
 40
0.0
 40
0.0
 40
0.0
 40
1.0
 40
1.0
 40
1.0
 40
1.0
 10
323.967878643
 20
14.6491072868
 30
0.0
 10
324.0875282941
 20
14.5914034792
 30
0.0
 10
324.1485507667
 20
14.4986404605
 30
0.0
 10
324.1485507667
 20
14.3661217482
 30
0.0
  0
SPLINE
  5
2E5
100
AcDbEntity
  8
0
100
AcDbSpline
 62
5
  6
CONTINUOUS
 70
0
 71
3
 72
8
 73
4
 74
0
 42
0.0000001
 43
0.0000001
 44
0.0000000001
 40
0.0
 40
0.0
 40
0.0
 40
0.0
 40
1.0
 40
1.0
 40
1.0
 40
1.0
 10
324.1485507667
 20
14.3661217482
 30
0.0
 10
324.1485507667
 20
14.2667327686
 30
0.0
 10
324.0875282941
 20
14.1872215994
 30
0.0
 10
323.9719030708
 20
14.1282685504
 30
0.0
  0
SPLINE
  5
2E6
100
AcDbEntity
  8
0
100
AcDbSpline
 62
5
  6
CONTINUOUS
 70
0
 71
3
 72
8
 73
4
 74
0
 42
0.0000001
 43
0.0000001
 44
0.0000000001
 40
0.0
 40
0.0
 40
0.0
 40
0.0
 40
1.0
 40
1.0
 40
1.0
 40
1.0
 10
323.9719030708
 20
14.1282685504
 30
0.0
 10
323.8536089651
 20
14.0679547365
 30
0.0
 10
323.7078331578
 20
14.0381380935
 30
0.0
 10
323.5349361524
 20
14.0381380935
 30
0.0
  0
SPLINE
  5
2E7
100
AcDbEntity
  8
0
100
AcDbSpline
 62
5
  6
CONTINUOUS
 70
0
 71
3
 72
8
 73
4
 74
0
 42
0.0000001
 43
0.0000001
 44
0.0000000001
 40
0.0
 40
0.0
 40
0.0
 40
0.0
 40
1.0
 40
1.0
 40
1.0
 40
1.0
 10
323.5349361524
 20
14.0381380935
 30
0.0
 10
323.3552590707
 20
14.0381380935
 30
0.0
 10
323.1891424393
 20
14.0679547365
 30
0.0
 10
323.0363130275
 20
14.1336033565
 30
0.0
  0
SPLINE
  5
2E8
100
AcDbEntity
  8
0
100
AcDbSpline
 62
5
  6
CONTINUOUS
 70
0
 71
3
 72
8
 73
4
 74
0
 42
0.0000001
 43
0.0000001
 44
0.0000000001
 40
0.0
 40
0.0
 40
0.0
 40
0.0
 40
1.0
 40
1.0
 40
1.0
 40
1.0
 10
323.0363130275
 20
14.1336033565
 30
0.0
 10
322.8806400387
 20
14.2004734488
 30
0.0
 10
322.7891064043
 20
14.3363051052
 30
0.0
 10
322.7585951681
 20
14.548334914
 30
0.0
  0
SPLINE
  5
2E9
100
AcDbEntity
  8
0
100
AcDbSpline
 62
5
  6
CONTINUOUS
 70
0
 71
3
 72
8
 73
4
 74
0
 42
0.0000001
 43
0.0000001
 44
0.0000000001
 40
0.0
 40
0.0
 40
0.0
 40
0.0
 40
1.0
 40
1.0
 40
1.0
 40
1.0
 10
318.1432039473
 20
15.5999194551
 30
0.0
 10
318.2231210686
 20
16.0504829169
 30
0.0
 10
318.4955657313
 20
16.275764575
 30
0.0
 10
318.9605380153
 20
16.275764575
 30
0.0
  0
SPLINE
  5
2EA
100
AcDbEntity
  8
0
100
AcDbSpline
 62
5
  6
CONTINUOUS
 70
0
 71
3
 72
8
 73
4
 74
0
 42
0.0000001
 43
0.0000001
 44
0.0000000001
 40
0.0
 40
0.0
 40
0.0
 40
0.0
 40
1.0
 40
1.0
 40
1.0
 40
1.0
 10
318.9605380153
 20
16.275764575
 30
0.0
 10
319.4255102992
 20
16.275764575
 30
0.0
 10
319.6834246777
 20
16.0504829169
 30
0.0
 10
319.7342808319
 20
15.5999194551
 30
0.0
  0
SPLINE
  5
2EB
100
AcDbEntity
  8
0
100
AcDbSpline
 62
5
  6
CONTINUOUS
 70
0
 71
3
 72
8
 73
4
 74
0
 42
0.0000001
 43
0.0000001
 44
0.0000000001
 40
0.0
 40
0.0
 40
0.0
 40
0.0
 40
1.0
 40
1.0
 40
1.0
 40
1.0
 10
311.8313307572
 20
17.0834414969
 30
0.0
 10
311.3702723242
 20
17.0834414969
 30
0.0
 10
311.007527825
 20
16.9774267016
 30
0.0
 10
310.7424217258
 20
16.7662091175
 30
0.0
  0
SPLINE
  5
2EC
100
AcDbEntity
  8
0
100
AcDbSpline
 62
5
  6
CONTINUOUS
 70
0
 71
3
 72
8
 73
4
 74
0
 42
0.0000001
 43
0.0000001
 44
0.0000000001
 40
0.0
 40
0.0
 40
0.0
 40
0.0
 40
1.0
 40
1.0
 40
1.0
 40
1.0
 10
310.7424217258
 20
16.7662091175
 30
0.0
 10
310.4752765446
 20
16.5533669386
 30
0.0
 10
310.3430612247
 20
16.268451849
 30
0.0
 10
310.3430612247
 20
15.9106512604
 30
0.0
  0
SPLINE
  5
2ED
100
AcDbEntity
  8
0
100
AcDbSpline
 62
5
  6
CONTINUOUS
 70
0
 71
3
 72
8
 73
4
 74
0
 42
0.0000001
 43
0.0000001
 44
0.0000000001
 40
0.0
 40
0.0
 40
0.0
 40
0.0
 40
1.0
 40
1.0
 40
1.0
 40
1.0
 10
310.3430612247
 20
15.9106512604
 30
0.0
 10
310.3430612247
 20
15.523034247
 30
0.0
 10
310.4820568069
 20
15.2613098393
 30
0.0
 10
310.7596472241
 20
15.1214086899
 30
0.0
  0
SPLINE
  5
2EE
100
AcDbEntity
  8
0
100
AcDbSpline
 62
5
  6
CONTINUOUS
 70
0
 71
3
 72
8
 73
4
 74
0
 42
0.0000001
 43
0.0000001
 44
0.0000000001
 40
0.0
 40
0.0
 40
0.0
 40
0.0
 40
1.0
 40
1.0
 40
1.0
 40
1.0
 10
310.7596472241
 20
15.1214086899
 30
0.0
 10
311.0210883497
 20
14.9896465264
 30
0.0
 10
311.3668821372
 20
14.8902576194
 30
0.0
 10
311.7972782847
 20
14.8198123782
 30
0.0
  0
SPLINE
  5
2EF
100
AcDbEntity
  8
0
100
AcDbSpline
 62
5
  6
CONTINUOUS
 70
0
 71
3
 72
8
 73
4
 74
0
 42
0.0000001
 43
0.0000001
 44
0.0000000001
 40
0.0
 40
0.0
 40
0.0
 40
0.0
 40
1.0
 40
1.0
 40
1.0
 40
1.0
 10
311.7972782847
 20
14.8198123782
 30
0.0
 10
312.0550796742
 20
14.7776166449
 30
0.0
 10
312.2584879158
 20
14.7212962304
 30
0.0
 10
312.399878643
 20
14.6531072868
 30
0.0
  0
SPLINE
  5
2F0
100
AcDbEntity
  8
0
100
AcDbSpline
 62
5
  6
CONTINUOUS
 70
0
 71
3
 72
8
 73
4
 74
0
 42
0.0000001
 43
0.0000001
 44
0.0000000001
 40
0.0
 40
0.0
 40
0.0
 40
0.0
 40
1.0
 40
1.0
 40
1.0
 40
1.0
 10
312.399878643
 20
14.6531072868
 30
0.0
 10
312.5195282941
 20
14.5954034792
 30
0.0
 10
312.5805507667
 20
14.5026404605
 30
0.0
 10
312.5805507667
 20
14.3701217482
 30
0.0
  0
SPLINE
  5
2F1
100
AcDbEntity
  8
0
100
AcDbSpline
 62
5
  6
CONTINUOUS
 70
0
 71
3
 72
8
 73
4
 74
0
 42
0.0000001
 43
0.0000001
 44
0.0000000001
 40
0.0
 40
0.0
 40
0.0
 40
0.0
 40
1.0
 40
1.0
 40
1.0
 40
1.0
 10
312.5805507667
 20
14.3701217482
 30
0.0
 10
312.5805507667
 20
14.2707327686
 30
0.0
 10
312.5195282941
 20
14.1912215994
 30
0.0
 10
312.4039030708
 20
14.1322685504
 30
0.0
  0
SPLINE
  5
2F2
100
AcDbEntity
  8
0
100
AcDbSpline
 62
5
  6
CONTINUOUS
 70
0
 71
3
 72
8
 73
4
 74
0
 42
0.0000001
 43
0.0000001
 44
0.0000000001
 40
0.0
 40
0.0
 40
0.0
 40
0.0
 40
1.0
 40
1.0
 40
1.0
 40
1.0
 10
312.4039030708
 20
14.1322685504
 30
0.0
 10
312.2856089651
 20
14.0719547365
 30
0.0
 10
312.1398331578
 20
14.0421380935
 30
0.0
 10
311.9669361524
 20
14.0421380935
 30
0.0
  0
SPLINE
  5
2F3
100
AcDbEntity
  8
0
100
AcDbSpline
 62
5
  6
CONTINUOUS
 70
0
 71
3
 72
8
 73
4
 74
0
 42
0.0000001
 43
0.0000001
 44
0.0000000001
 40
0.0
 40
0.0
 40
0.0
 40
0.0
 40
1.0
 40
1.0
 40
1.0
 40
1.0
 10
311.9669361524
 20
14.0421380935
 30
0.0
 10
311.7872590707
 20
14.0421380935
 30
0.0
 10
311.6211424393
 20
14.0719547365
 30
0.0
 10
311.4683130275
 20
14.1376033565
 30
0.0
  0
SPLINE
  5
2F4
100
AcDbEntity
  8
0
100
AcDbSpline
 62
5
  6
CONTINUOUS
 70
0
 71
3
 72
8
 73
4
 74
0
 42
0.0000001
 43
0.0000001
 44
0.0000000001
 40
0.0
 40
0.0
 40
0.0
 40
0.0
 40
1.0
 40
1.0
 40
1.0
 40
1.0
 10
311.4683130275
 20
14.1376033565
 30
0.0
 10
311.3126400387
 20
14.2044734488
 30
0.0
 10
311.2211064043
 20
14.3403051052
 30
0.0
 10
311.1905951681
 20
14.552334914
 30
0.0
  0
SPLINE
  5
2F5
100
AcDbEntity
  8
0
100
AcDbSpline
 62
5
  6
CONTINUOUS
 70
0
 71
3
 72
8
 73
4
 74
0
 42
0.0000001
 43
0.0000001
 44
0.0000000001
 40
0.0
 40
0.0
 40
0.0
 40
0.0
 40
1.0
 40
1.0
 40
1.0
 40
1.0
 10
310.2210163542
 20
14.552334914
 30
0.0
 10
310.2752585271
 20
13.7240932713
 30
0.0
 10
310.8515816056
 20
13.313285385
 30
0.0
 10
311.9533757022
 20
13.313285385
 30
0.0
  0
SPLINE
  5
2F6
100
AcDbEntity
  8
0
100
AcDbSpline
 62
5
  6
CONTINUOUS
 70
0
 71
3
 72
8
 73
4
 74
0
 42
0.0000001
 43
0.0000001
 44
0.0000000001
 40
0.0
 40
0.0
 40
0.0
 40
0.0
 40
1.0
 40
1.0
 40
1.0
 40
1.0
 10
311.9533757022
 20
13.313285385
 30
0.0
 10
312.4822368328
 20
13.313285385
 30
0.0
 10
312.8788827552
 20
13.425926255
 30
0.0
 10
313.1467034231
 20
13.6512079172
 30
0.0
  0
SPLINE
  5
2F7
100
AcDbEntity
  8
0
100
AcDbSpline
 62
5
  6
CONTINUOUS
 70
0
 71
3
 72
8
 73
4
 74
0
 42
0.0000001
 43
0.0000001
 44
0.0000000001
 40
0.0
 40
0.0
 40
0.0
 40
0.0
 40
1.0
 40
1.0
 40
1.0
 40
1.0
 10
313.1467034231
 20
13.6512079172
 30
0.0
 10
313.3616129143
 20
13.8319824921
 30
0.0
 10
313.4913880904
 20
14.059688289
 30
0.0
 10
313.5342773815
 20
14.3343253456
 30
0.0
  0
SPLINE
  5
2F8
100
AcDbEntity
  8
0
100
AcDbSpline
 62
5
  6
CONTINUOUS
 70
0
 71
3
 72
8
 73
4
 74
0
 42
0.0000001
 43
0.0000001
 44
0.0000000001
 40
0.0
 40
0.0
 40
0.0
 40
0.0
 40
1.0
 40
1.0
 40
1.0
 40
1.0
 10
314.5313801835
 20
13.5983251512
 30
0.0
 10
314.6251099855
 20
13.5332904606
 30
0.0
 10
314.7155279589
 20
13.4873272219
 30
0.0
 10
314.8021437989
 20
13.4604354414
 30
0.0
  0
SPLINE
  5
2F9
100
AcDbEntity
  8
0
100
AcDbSpline
 62
5
  6
CONTINUOUS
 70
0
 71
3
 72
8
 73
4
 74
0
 42
0.0000001
 43
0.0000001
 44
0.0000000001
 40
0.0
 40
0.0
 40
0.0
 40
0.0
 40
1.0
 40
1.0
 40
1.0
 40
1.0
 10
314.8021437989
 20
13.4604354414
 30
0.0
 10
314.9515989653
 20
13.4140338186
 30
0.0
 10
315.1152041398
 20
13.3856991917
 30
0.0
 10
315.2929594272
 20
13.3800255591
 30
0.0
  0
SPLINE
  5
2FA
100
AcDbEntity
  8
0
100
AcDbSpline
 62
5
  6
CONTINUOUS
 70
0
 71
3
 72
8
 73
4
 74
0
 42
0.0000001
 43
0.0000001
 44
0.0000000001
 40
0.0
 40
0.0
 40
0.0
 40
0.0
 40
1.0
 40
1.0
 40
1.0
 40
1.0
 10
317.1236139994
 20
14.7836242804
 30
0.0
 10
317.1828623332
 20
14.4018637178
 30
0.0
 10
317.341095863
 20
14.080941086
 30
0.0
 10
317.5983145616
 20
13.8208563423
 30
0.0
  0
SPLINE
  5
2FB
100
AcDbEntity
  8
0
100
AcDbSpline
 62
5
  6
CONTINUOUS
 70
0
 71
3
 72
8
 73
4
 74
0
 42
0.0000001
 43
0.0000001
 44
0.0000000001
 40
0.0
 40
0.0
 40
0.0
 40
0.0
 40
1.0
 40
1.0
 40
1.0
 40
1.0
 10
317.5983145616
 20
13.8208563423
 30
0.0
 10
317.9325133911
 20
13.4829337208
 30
0.0
 10
318.3865878024
 20
13.317285385
 30
0.0
 10
318.9678031573
 20
13.317285385
 30
0.0
  0
SPLINE
  5
2FC
100
AcDbEntity
  8
0
100
AcDbSpline
 62
5
  6
CONTINUOUS
 70
0
 71
3
 72
8
 73
4
 74
0
 42
0.0000001
 43
0.0000001
 44
0.0000000001
 40
0.0
 40
0.0
 40
0.0
 40
0.0
 40
1.0
 40
1.0
 40
1.0
 40
1.0
 10
318.9678031573
 20
13.317285385
 30
0.0
 10
319.3419606069
 20
13.317285385
 30
0.0
 10
319.6725267254
 20
13.3934836214
 30
0.0
 10
319.9550932939
 20
13.5372030407
 30
0.0
  0
SPLINE
  5
2FD
100
AcDbEntity
  8
0
100
AcDbSpline
 62
5
  6
CONTINUOUS
 70
0
 71
3
 72
8
 73
4
 74
0
 42
0.0000001
 43
0.0000001
 44
0.0000000001
 40
0.0
 40
0.0
 40
0.0
 40
0.0
 40
1.0
 40
1.0
 40
1.0
 40
1.0
 10
319.9550932939
 20
13.5372030407
 30
0.0
 10
320.2392116366
 20
13.6817117256
 30
0.0
 10
320.4971260151
 20
13.9798787374
 30
0.0
 10
320.7296121571
 20
14.4271292186
 30
0.0
  0
SPLINE
  5
2FE
100
AcDbEntity
  8
0
100
AcDbSpline
 62
5
  6
CONTINUOUS
 70
0
 71
3
 72
8
 73
4
 74
0
 42
0.0000001
 43
0.0000001
 44
0.0000000001
 40
0.0
 40
0.0
 40
0.0
 40
0.0
 40
1.0
 40
1.0
 40
1.0
 40
1.0
 10
319.6906896604
 20
14.4271292186
 30
0.0
 10
319.5562838139
 20
14.294610579
 30
0.0
 10
319.4436732342
 20
14.211786393
 30
0.0
 10
319.3528583888
 20
14.1786567582
 30
0.0
  0
SPLINE
  5
2FF
100
AcDbEntity
  8
0
100
AcDbSpline
 62
5
  6
CONTINUOUS
 70
0
 71
3
 72
8
 73
4
 74
0
 42
0.0000001
 43
0.0000001
 44
0.0000000001
 40
0.0
 40
0.0
 40
0.0
 40
0.0
 40
1.0
 40
1.0
 40
1.0
 40
1.0
 10
319.3528583888
 20
14.1786567582
 30
0.0
 10
319.2620434059
 20
14.1455270732
 30
0.0
 10
319.1458003349
 20
14.1289622069
 30
0.0
 10
319.0041291868
 20
14.1289622069
 30
0.0
  0
SPLINE
  5
300
100
AcDbEntity
  8
0
100
AcDbSpline
 62
5
  6
CONTINUOUS
 70
0
 71
3
 72
8
 73
4
 74
0
 42
0.0000001
 43
0.0000001
 44
0.0000000001
 40
0.0
 40
0.0
 40
0.0
 40
0.0
 40
1.0
 40
1.0
 40
1.0
 40
1.0
 10
319.0041291868
 20
14.1289622069
 30
0.0
 10
318.4665050034
 20
14.1289622069
 30
0.0
 10
318.1758972462
 20
14.4006255198
 30
0.0
 10
318.1359387255
 20
14.9472650171
 30
0.0
  0
SPLINE
  5
301
100
AcDbEntity
  8
0
100
AcDbSpline
 62
5
  6
CONTINUOUS
 70
0
 71
3
 72
8
 73
4
 74
0
 42
0.0000001
 43
0.0000001
 44
0.0000000001
 40
0.0
 40
0.0
 40
0.0
 40
0.0
 40
1.0
 40
1.0
 40
1.0
 40
1.0
 10
320.7450163542
 20
15.4656574306
 30
0.0
 10
320.7083135202
 20
15.8119696701
 30
0.0
 10
320.6359913503
 20
16.079714201
 30
0.0
 10
320.5254331035
 20
16.2687710627
 30
0.0
  0
SPLINE
  5
302
100
AcDbEntity
  8
0
100
AcDbSpline
 62
5
  6
CONTINUOUS
 70
0
 71
3
 72
8
 73
4
 74
0
 42
0.0000001
 43
0.0000001
 44
0.0000000001
 40
0.0
 40
0.0
 40
0.0
 40
0.0
 40
1.0
 40
1.0
 40
1.0
 40
1.0
 10
320.5254331035
 20
16.2687710627
 30
0.0
 10
320.3663525005
 20
16.540802145
 30
0.0
 10
320.1520292935
 20
16.7462059928
 30
0.0
 10
319.8832172816
 20
16.8820376492
 30
0.0
  0
SPLINE
  5
303
100
AcDbEntity
  8
0
100
AcDbSpline
 62
5
  6
CONTINUOUS
 70
0
 71
3
 72
8
 73
4
 74
0
 42
0.0000001
 43
0.0000001
 44
0.0000000001
 40
0.0
 40
0.0
 40
0.0
 40
0.0
 40
1.0
 40
1.0
 40
1.0
 40
1.0
 10
319.8832172816
 20
16.8820376492
 30
0.0
 10
319.6144052696
 20
17.0178693056
 30
0.0
 10
319.3020019266
 20
17.0874414969
 30
0.0
 10
318.9460075716
 20
17.0874414969
 30
0.0
  0
SPLINE
  5
304
100
AcDbEntity
  8
0
100
AcDbSpline
 62
5
  6
CONTINUOUS
 70
0
 71
3
 72
8
 73
4
 74
0
 42
0.0000001
 43
0.0000001
 44
0.0000000001
 40
0.0
 40
0.0
 40
0.0
 40
0.0
 40
1.0
 40
1.0
 40
1.0
 40
1.0
 10
318.9460075716
 20
17.0874414969
 30
0.0
 10
318.3393641395
 20
17.0874414969
 30
0.0
 10
317.8780244267
 20
16.9118542195
 30
0.0
 10
317.5656212971
 20
16.5606799156
 30
0.0
  0
SPLINE
  5
305
100
AcDbEntity
  8
0
100
AcDbSpline
 62
5
  6
CONTINUOUS
 70
0
 71
3
 72
8
 73
4
 74
0
 42
0.0000001
 43
0.0000001
 44
0.0000000001
 40
0.0
 40
0.0
 40
0.0
 40
0.0
 40
1.0
 40
1.0
 40
1.0
 40
1.0
 10
317.5656212971
 20
16.5606799156
 30
0.0
 10
317.3328112175
 20
16.2989766549
 30
0.0
 10
317.1867488444
 20
15.9710377603
 30
0.0
 10
317.1274341554
 20
15.5741209666
 30
0.0
  0
SPLINE
  5
306
100
AcDbEntity
  8
0
100
AcDbSpline
 62
5
  6
CONTINUOUS
 70
0
 71
3
 72
8
 73
4
 74
0
 42
0.0000001
 43
0.0000001
 44
0.0000000001
 40
0.0
 40
0.0
 40
0.0
 40
0.0
 40
1.0
 40
1.0
 40
1.0
 40
1.0
 10
316.5565090339
 20
16.6115555597
 30
0.0
 10
316.2635192195
 20
16.9276453209
 30
0.0
 10
315.8669111761
 20
17.0873192978
 30
0.0
 10
315.3702580825
 20
17.0873192978
 30
0.0
  0
SPLINE
  5
307
100
AcDbEntity
  8
0
100
AcDbSpline
 62
5
  6
CONTINUOUS
 70
0
 71
3
 72
8
 73
4
 74
0
 42
0.0000001
 43
0.0000001
 44
0.0000000001
 40
0.0
 40
0.0
 40
0.0
 40
0.0
 40
1.0
 40
1.0
 40
1.0
 40
1.0
 10
315.3702580825
 20
17.0873192978
 30
0.0
 10
315.1523023293
 20
17.0873192978
 30
0.0
 10
314.9629308986
 20
17.0547328186
 30
0.0
 10
314.8018557754
 20
16.9901604239
 30
0.0
  0
SPLINE
  5
308
100
AcDbEntity
  8
0
100
AcDbSpline
 62
5
  6
CONTINUOUS
 70
0
 71
3
 72
8
 73
4
 74
0
 42
0.0000001
 43
0.0000001
 44
0.0000000001
 40
0.0
 40
0.0
 40
0.0
 40
0.0
 40
1.0
 40
1.0
 40
1.0
 40
1.0
 10
314.8018557754
 20
16.9901604239
 30
0.0
 10
314.7009223411
 20
16.9496978532
 30
0.0
 10
314.5944711645
 20
16.8823318128
 30
0.0
 10
314.4809055562
 20
16.7879224857
 30
0.0
  0
SPLINE
  5
309
100
AcDbEntity
  8
0
100
AcDbSpline
 62
5
  6
CONTINUOUS
 70
0
 71
3
 72
8
 73
4
 74
0
 42
0.0000001
 43
0.0000001
 44
0.0000000001
 40
0.0
 40
0.0
 40
0.0
 40
0.0
 40
1.0
 40
1.0
 40
1.0
 40
1.0
 10
313.5342773815
 20
14.7361126909
 30
0.0
 10
313.5180302635
 20
14.8286058437
 30
0.0
 10
313.4892672493
 20
14.9132864224
 30
0.0
 10
313.4478636563
 20
14.9893534162
 30
0.0
  0
SPLINE
  5
30A
100
AcDbEntity
  8
0
100
AcDbSpline
 62
5
  6
CONTINUOUS
 70
0
 71
3
 72
8
 73
4
 74
0
 42
0.0000001
 43
0.0000001
 44
0.0000000001
 40
0.0
 40
0.0
 40
0.0
 40
0.0
 40
1.0
 40
1.0
 40
1.0
 40
1.0
 10
313.4478636563
 20
14.9893534162
 30
0.0
 10
313.3467214133
 20
15.175172709
 30
0.0
 10
313.1704343698
 20
15.314317237
 30
0.0
 10
312.9126182887
 20
15.4099640055
 30
0.0
  0
SPLINE
  5
30B
100
AcDbEntity
  8
0
100
AcDbSpline
 62
5
  6
CONTINUOUS
 70
0
 71
3
 72
8
 73
4
 74
0
 42
0.0000001
 43
0.0000001
 44
0.0000000001
 40
0.0
 40
0.0
 40
0.0
 40
0.0
 40
1.0
 40
1.0
 40
1.0
 40
1.0
 10
311.7431872354
 20
15.698621379
 30
0.0
 10
311.6245324774
 20
15.7184991894
 30
0.0
 10
311.5262185435
 20
15.751628922
 30
0.0
 10
311.4466732014
 20
15.795160304
 30
0.0
  0
SPLINE
  5
30C
100
AcDbEntity
  8
0
100
AcDbSpline
 62
5
  6
CONTINUOUS
 70
0
 71
3
 72
8
 73
4
 74
0
 42
0.0000001
 43
0.0000001
 44
0.0000000001
 40
0.0
 40
0.0
 40
0.0
 40
0.0
 40
1.0
 40
1.0
 40
1.0
 40
1.0
 10
311.4466732014
 20
15.795160304
 30
0.0
 10
311.3567117251
 20
15.8443919406
 30
0.0
 10
311.3126400387
 20
15.9239030371
 30
0.0
 10
311.3126400387
 20
16.0365441571
 30
0.0
  0
SPLINE
  5
30D
100
AcDbEntity
  8
0
100
AcDbSpline
 62
5
  6
CONTINUOUS
 70
0
 71
3
 72
8
 73
4
 74
0
 42
0.0000001
 43
0.0000001
 44
0.0000000001
 40
0.0
 40
0.0
 40
0.0
 40
0.0
 40
1.0
 40
1.0
 40
1.0
 40
1.0
 10
311.3126400387
 20
16.0365441571
 30
0.0
 10
311.3126400387
 20
16.1359329186
 30
0.0
 10
311.3601019121
 20
16.2121311436
 30
0.0
 10
311.4591577785
 20
16.2705455932
 30
0.0
  0
SPLINE
  5
30E
100
AcDbEntity
  8
0
100
AcDbSpline
 62
5
  6
CONTINUOUS
 70
0
 71
3
 72
8
 73
4
 74
0
 42
0.0000001
 43
0.0000001
 44
0.0000000001
 40
0.0
 40
0.0
 40
0.0
 40
0.0
 40
1.0
 40
1.0
 40
1.0
 40
1.0
 10
311.4591577785
 20
16.2705455932
 30
0.0
 10
311.5567297798
 20
16.3280849896
 30
0.0
 10
311.6821647629
 20
16.3579018508
 30
0.0
 10
311.8313307572
 20
16.3579018508
 30
0.0
  0
SPLINE
  5
30F
100
AcDbEntity
  8
0
100
AcDbSpline
 62
5
  6
CONTINUOUS
 70
0
 71
3
 72
8
 73
4
 74
0
 42
0.0000001
 43
0.0000001
 44
0.0000000001
 40
0.0
 40
0.0
 40
0.0
 40
0.0
 40
1.0
 40
1.0
 40
1.0
 40
1.0
 10
311.8313307572
 20
16.3579018508
 30
0.0
 10
312.1974654433
 20
16.3579018508
 30
0.0
 10
312.4076539101
 20
16.1988793669
 30
0.0
 10
312.4686762337
 20
15.8808346901
 30
0.0
  0
SPLINE
  5
310
100
AcDbEntity
  8
0
100
AcDbSpline
 62
5
  6
CONTINUOUS
 70
0
 71
3
 72
8
 73
4
 74
0
 42
0.0000001
 43
0.0000001
 44
0.0000000001
 40
0.0
 40
0.0
 40
0.0
 40
0.0
 40
1.0
 40
1.0
 40
1.0
 40
1.0
 10
313.4382549732
 20
15.8808346901
 30
0.0
 10
313.3840128747
 20
16.6825725613
 30
0.0
 10
312.8483713701
 20
17.0834414969
 30
0.0
 10
311.8313307572
 20
17.0834414969
 30
0.0
  0
ENDBLK
  5
311
100
AcDbEntity
  8
0
  6
BYBLOCK
 62
0
100
AcDbBlockEnd
  0
BLOCK
  5
312
100
AcDbEntity
  8
0
100
AcDbBlockBegin
 62
2
  6
CONTINUOUS
  2
ANSICHTEN_NACH_DIN_BL0
 70
64
 10
408.2884522882
 20
8.9999873543
  3
ANSICHTEN_NACH_DIN_BL0
  1

  0
LINE
  5
313
100
AcDbEntity
  8
DEFAULT_1
100
AcDbLine
 62
8
  6
CENTER
 10
411.1018882223
 20
6.7499873543
 11
411.1018882223
 21
11.2499873543
  0
LINE
  5
314
100
AcDbEntity
  8
DEFAULT_1
100
AcDbLine
 62
8
  6
CENTER
 10
408.8518882223
 20
8.9999873543
 11
413.3518882223
 21
8.9999873543
  0
LINE
  5
315
100
AcDbEntity
  8
DEFAULT_1
100
AcDbLine
 62
8
  6
CENTER
 10
403.2250163542
 20
9.0211393325
 11
408.2275424586
 21
9.0211393325
  0
LINE
  5
316
100
AcDbEntity
  8
0
100
AcDbLine
 62
2
  6
CONTINUOUS
 10
411.1018882223
 20
8.9999873543
 11
411.1018882223
 21
9.0230912848
  0
LINE
  5
317
100
AcDbEntity
  8
0
100
AcDbLine
 62
2
  6
CONTINUOUS
 10
407.9375102495
 20
7.0312373543
 11
407.9375102495
 21
10.9687373543
  0
CIRCLE
  5
318
100
AcDbEntity
  8
0
100
AcDbCircle
 62
2
  6
CONTINUOUS
 10
411.1018882223
 20
8.9999873543
 40
1.125
  0
LINE
  5
319
100
AcDbEntity
  8
0
100
AcDbLine
 62
2
  6
CONTINUOUS
 10
403.6481322767
 20
7.8749873543
 11
403.6481322767
 21
10.1249873543
  0
CIRCLE
  5
31A
100
AcDbEntity
  8
0
100
AcDbCircle
 62
2
  6
CONTINUOUS
 10
411.1018882223
 20
8.9999873543
 40
1.96875
  0
LINE
  5
31B
100
AcDbEntity
  8
0
100
AcDbLine
 62
2
  6
CONTINUOUS
 10
403.6481322767
 20
10.1249873543
 11
407.9375102495
 21
10.9687373543
  0
LINE
  5
31C
100
AcDbEntity
  8
0
100
AcDbLine
 62
2
  6
CONTINUOUS
 10
403.6481322767
 20
7.8749873543
 11
407.9375102495
 21
7.0312373543
  0
ENDBLK
  5
31D
100
AcDbEntity
  8
0
  6
BYBLOCK
 62
0
100
AcDbBlockEnd
  0
BLOCK
  5
31E
100
AcDbEntity
  8
0
100
AcDbBlockBegin
  2
_FILLED
 70
64
 10
0.0
 20
0.0
  3
_FILLED
  1

  0
SOLID
  5
31F
100
AcDbEntity
  8
0
  6
BYBLOCK
 62
0
100
AcDbTrace
 10
0.0
 20
0.0
 11
-1.0
 21
0.125
 12
-1.0
 22
-0.125
 13
-1.0
 23
-0.125
  0
ENDBLK
  5
320
100
AcDbEntity
  8
0
  6
BYBLOCK
 62
0
100
AcDbBlockEnd
  0
BLOCK
  5
321
100
AcDbEntity
  8
2D-BEMASSUNG
100
AcDbBlockBegin
 62
2
  6
CONTINUOUS
  2
*D0
 70
65
 10
0.0
 20
0.0
  3
*D0
  1

  0
MTEXT
  5
322
100
AcDbEntity
  8
2D-BEMASSUNG
100
AcDbMText
 62
5
  6
CONTINUOUS
  7
STANDARD
 71
2
 72
1
 10
121.9846811933
 20
236.205697938
 30
0.0
 11
1.0
 21
0.0
 31
0.0
 73
2
 44
0.9
  1
A
 40
2.5
 41
3.2142857143
  0
LINE
  5
323
100
AcDbEntity
  8
2D-BEMASSUNG
100
AcDbLine
 62
2
  6
CONTINUOUS
 10
181.9846811933
 20
208.080697938
 11
181.9846811933
 21
233.705697938
  0
LINE
  5
324
100
AcDbEntity
  8
2D-BEMASSUNG
100
AcDbLine
 62
2
  6
CONTINUOUS
 10
181.9846811933
 20
233.705697938
 11
181.9846811933
 21
234.580697938
  0
LINE
  5
325
100
AcDbEntity
  8
2D-BEMASSUNG
100
AcDbLine
 62
2
  6
CONTINUOUS
 10
61.9846811933
 20
208.080697938
 11
61.9846811933
 21
233.705697938
  0
LINE
  5
326
100
AcDbEntity
  8
2D-BEMASSUNG
100
AcDbLine
 62
2
  6
CONTINUOUS
 10
61.9846811933
 20
233.705697938
 11
61.9846811933
 21
234.580697938
  0
LINE
  5
327
100
AcDbEntity
  8
2D-BEMASSUNG
100
AcDbLine
 62
2
  6
CONTINUOUS
 10
181.9846811933
 20
233.080697938
 11
121.9846811933
 21
233.080697938
  0
LINE
  5
328
100
AcDbEntity
  8
2D-BEMASSUNG
100
AcDbLine
 62
2
  6
CONTINUOUS
 10
61.9846811933
 20
233.080697938
 11
121.9846811933
 21
233.080697938
  0
INSERT
  5
329
100
AcDbEntity
  8
2D-BEMASSUNG
100
AcDbBlockReference
 62
2
  6
CONTINUOUS
  2
_FILLED
 10
181.9846811933
 20
233.080697938
 41
3.5
 42
3.5
 43
3.5
  0
INSERT
  5
32A
100
AcDbEntity
  8
2D-BEMASSUNG
100
AcDbBlockReference
 62
2
  6
CONTINUOUS
  2
_FILLED
 10
61.9846811933
 20
233.080697938
 41
3.5
 42
3.5
 43
3.5
 50
180.0
  0
ENDBLK
  5
32B
100
AcDbEntity
  8
0
  6
BYBLOCK
 62
0
100
AcDbBlockEnd
  0
BLOCK
  5
32C
100
AcDbEntity
  8
2D-BEMASSUNG
100
AcDbBlockBegin
 62
2
  6
CONTINUOUS
  2
*D1
 70
65
 10
0.0
 20
0.0
  3
*D1
  1

  0
MTEXT
  5
32D
100
AcDbEntity
  8
2D-BEMASSUNG
100
AcDbMText
 62
5
  6
CONTINUOUS
  7
STANDARD
 71
2
 72
1
 10
193.8596811933
 20
158.080697938
 30
0.0
 11
0.0
 21
1.0
 31
0.0
 73
2
 44
0.9
  1
B
 40
2.5
 41
2.9464285714
  0
LINE
  5
32E
100
AcDbEntity
  8
2D-BEMASSUNG
100
AcDbLine
 62
2
  6
CONTINUOUS
 10
171.9846811933
 20
218.080697938
 11
196.3596811933
 21
218.080697938
  0
LINE
  5
32F
100
AcDbEntity
  8
2D-BEMASSUNG
100
AcDbLine
 62
2
  6
CONTINUOUS
 10
196.3596811933
 20
218.080697938
 11
198.4846811933
 21
218.080697938
  0
LINE
  5
330
100
AcDbEntity
  8
2D-BEMASSUNG
100
AcDbLine
 62
2
  6
CONTINUOUS
 10
171.9846811933
 20
98.080697938
 11
196.3596811933
 21
98.080697938
  0
LINE
  5
331
100
AcDbEntity
  8
2D-BEMASSUNG
100
AcDbLine
 62
2
  6
CONTINUOUS
 10
196.3596811933
 20
98.080697938
 11
198.4846811933
 21
98.080697938
  0
LINE
  5
332
100
AcDbEntity
  8
2D-BEMASSUNG
100
AcDbLine
 62
2
  6
CONTINUOUS
 10
196.9846811933
 20
218.080697938
 11
196.9846811933
 21
158.080697938
  0
LINE
  5
333
100
AcDbEntity
  8
2D-BEMASSUNG
100
AcDbLine
 62
2
  6
CONTINUOUS
 10
196.9846811933
 20
98.080697938
 11
196.9846811933
 21
158.080697938
  0
INSERT
  5
334
100
AcDbEntity
  8
2D-BEMASSUNG
100
AcDbBlockReference
 62
2
  6
CONTINUOUS
  2
_FILLED
 10
196.9846811933
 20
218.080697938
 41
3.5
 42
3.5
 43
3.5
 50
90.0
  0
INSERT
  5
335
100
AcDbEntity
  8
2D-BEMASSUNG
100
AcDbBlockReference
 62
2
  6
CONTINUOUS
  2
_FILLED
 10
196.9846811933
 20
98.080697938
 41
3.5
 42
3.5
 43
3.5
 50
270.0
  0
ENDBLK
  5
336
100
AcDbEntity
  8
0
  6
BYBLOCK
 62
0
100
AcDbBlockEnd
  0
BLOCK
  5
337
100
AcDbEntity
  8
2D-BEMASSUNG
100
AcDbBlockBegin
 62
2
  6
CONTINUOUS
  2
*D2
 70
65
 10
0.0
 20
0.0
  3
*D2
  1

  0
MTEXT
  5
338
100
AcDbEntity
  8
2D-BEMASSUNG
100
AcDbMText
 62
5
  6
CONTINUOUS
  7
STANDARD
 71
2
 72
1
 10
188.8596811933
 20
158.080697938
 30
0.0
 11
0.0
 21
1.0
 31
0.0
 73
2
 44
0.9
  1
D
 40
2.5
 41
3.3928571429
  0
LINE
  5
339
100
AcDbEntity
  8
2D-BEMASSUNG
100
AcDbLine
 62
2
  6
CONTINUOUS
 10
124.1346811933
 20
212.080697938
 11
191.3596811933
 21
212.080697938
  0
LINE
  5
33A
100
AcDbEntity
  8
2D-BEMASSUNG
100
AcDbLine
 62
2
  6
CONTINUOUS
 10
191.3596811933
 20
212.080697938
 11
193.4846811933
 21
212.080697938
  0
LINE
  5
33B
100
AcDbEntity
  8
2D-BEMASSUNG
100
AcDbLine
 62
2
  6
CONTINUOUS
 10
124.1346811933
 20
104.080697938
 11
191.3596811933
 21
104.080697938
  0
LINE
  5
33C
100
AcDbEntity
  8
2D-BEMASSUNG
100
AcDbLine
 62
2
  6
CONTINUOUS
 10
191.3596811933
 20
104.080697938
 11
193.4846811933
 21
104.080697938
  0
LINE
  5
33D
100
AcDbEntity
  8
2D-BEMASSUNG
100
AcDbLine
 62
2
  6
CONTINUOUS
 10
191.9846811933
 20
212.080697938
 11
191.9846811933
 21
158.080697938
  0
LINE
  5
33E
100
AcDbEntity
  8
2D-BEMASSUNG
100
AcDbLine
 62
2
  6
CONTINUOUS
 10
191.9846811933
 20
104.080697938
 11
191.9846811933
 21
158.080697938
  0
INSERT
  5
33F
100
AcDbEntity
  8
2D-BEMASSUNG
100
AcDbBlockReference
 62
2
  6
CONTINUOUS
  2
_FILLED
 10
191.9846811933
 20
212.080697938
 41
3.5
 42
3.5
 43
3.5
 50
90.0
  0
INSERT
  5
340
100
AcDbEntity
  8
2D-BEMASSUNG
100
AcDbBlockReference
 62
2
  6
CONTINUOUS
  2
_FILLED
 10
191.9846811933
 20
104.080697938
 41
3.5
 42
3.5
 43
3.5
 50
270.0
  0
ENDBLK
  5
341
100
AcDbEntity
  8
0
  6
BYBLOCK
 62
0
100
AcDbBlockEnd
  0
BLOCK
  5
342
100
AcDbEntity
  8
2D-BEMASSUNG
100
AcDbBlockBegin
 62
2
  6
CONTINUOUS
  2
*D3
 70
65
 10
0.0
 20
0.0
  3
*D3
  1

  0
MTEXT
  5
343
100
AcDbEntity
  8
2D-BEMASSUNG
100
AcDbMText
 62
5
  6
CONTINUOUS
  7
STANDARD
 71
2
 72
1
 10
121.9846811933
 20
231.205697938
 30
0.0
 11
1.0
 21
0.0
 31
0.0
 73
2
 44
0.9
  1
C
 40
2.5
 41
3.125
  0
LINE
  5
344
100
AcDbEntity
  8
2D-BEMASSUNG
100
AcDbLine
 62
2
  6
CONTINUOUS
 10
175.9846811933
 20
160.230697938
 11
175.9846811933
 21
228.705697938
  0
LINE
  5
345
100
AcDbEntity
  8
2D-BEMASSUNG
100
AcDbLine
 62
2
  6
CONTINUOUS
 10
175.9846811933
 20
228.705697938
 11
175.9846811933
 21
229.580697938
  0
LINE
  5
346
100
AcDbEntity
  8
2D-BEMASSUNG
100
AcDbLine
 62
2
  6
CONTINUOUS
 10
67.9846811933
 20
160.230697938
 11
67.9846811933
 21
228.705697938
  0
LINE
  5
347
100
AcDbEntity
  8
2D-BEMASSUNG
100
AcDbLine
 62
2
  6
CONTINUOUS
 10
67.9846811933
 20
228.705697938
 11
67.9846811933
 21
229.580697938
  0
LINE
  5
348
100
AcDbEntity
  8
2D-BEMASSUNG
100
AcDbLine
 62
2
  6
CONTINUOUS
 10
175.9846811933
 20
228.080697938
 11
121.9846811933
 21
228.080697938
  0
LINE
  5
349
100
AcDbEntity
  8
2D-BEMASSUNG
100
AcDbLine
 62
2
  6
CONTINUOUS
 10
67.9846811933
 20
228.080697938
 11
121.9846811933
 21
228.080697938
  0
INSERT
  5
34A
100
AcDbEntity
  8
2D-BEMASSUNG
100
AcDbBlockReference
 62
2
  6
CONTINUOUS
  2
_FILLED
 10
175.9846811933
 20
228.080697938
 41
3.5
 42
3.5
 43
3.5
  0
INSERT
  5
34B
100
AcDbEntity
  8
2D-BEMASSUNG
100
AcDbBlockReference
 62
2
  6
CONTINUOUS
  2
_FILLED
 10
67.9846811933
 20
228.080697938
 41
3.5
 42
3.5
 43
3.5
 50
180.0
  0
ENDBLK
  5
34C
100
AcDbEntity
  8
0
  6
BYBLOCK
 62
0
100
AcDbBlockEnd
  0
BLOCK
  5
34D
100
AcDbEntity
  8
2D-BEMASSUNG
100
AcDbBlockBegin
 62
2
  6
CONTINUOUS
  2
*D4
 70
65
 10
0.0
 20
0.0
  3
*D4
  1

  0
MTEXT
  5
34E
100
AcDbEntity
  8
2D-BEMASSUNG
100
AcDbMText
 62
5
  6
CONTINUOUS
  7
STANDARD
 71
1
 72
1
 10
48.8596811933
 20
275.5015812372
 30
0.0
 11
0.0
 21
1.0
 31
0.0
 73
2
 44
0.9
  1
2.5
 40
2.5
 41
7.7678571429
  0
LINE
  5
34F
100
AcDbEntity
  8
2D-BEMASSUNG
100
AcDbLine
 62
2
  6
CONTINUOUS
 10
61.9846811933
 20
262.5015812372
 11
50.4846811933
 21
262.5015812372
  0
LINE
  5
350
100
AcDbEntity
  8
2D-BEMASSUNG
100
AcDbLine
 62
2
  6
CONTINUOUS
 10
61.9846811933
 20
265.0015812372
 11
50.4846811933
 21
265.0015812372
  0
LINE
  5
351
100
AcDbEntity
  8
2D-BEMASSUNG
100
AcDbLine
 62
2
  6
CONTINUOUS
 10
51.9846811933
 20
262.5015812372
 11
51.9846811933
 21
256.5015812372
  0
LINE
  5
352
100
AcDbEntity
  8
2D-BEMASSUNG
100
AcDbLine
 62
2
  6
CONTINUOUS
 10
51.9846811933
 20
256.5015812372
 11
51.9846811933
 21
263.7515812372
  0
LINE
  5
353
100
AcDbEntity
  8
2D-BEMASSUNG
100
AcDbLine
 62
2
  6
CONTINUOUS
 10
51.9846811933
 20
265.0015812372
 11
51.9846811933
 21
280.6801526658
  0
LINE
  5
354
100
AcDbEntity
  8
2D-BEMASSUNG
100
AcDbLine
 62
2
  6
CONTINUOUS
 10
51.9846811933
 20
280.6801526658
 11
51.9846811933
 21
263.7515812372
  0
INSERT
  5
355
100
AcDbEntity
  8
2D-BEMASSUNG
100
AcDbBlockReference
 62
2
  6
CONTINUOUS
  2
_FILLED
 10
51.9846811933
 20
262.5015812372
 41
3.5
 42
3.5
 43
3.5
 50
90.0
  0
INSERT
  5
356
100
AcDbEntity
  8
2D-BEMASSUNG
100
AcDbBlockReference
 62
2
  6
CONTINUOUS
  2
_FILLED
 10
51.9846811933
 20
265.0015812372
 41
3.5
 42
3.5
 43
3.5
 50
270.0
  0
ENDBLK
  5
357
100
AcDbEntity
  8
0
  6
BYBLOCK
 62
0
100
AcDbBlockEnd
  0
BLOCK
  5
358
100
AcDbEntity
  8
2D-BEMASSUNG
100
AcDbBlockBegin
 62
2
  6
CONTINUOUS
  2
*D5
 70
65
 10
0.0
 20
0.0
  3
*D5
  1

  0
MTEXT
  5
359
100
AcDbEntity
  8
2D-BEMASSUNG
100
AcDbMText
 62
5
  6
CONTINUOUS
  7
STANDARD
 71
1
 72
1
 10
219.860885752
 20
276.9309111568
 30
0.0
 11
0.0
 21
1.0
 31
0.0
 73
2
 44
0.9
  1
2.5
 40
2.5
 41
7.7678571429
  0
LINE
  5
35A
100
AcDbEntity
  8
2D-BEMASSUNG
100
AcDbLine
 62
2
  6
CONTINUOUS
 10
232.985885752
 20
263.9309111568
 11
221.485885752
 21
263.9309111568
  0
LINE
  5
35B
100
AcDbEntity
  8
2D-BEMASSUNG
100
AcDbLine
 62
2
  6
CONTINUOUS
 10
232.985885752
 20
266.4309111568
 11
221.485885752
 21
266.4309111568
  0
LINE
  5
35C
100
AcDbEntity
  8
2D-BEMASSUNG
100
AcDbLine
 62
2
  6
CONTINUOUS
 10
222.985885752
 20
263.9309111568
 11
222.985885752
 21
257.9309111568
  0
LINE
  5
35D
100
AcDbEntity
  8
2D-BEMASSUNG
100
AcDbLine
 62
2
  6
CONTINUOUS
 10
222.985885752
 20
257.9309111568
 11
222.985885752
 21
265.1809111568
  0
LINE
  5
35E
100
AcDbEntity
  8
2D-BEMASSUNG
100
AcDbLine
 62
2
  6
CONTINUOUS
 10
222.985885752
 20
266.4309111568
 11
222.985885752
 21
282.1094825854
  0
LINE
  5
35F
100
AcDbEntity
  8
2D-BEMASSUNG
100
AcDbLine
 62
2
  6
CONTINUOUS
 10
222.985885752
 20
282.1094825854
 11
222.985885752
 21
265.1809111568
  0
INSERT
  5
360
100
AcDbEntity
  8
2D-BEMASSUNG
100
AcDbBlockReference
 62
2
  6
CONTINUOUS
  2
_FILLED
 10
222.985885752
 20
263.9309111568
 41
3.5
 42
3.5
 43
3.5
 50
90.0
  0
INSERT
  5
361
100
AcDbEntity
  8
2D-BEMASSUNG
100
AcDbBlockReference
 62
2
  6
CONTINUOUS
  2
_FILLED
 10
222.985885752
 20
266.4309111568
 41
3.5
 42
3.5
 43
3.5
 50
270.0
  0
ENDBLK
  5
362
100
AcDbEntity
  8
0
  6
BYBLOCK
 62
0
100
AcDbBlockEnd
  0
BLOCK
  5
363
100
AcDbEntity
  8
2D-BEMASSUNG
100
AcDbBlockBegin
 62
2
  6
CONTINUOUS
  2
*D6
 70
65
 10
0.0
 20
0.0
  3
*D6
  1

  0
MTEXT
  5
364
100
AcDbEntity
  8
2D-BEMASSUNG
100
AcDbMText
 62
5
  6
CONTINUOUS
  7
STANDARD
 71
2
 72
1
 10
393.860885752
 20
158.080697938
 30
0.0
 11
0.0
 21
1.0
 31
0.0
 73
2
 44
0.9
  1
149
 40
2.5
 41
8.0357142857
  0
LINE
  5
365
100
AcDbEntity
  8
2D-BEMASSUNG
100
AcDbLine
 62
2
  6
CONTINUOUS
 10
370.485885752
 20
232.580697938
 11
398.485885752
 21
232.580697938
  0
LINE
  5
366
100
AcDbEntity
  8
2D-BEMASSUNG
100
AcDbLine
 62
2
  6
CONTINUOUS
 10
370.485885752
 20
83.580697938
 11
398.485885752
 21
83.580697938
  0
LINE
  5
367
100
AcDbEntity
  8
2D-BEMASSUNG
100
AcDbLine
 62
2
  6
CONTINUOUS
 10
396.985885752
 20
232.580697938
 11
396.985885752
 21
158.080697938
  0
LINE
  5
368
100
AcDbEntity
  8
2D-BEMASSUNG
100
AcDbLine
 62
2
  6
CONTINUOUS
 10
396.985885752
 20
83.580697938
 11
396.985885752
 21
158.080697938
  0
INSERT
  5
369
100
AcDbEntity
  8
2D-BEMASSUNG
100
AcDbBlockReference
 62
2
  6
CONTINUOUS
  2
_FILLED
 10
396.985885752
 20
232.580697938
 41
3.5
 42
3.5
 43
3.5
 50
90.0
  0
INSERT
  5
36A
100
AcDbEntity
  8
2D-BEMASSUNG
100
AcDbBlockReference
 62
2
  6
CONTINUOUS
  2
_FILLED
 10
396.985885752
 20
83.580697938
 41
3.5
 42
3.5
 43
3.5
 50
270.0
  0
ENDBLK
  5
36B
100
AcDbEntity
  8
0
  6
BYBLOCK
 62
0
100
AcDbBlockEnd
  0
BLOCK
  5
36C
100
AcDbEntity
  8
2D-BEMASSUNG
100
AcDbBlockBegin
 62
2
  6
CONTINUOUS
  2
*D7
 70
65
 10
0.0
 20
0.0
  3
*D7
  1

  0
MTEXT
  5
36D
100
AcDbEntity
  8
2D-BEMASSUNG
100
AcDbMText
 62
5
  6
CONTINUOUS
  7
STANDARD
 71
2
 72
1
 10
307.485885752
 20
250.705697938
 30
0.0
 11
1.0
 21
0.0
 31
0.0
 73
2
 44
0.9
  1
149
 40
2.5
 41
8.0357142857
  0
LINE
  5
36E
100
AcDbEntity
  8
2D-BEMASSUNG
100
AcDbLine
 62
2
  6
CONTINUOUS
 10
381.985885752
 20
221.080697938
 11
381.985885752
 21
249.080697938
  0
LINE
  5
36F
100
AcDbEntity
  8
2D-BEMASSUNG
100
AcDbLine
 62
2
  6
CONTINUOUS
 10
232.985885752
 20
221.080697938
 11
232.985885752
 21
249.080697938
  0
LINE
  5
370
100
AcDbEntity
  8
2D-BEMASSUNG
100
AcDbLine
 62
2
  6
CONTINUOUS
 10
381.985885752
 20
247.580697938
 11
307.485885752
 21
247.580697938
  0
LINE
  5
371
100
AcDbEntity
  8
2D-BEMASSUNG
100
AcDbLine
 62
2
  6
CONTINUOUS
 10
232.985885752
 20
247.580697938
 11
307.485885752
 21
247.580697938
  0
INSERT
  5
372
100
AcDbEntity
  8
2D-BEMASSUNG
100
AcDbBlockReference
 62
2
  6
CONTINUOUS
  2
_FILLED
 10
381.985885752
 20
247.580697938
 41
3.5
 42
3.5
 43
3.5
  0
INSERT
  5
373
100
AcDbEntity
  8
2D-BEMASSUNG
100
AcDbBlockReference
 62
2
  6
CONTINUOUS
  2
_FILLED
 10
232.985885752
 20
247.580697938
 41
3.5
 42
3.5
 43
3.5
 50
180.0
  0
ENDBLK
  5
374
100
AcDbEntity
  8
0
  6
BYBLOCK
 62
0
100
AcDbBlockEnd
  0
BLOCK
  5
375
100
AcDbEntity
  8
2D-BEMASSUNG
100
AcDbBlockBegin
 62
2
  6
CONTINUOUS
  2
*D8
 70
65
 10
0.0
 20
0.0
  3
*D8
  1

  0
MTEXT
  5
376
100
AcDbEntity
  8
2D-BEMASSUNG
100
AcDbMText
 62
5
  6
CONTINUOUS
  7
STANDARD
 71
2
 72
1
 10
294.485885752
 20
245.705697938
 30
0.0
 11
1.0
 21
0.0
 31
0.0
 73
2
 44
0.9
  1
26
 40
2.5
 41
5.8928571429
  0
LINE
  5
377
100
AcDbEntity
  8
2D-BEMASSUNG
100
AcDbLine
 62
2
  6
CONTINUOUS
 10
281.485885752
 20
222.6895768141
 11
281.485885752
 21
244.080697938
  0
LINE
  5
378
100
AcDbEntity
  8
2D-BEMASSUNG
100
AcDbLine
 62
2
  6
CONTINUOUS
 10
307.485885752
 20
235.580697938
 11
307.485885752
 21
244.080697938
  0
LINE
  5
379
100
AcDbEntity
  8
2D-BEMASSUNG
100
AcDbLine
 62
2
  6
CONTINUOUS
 10
281.485885752
 20
242.580697938
 11
294.485885752
 21
242.580697938
  0
LINE
  5
37A
100
AcDbEntity
  8
2D-BEMASSUNG
100
AcDbLine
 62
2
  6
CONTINUOUS
 10
307.485885752
 20
242.580697938
 11
294.485885752
 21
242.580697938
  0
INSERT
  5
37B
100
AcDbEntity
  8
2D-BEMASSUNG
100
AcDbBlockReference
 62
2
  6
CONTINUOUS
  2
_FILLED
 10
281.485885752
 20
242.580697938
 41
3.5
 42
3.5
 43
3.5
 50
180.0
  0
INSERT
  5
37C
100
AcDbEntity
  8
2D-BEMASSUNG
100
AcDbBlockReference
 62
2
  6
CONTINUOUS
  2
_FILLED
 10
307.485885752
 20
242.580697938
 41
3.5
 42
3.5
 43
3.5
  0
ENDBLK
  5
37D
100
AcDbEntity
  8
0
  6
BYBLOCK
 62
0
100
AcDbBlockEnd
  0
BLOCK
  5
37E
100
AcDbEntity
  8
2D-BEMASSUNG
100
AcDbBlockBegin
 62
2
  6
CONTINUOUS
  2
*D9
 70
65
 10
0.0
 20
0.0
  3
*D9
  1

  0
MTEXT
  5
37F
100
AcDbEntity
  8
2D-BEMASSUNG
100
AcDbMText
 62
5
  6
CONTINUOUS
  7
STANDARD
 71
2
 72
1
 10
388.860885752
 20
171.080697938
 30
0.0
 11
0.0
 21
1.0
 31
0.0
 73
2
 44
0.9
  1
26
 40
2.5
 41
5.8928571429
  0
LINE
  5
380
100
AcDbEntity
  8
2D-BEMASSUNG
100
AcDbLine
 62
2
  6
CONTINUOUS
 10
372.8443731227
 20
184.080697938
 11
393.485885752
 21
184.080697938
  0
LINE
  5
381
100
AcDbEntity
  8
2D-BEMASSUNG
100
AcDbLine
 62
2
  6
CONTINUOUS
 10
384.985885752
 20
158.080697938
 11
393.485885752
 21
158.080697938
  0
LINE
  5
382
100
AcDbEntity
  8
2D-BEMASSUNG
100
AcDbLine
 62
2
  6
CONTINUOUS
 10
391.985885752
 20
184.080697938
 11
391.985885752
 21
171.080697938
  0
LINE
  5
383
100
AcDbEntity
  8
2D-BEMASSUNG
100
AcDbLine
 62
2
  6
CONTINUOUS
 10
391.985885752
 20
158.080697938
 11
391.985885752
 21
171.080697938
  0
INSERT
  5
384
100
AcDbEntity
  8
2D-BEMASSUNG
100
AcDbBlockReference
 62
2
  6
CONTINUOUS
  2
_FILLED
 10
391.985885752
 20
184.080697938
 41
3.5
 42
3.5
 43
3.5
 50
90.0
  0
INSERT
  5
385
100
AcDbEntity
  8
2D-BEMASSUNG
100
AcDbBlockReference
 62
2
  6
CONTINUOUS
  2
_FILLED
 10
391.985885752
 20
158.080697938
 41
3.5
 42
3.5
 43
3.5
 50
270.0
  0
ENDBLK
  5
386
100
AcDbEntity
  8
0
  6
BYBLOCK
 62
0
100
AcDbBlockEnd
  0
BLOCK
  5
387
100
AcDbEntity
  8
2D-BEMASSUNG
100
AcDbBlockBegin
 62
2
  6
CONTINUOUS
  2
*D10
 70
65
 10
0.0
 20
0.0
  3
*D10
  1

  0
MTEXT
  5
388
100
AcDbEntity
  8
2D-BEMASSUNG
100
AcDbMText
 62
5
  6
CONTINUOUS
  7
STANDARD
 71
1
 72
1
 10
131.3993710847
 20
203.996980221
 30
0.0
 11
1.0
 21
0.0
 31
0.0
 73
2
 44
0.9
  1
4.3
 40
2.5
 41
7.7678571429
  0
LINE
  5
389
100
AcDbEntity
  8
2D-BEMASSUNG
100
AcDbLine
 62
2
  6
CONTINUOUS
 10
119.8346811933
 20
210.580697938
 11
119.8346811933
 21
199.371980221
  0
LINE
  5
38A
100
AcDbEntity
  8
2D-BEMASSUNG
100
AcDbLine
 62
2
  6
CONTINUOUS
 10
124.1346811933
 20
210.580697938
 11
124.1346811933
 21
199.371980221
  0
LINE
  5
38B
100
AcDbEntity
  8
2D-BEMASSUNG
100
AcDbLine
 62
2
  6
CONTINUOUS
 10
119.8346811933
 20
200.871980221
 11
113.8346811933
 21
200.871980221
  0
LINE
  5
38C
100
AcDbEntity
  8
2D-BEMASSUNG
100
AcDbLine
 62
2
  6
CONTINUOUS
 10
113.8346811933
 20
200.871980221
 11
121.9846811933
 21
200.871980221
  0
LINE
  5
38D
100
AcDbEntity
  8
2D-BEMASSUNG
100
AcDbLine
 62
2
  6
CONTINUOUS
 10
124.1346811933
 20
200.871980221
 11
136.5779425132
 21
200.871980221
  0
LINE
  5
38E
100
AcDbEntity
  8
2D-BEMASSUNG
100
AcDbLine
 62
2
  6
CONTINUOUS
 10
136.5779425132
 20
200.871980221
 11
121.9846811933
 21
200.871980221
  0
INSERT
  5
38F
100
AcDbEntity
  8
2D-BEMASSUNG
100
AcDbBlockReference
 62
2
  6
CONTINUOUS
  2
_FILLED
 10
119.8346811933
 20
200.871980221
 41
3.5
 42
3.5
 43
3.5
  0
INSERT
  5
390
100
AcDbEntity
  8
2D-BEMASSUNG
100
AcDbBlockReference
 62
2
  6
CONTINUOUS
  2
_FILLED
 10
124.1346811933
 20
200.871980221
 41
3.5
 42
3.5
 43
3.5
 50
180.0
  0
ENDBLK
  5
391
100
AcDbEntity
  8
0
  6
BYBLOCK
 62
0
100
AcDbBlockEnd
  0
BLOCK
  5
392
100
AcDbEntity
  8
2D-BEMASSUNG
100
AcDbBlockBegin
 62
2
  6
CONTINUOUS
  2
*D11
 70
65
 10
0.0
 20
0.0
  3
*D11
  1

  0
MTEXT
  5
393
100
AcDbEntity
  8
2D-BEMASSUNG
100
AcDbMText
 62
5
  6
CONTINUOUS
  7
STANDARD
 71
1
 72
1
 10
107.367479112
 20
221.618156367
 30
0.0
 11
0.0
 21
1.0
 31
0.0
 73
2
 44
0.9
  1
3
 40
2.5
 41
2.6785714286
  0
LINE
  5
394
100
AcDbEntity
  8
2D-BEMASSUNG
100
AcDbLine
 62
2
  6
CONTINUOUS
 10
120.7406150451
 20
213.580697938
 11
108.992479112
 21
213.580697938
  0
LINE
  5
395
100
AcDbEntity
  8
2D-BEMASSUNG
100
AcDbLine
 62
2
  6
CONTINUOUS
 10
120.4391992824
 20
210.580697938
 11
108.992479112
 21
210.580697938
  0
LINE
  5
396
100
AcDbEntity
  8
2D-BEMASSUNG
100
AcDbLine
 62
2
  6
CONTINUOUS
 10
110.492479112
 20
213.580697938
 11
110.492479112
 21
223.4038706527
  0
LINE
  5
397
100
AcDbEntity
  8
2D-BEMASSUNG
100
AcDbLine
 62
2
  6
CONTINUOUS
 10
110.492479112
 20
223.4038706527
 11
110.492479112
 21
212.080697938
  0
LINE
  5
398
100
AcDbEntity
  8
2D-BEMASSUNG
100
AcDbLine
 62
2
  6
CONTINUOUS
 10
110.492479112
 20
210.580697938
 11
110.492479112
 21
204.580697938
  0
LINE
  5
399
100
AcDbEntity
  8
2D-BEMASSUNG
100
AcDbLine
 62
2
  6
CONTINUOUS
 10
110.492479112
 20
204.580697938
 11
110.492479112
 21
212.080697938
  0
INSERT
  5
39A
100
AcDbEntity
  8
2D-BEMASSUNG
100
AcDbBlockReference
 62
2
  6
CONTINUOUS
  2
_FILLED
 10
110.492479112
 20
213.580697938
 41
3.5
 42
3.5
 43
3.5
 50
270.0
  0
INSERT
  5
39B
100
AcDbEntity
  8
2D-BEMASSUNG
100
AcDbBlockReference
 62
2
  6
CONTINUOUS
  2
_FILLED
 10
110.492479112
 20
210.580697938
 41
3.5
 42
3.5
 43
3.5
 50
90.0
  0
ENDBLK
  5
39C
100
AcDbEntity
  8
0
  6
BYBLOCK
 62
0
100
AcDbBlockEnd
  0
BLOCK
  5
39D
100
AcDbEntity
  8
2D-BEMASSUNG
100
AcDbBlockBegin
 62
2
  6
CONTINUOUS
  2
*D12
 70
65
 10
0.0
 20
0.0
  3
*D12
  1

  0
MTEXT
  5
39E
100
AcDbEntity
  8
2D-BEMASSUNG
100
AcDbMText
 62
5
  6
CONTINUOUS
  7
STANDARD
 71
2
 72
1
 10
219.860885752
 20
145.080697938
 30
0.0
 11
0.0
 21
1.0
 31
0.0
 73
2
 44
0.9
  1
26
 40
2.5
 41
5.8928571429
  0
LINE
  5
39F
100
AcDbEntity
  8
2D-BEMASSUNG
100
AcDbLine
 62
2
  6
CONTINUOUS
 10
241.1010466801
 20
132.080697938
 11
221.485885752
 21
132.080697938
  0
LINE
  5
3A0
100
AcDbEntity
  8
2D-BEMASSUNG
100
AcDbLine
 62
2
  6
CONTINUOUS
 10
245.0104002923
 20
158.080697938
 11
221.485885752
 21
158.080697938
  0
LINE
  5
3A1
100
AcDbEntity
  8
2D-BEMASSUNG
100
AcDbLine
 62
2
  6
CONTINUOUS
 10
222.985885752
 20
132.080697938
 11
222.985885752
 21
145.080697938
  0
LINE
  5
3A2
100
AcDbEntity
  8
2D-BEMASSUNG
100
AcDbLine
 62
2
  6
CONTINUOUS
 10
222.985885752
 20
158.080697938
 11
222.985885752
 21
145.080697938
  0
INSERT
  5
3A3
100
AcDbEntity
  8
2D-BEMASSUNG
100
AcDbBlockReference
 62
2
  6
CONTINUOUS
  2
_FILLED
 10
222.985885752
 20
132.080697938
 41
3.5
 42
3.5
 43
3.5
 50
270.0
  0
INSERT
  5
3A4
100
AcDbEntity
  8
2D-BEMASSUNG
100
AcDbBlockReference
 62
2
  6
CONTINUOUS
  2
_FILLED
 10
222.985885752
 20
158.080697938
 41
3.5
 42
3.5
 43
3.5
 50
90.0
  0
ENDBLK
  5
3A5
100
AcDbEntity
  8
0
  6
BYBLOCK
 62
0
100
AcDbBlockEnd
  0
BLOCK
  5
3A6
100
AcDbEntity
  8
2D-BEMASSUNG
100
AcDbBlockBegin
 62
2
  6
CONTINUOUS
  2
*D13
 70
65
 10
0.0
 20
0.0
  3
*D13
  1

  0
MTEXT
  5
3A7
100
AcDbEntity
  8
2D-BEMASSUNG
100
AcDbMText
 62
5
  6
CONTINUOUS
  7
STANDARD
 71
2
 72
1
 10
320.485885752
 20
76.705697938
 30
0.0
 11
1.0
 21
0.0
 31
0.0
 73
2
 44
0.9
  1
26
 40
2.5
 41
5.8928571429
  0
LINE
  5
3A8
100
AcDbEntity
  8
2D-BEMASSUNG
100
AcDbLine
 62
2
  6
CONTINUOUS
 10
333.485885752
 20
92.9250409905
 11
333.485885752
 21
72.080697938
  0
LINE
  5
3A9
100
AcDbEntity
  8
2D-BEMASSUNG
100
AcDbLine
 62
2
  6
CONTINUOUS
 10
307.485885752
 20
100.9737101921
 11
307.485885752
 21
72.080697938
  0
LINE
  5
3AA
100
AcDbEntity
  8
2D-BEMASSUNG
100
AcDbLine
 62
2
  6
CONTINUOUS
 10
333.485885752
 20
73.580697938
 11
320.485885752
 21
73.580697938
  0
LINE
  5
3AB
100
AcDbEntity
  8
2D-BEMASSUNG
100
AcDbLine
 62
2
  6
CONTINUOUS
 10
307.485885752
 20
73.580697938
 11
320.485885752
 21
73.580697938
  0
INSERT
  5
3AC
100
AcDbEntity
  8
2D-BEMASSUNG
100
AcDbBlockReference
 62
2
  6
CONTINUOUS
  2
_FILLED
 10
333.485885752
 20
73.580697938
 41
3.5
 42
3.5
 43
3.5
  0
INSERT
  5
3AD
100
AcDbEntity
  8
2D-BEMASSUNG
100
AcDbBlockReference
 62
2
  6
CONTINUOUS
  2
_FILLED
 10
307.485885752
 20
73.580697938
 41
3.5
 42
3.5
 43
3.5
 50
180.0
  0
ENDBLK
  5
3AE
100
AcDbEntity
  8
0
  6
BYBLOCK
 62
0
100
AcDbBlockEnd
  0
BLOCK
  5
3AF
100
AcDbEntity
  8
0
100
AcDbBlockBegin
  2
*T1
 70
1
 10
0.0
 20
0.0
  3
*T1
  1

  0
LINE
  5
3B0
100
AcDbEntity
  8
0
100
AcDbLine
 62
2
  6
CONTINUOUS
 10
118.3
 20
0.0
 11
0.0
 21
0.0
  0
LINE
  5
3B1
100
AcDbEntity
  8
0
100
AcDbLine
 62
2
  6
CONTINUOUS
 10
118.3
 20
0.0
 11
118.3
 21
25.0
  0
LINE
  5
3B2
100
AcDbEntity
  8
0
100
AcDbLine
 62
2
  6
CONTINUOUS
 10
42.3
 20
4.0
 11
0.0
 21
4.0
  0
LINE
  5
3B3
100
AcDbEntity
  8
0
100
AcDbLine
 62
2
  6
CONTINUOUS
 10
118.3
 20
8.0
 11
105.3
 21
8.0
  0
LINE
  5
3B4
100
AcDbEntity
  8
0
100
AcDbLine
 62
2
  6
CONTINUOUS
 10
118.3
 20
12.0
 11
112.3
 21
12.0
  0
LINE
  5
3B5
100
AcDbEntity
  8
0
100
AcDbLine
 62
2
  6
CONTINUOUS
 10
118.3
 20
20.0
 11
0.0
 21
20.0
  0
LINE
  5
3B6
100
AcDbEntity
  8
0
100
AcDbLine
 62
2
  6
CONTINUOUS
 10
118.3
 20
25.0
 11
0.0
 21
25.0
  0
LINE
  5
3B7
100
AcDbEntity
  8
0
100
AcDbLine
 62
2
  6
CONTINUOUS
 10
112.3
 20
8.0
 11
112.3
 21
12.0
  0
LINE
  5
3B8
100
AcDbEntity
  8
0
100
AcDbLine
 62
2
  6
CONTINUOUS
 10
105.3
 20
0.0
 11
105.3
 21
8.0
  0
LINE
  5
3B9
100
AcDbEntity
  8
0
100
AcDbLine
 62
2
  6
CONTINUOUS
 10
42.3
 20
0.0
 11
42.3
 21
20.0
  0
LINE
  5
3BA
100
AcDbEntity
  8
0
100
AcDbLine
 62
2
  6
CONTINUOUS
 10
0.0
 20
0.0
 11
0.0
 21
25.0
  0
MTEXT
  5
3BB
100
AcDbEntity
  8
NOTIZ
100
AcDbMText
 62
5
  6
CONTINUOUS
  7
STANDARD
 71
1
 72
1
 10
43.525
 20
5.5
 30
0.0
 11
1.0
 21
0.0
 31
0.0
 73
2
 44
0.9
  1
M-MPL-ABOX
 40
3.0
 41
48.2857142857
  0
MTEXT
  5
3BC
100
AcDbEntity
  8
NOTIZ
100
AcDbMText
 62
5
  6
CONTINUOUS
  7
TEXTSTYLE_8
 71
1
 72
1
 10
25.225
 20
2.5
 30
0.0
 11
1.0
 21
0.0
 31
0.0
 73
2
 44
0.9
  1
     01.02.22 
 40
1.0
 41
21.0952380952
  0
MTEXT
  5
3BD
100
AcDbEntity
  8
NOTIZ
100
AcDbMText
 62
5
  6
CONTINUOUS
  7
STANDARD
 71
1
 72
1
 10
10.225
 20
2.5
 30
0.0
 11
1.0
 21
0.0
 31
0.0
 73
2
 44
0.9
  1
Freigabe
 40
1.0
 41
11.2857142857
  0
MTEXT
  5
3BE
100
AcDbEntity
  8
NOTIZ
100
AcDbMText
 62
5
  6
CONTINUOUS
  7
STANDARD
 71
1
 72
1
 10
1.225
 20
2.5
 30
0.0
 11
1.0
 21
0.0
 31
0.0
 73
2
 44
0.9
  1
0 
 40
1.0
 41
3.5238095238
  0
MTEXT
  5
3BF
100
AcDbEntity
  8
NOTIZ
100
AcDbMText
 62
5
  6
CONTINUOUS
  7
STANDARD
 71
1
 72
1
 10
10.225
 20
6.25
 30
0.0
 11
1.0
 21
0.0
 31
0.0
 73
2
 44
0.9
  1
 \P \P  \P \P \P \P    M-MPL-ABOX
 40
0.9
 41
20.1428571429
  0
MTEXT
  5
3C0
100
AcDbEntity
  8
NOTIZ
100
AcDbMText
 62
5
  6
CONTINUOUS
  7
STANDARD
 71
1
 72
1
 10
1.225
 20
6.25
 30
0.0
 11
1.0
 21
0.0
 31
0.0
 73
2
 44
0.9
  1
  \P \P \P \P \P \P(Dateiname Modell:)
 40
0.9
 41
22.8428571429
  0
MTEXT
  5
3C1
100
AcDbEntity
  8
NOTIZ
100
AcDbMText
 62
5
  6
CONTINUOUS
  7
STANDARD
 71
1
 72
1
 10
113.525
 20
11.0
 30
0.0
 11
1.0
 21
0.0
 31
0.0
 73
2
 44
0.9
  1
A3
 40
2.0
 41
7.0476190476
  0
MTEXT
  5
3C2
100
AcDbEntity
  8
NOTIZ
100
AcDbMText
 62
5
  6
CONTINUOUS
  7
STANDARD
 71
1
 72
1
 10
43.525
 20
11.25
 30
0.0
 11
1.0
 21
0.0
 31
0.0
 73
2
 44
0.9
  1
Montageplatten Abox
 40
2.5
 41
67.380952381
  0
MTEXT
  5
3C3
100
AcDbEntity
  8
NOTIZ
100
AcDbMText
 62
5
  6
CONTINUOUS
  7
STANDARD
 71
1
 72
1
 10
10.225
 20
10.25
 30
0.0
 11
1.0
 21
0.0
 31
0.0
 73
2
 44
0.9
  1
 \P \P \P \P \P \P \P \P \P                                                                  M-MPL-ABOX
 40
0.9
 41
107.8285714286
  0
MTEXT
  5
3C4
100
AcDbEntity
  8
NOTIZ
100
AcDbMText
 62
5
  6
CONTINUOUS
  7
STANDARD
 71
1
 72
1
 10
1.225
 20
10.25
 30
0.0
 11
1.0
 21
0.0
 31
0.0
 73
2
 44
0.9
  1
  \P \P \P \P \P \P \P \P \P                                                          (Dateiname Zeichnung:)
 40
0.9
 41
108.9
  0
MTEXT
  5
3C5
100
AcDbEntity
  8
NOTIZ
100
AcDbMText
 62
5
  6
CONTINUOUS
  7
STANDARD
 71
1
 72
1
 10
43.525
 20
17.75
 30
0.0
 11
1.0
 21
0.0
 31
0.0
 73
2
 44
0.9
  1
Massblatt/ dimension sheet
 40
3.5
 41
128.0
  0
MTEXT
  5
3C6
100
AcDbEntity
  8
NOTIZ
100
AcDbMText
 62
5
  6
CONTINUOUS
  7
STANDARD
 71
2
 72
1
 10
111.8
 20
24.0
 30
0.0
 11
1.0
 21
0.0
 31
0.0
 73
2
 44
0.9
  1
1:1 
 40
3.0
 41
14.8571428571
  0
MTEXT
  5
3C7
100
AcDbEntity
  8
NOTIZ
100
AcDbMText
 62
5
  6
CONTINUOUS
  7
STANDARD
 71
2
 72
1
 10
100.8
 20
23.4
 30
0.0
 11
1.0
 21
0.0
 31
0.0
 73
2
 44
0.9
  1
Maßstab:
 40
1.8
 41
19.92
  0
MTEXT
  5
3C8
100
AcDbEntity
  8
NOTIZ
100
AcDbMText
 62
5
  6
CONTINUOUS
  7
STANDARD
 71
1
 72
1
 10
1.225
 20
23.4
 30
0.0
 11
1.0
 21
0.0
 31
0.0
 73
2
 44
0.9
  1
Schutzvermerk ISO 16016 beachten. Refer to protection notice ISO 16016. 
 40
1.8
 41
181.6285714286
  0
ENDBLK
  5
3C9
100
AcDbEntity
  8
0
  6
BYBLOCK
 62
0
100
AcDbBlockEnd
  0
BLOCK
  5
3CA
100
AcDbEntity
  8
0
100
AcDbBlockBegin
  2
*T2
 70
1
 10
0.0
 20
0.0
  3
*T2
  1

  0
LINE
  5
3CB
100
AcDbEntity
  8
0
100
AcDbLine
 62
2
  6
CONTINUOUS
 10
0.0
 20
0.0
 11
100.0
 21
0.0
  0
LINE
  5
3CC
100
AcDbEntity
  8
0
100
AcDbLine
 62
2
  6
CONTINUOUS
 10
0.0
 20
0.0
 11
0.0
 21
-25.1763809021
  0
LINE
  5
3CD
100
AcDbEntity
  8
0
100
AcDbLine
 62
2
  6
CONTINUOUS
 10
0.0
 20
-5.1763809021
 11
100.0
 21
-5.1763809021
  0
LINE
  5
3CE
100
AcDbEntity
  8
0
100
AcDbLine
 62
2
  6
CONTINUOUS
 10
0.0
 20
-10.1763809021
 11
100.0
 21
-10.1763809021
  0
LINE
  5
3CF
100
AcDbEntity
  8
0
100
AcDbLine
 62
2
  6
CONTINUOUS
 10
0.0
 20
-15.1763809021
 11
100.0
 21
-15.1763809021
  0
LINE
  5
3D0
100
AcDbEntity
  8
0
100
AcDbLine
 62
2
  6
CONTINUOUS
 10
0.0
 20
-20.1763809021
 11
100.0
 21
-20.1763809021
  0
LINE
  5
3D1
100
AcDbEntity
  8
0
100
AcDbLine
 62
2
  6
CONTINUOUS
 10
0.0
 20
-25.1763809021
 11
100.0
 21
-25.1763809021
  0
LINE
  5
3D2
100
AcDbEntity
  8
0
100
AcDbLine
 62
2
  6
CONTINUOUS
 10
23.0
 20
0.0
 11
23.0
 21
-25.1763809021
  0
LINE
  5
3D3
100
AcDbEntity
  8
0
100
AcDbLine
 62
2
  6
CONTINUOUS
 10
42.25
 20
0.0
 11
42.25
 21
-25.1763809021
  0
LINE
  5
3D4
100
AcDbEntity
  8
0
100
AcDbLine
 62
2
  6
CONTINUOUS
 10
61.5
 20
0.0
 11
61.5
 21
-25.1763809021
  0
LINE
  5
3D5
100
AcDbEntity
  8
0
100
AcDbLine
 62
2
  6
CONTINUOUS
 10
80.75
 20
0.0
 11
80.75
 21
-25.1763809021
  0
LINE
  5
3D6
100
AcDbEntity
  8
0
100
AcDbLine
 62
2
  6
CONTINUOUS
 10
100.0
 20
0.0
 11
100.0
 21
-25.1763809021
  0
MTEXT
  5
3D7
100
AcDbEntity
  8
NOTIZ
100
AcDbMText
 62
5
  6
CONTINUOUS
  7
STANDARD
 71
1
 72
1
 10
0.875
 20
-1.338190451
 30
0.0
 11
1.0
 21
0.0
 31
0.0
 73
2
 44
0.9
  1
Größe/ \Q15.0;size
 40
2.5
 41
39.7380952381
  0
MTEXT
  5
3D8
100
AcDbEntity
  8
NOTIZ
100
AcDbMText
 62
5
  6
CONTINUOUS
  7
STANDARD
 71
2
 72
1
 10
32.625
 20
-1.25
 30
0.0
 11
1.0
 21
0.0
 31
0.0
 73
2
 44
0.9
  1
A
 40
2.5
 41
5.2380952381
  0
MTEXT
  5
3D9
100
AcDbEntity
  8
NOTIZ
100
AcDbMText
 62
5
  6
CONTINUOUS
  7
STANDARD
 71
2
 72
1
 10
51.875
 20
-1.25
 30
0.0
 11
1.0
 21
0.0
 31
0.0
 73
2
 44
0.9
  1
B
 40
2.5
 41
4.880952381
  0
MTEXT
  5
3DA
100
AcDbEntity
  8
NOTIZ
100
AcDbMText
 62
5
  6
CONTINUOUS
  7
STANDARD
 71
2
 72
1
 10
71.125
 20
-1.25
 30
0.0
 11
1.0
 21
0.0
 31
0.0
 73
2
 44
0.9
  1
C
 40
2.5
 41
5.119047619
  0
MTEXT
  5
3DB
100
AcDbEntity
  8
NOTIZ
100
AcDbMText
 62
5
  6
CONTINUOUS
  7
STANDARD
 71
2
 72
1
 10
90.375
 20
-1.25
 30
0.0
 11
1.0
 21
0.0
 31
0.0
 73
2
 44
0.9
  1
D
 40
2.5
 41
5.4761904762
  0
MTEXT
  5
3DC
100
AcDbEntity
  8
NOTIZ
100
AcDbMText
 62
5
  6
CONTINUOUS
  7
STANDARD
 71
2
 72
1
 10
11.5
 20
-6.4263809021
 30
0.0
 11
1.0
 21
0.0
 31
0.0
 73
2
 44
0.9
  1
060
 40
2.5
 41
12.7380952381
  0
MTEXT
  5
3DD
100
AcDbEntity
  8
NOTIZ
100
AcDbMText
 62
5
  6
CONTINUOUS
  7
STANDARD
 71
1
 72
1
 10
23.875
 20
-6.4263809021
 30
0.0
 11
1.0
 21
0.0
 31
0.0
 73
2
 44
0.9
  1
94mm
 40
2.5
 41
18.0952380952
  0
MTEXT
  5
3DE
100
AcDbEntity
  8
NOTIZ
100
AcDbMText
 62
5
  6
CONTINUOUS
  7
STANDARD
 71
1
 72
1
 10
43.125
 20
-6.4263809021
 30
0.0
 11
1.0
 21
0.0
 31
0.0
 73
2
 44
0.9
  1
94mm
 40
2.5
 41
18.0952380952
  0
MTEXT
  5
3DF
100
AcDbEntity
  8
NOTIZ
100
AcDbMText
 62
5
  6
CONTINUOUS
  7
STANDARD
 71
1
 72
1
 10
62.375
 20
-6.4263809021
 30
0.0
 11
1.0
 21
0.0
 31
0.0
 73
2
 44
0.9
  1
83mm
 40
2.5
 41
17.7380952381
  0
MTEXT
  5
3E0
100
AcDbEntity
  8
NOTIZ
100
AcDbMText
 62
5
  6
CONTINUOUS
  7
STANDARD
 71
1
 72
1
 10
81.625
 20
-6.4263809021
 30
0.0
 11
1.0
 21
0.0
 31
0.0
 73
2
 44
0.9
  1
83mm
 40
2.5
 41
17.7380952381
  0
MTEXT
  5
3E1
100
AcDbEntity
  8
NOTIZ
100
AcDbMText
 62
5
  6
CONTINUOUS
  7
STANDARD
 71
2
 72
1
 10
11.5
 20
-11.4263809021
 30
0.0
 11
1.0
 21
0.0
 31
0.0
 73
2
 44
0.9
  1
100
 40
2.5
 41
11.6666666667
  0
MTEXT
  5
3E2
100
AcDbEntity
  8
NOTIZ
100
AcDbMText
 62
5
  6
CONTINUOUS
  7
STANDARD
 71
1
 72
1
 10
23.875
 20
-11.4263809021
 30
0.0
 11
1.0
 21
0.0
 31
0.0
 73
2
 44
0.9
  1
120mm
 40
2.5
 41
20.9523809524
  0
MTEXT
  5
3E3
100
AcDbEntity
  8
NOTIZ
100
AcDbMText
 62
5
  6
CONTINUOUS
  7
STANDARD
 71
1
 72
1
 10
43.125
 20
-11.4263809021
 30
0.0
 11
1.0
 21
0.0
 31
0.0
 73
2
 44
0.9
  1
120mm
 40
2.5
 41
20.9523809524
  0
MTEXT
  5
3E4
100
AcDbEntity
  8
NOTIZ
100
AcDbMText
 62
5
  6
CONTINUOUS
  7
STANDARD
 71
1
 72
1
 10
62.375
 20
-11.4263809021
 30
0.0
 11
1.0
 21
0.0
 31
0.0
 73
2
 44
0.9
  1
108mm
 40
2.5
 41
20.9523809524
  0
MTEXT
  5
3E5
100
AcDbEntity
  8
NOTIZ
100
AcDbMText
 62
5
  6
CONTINUOUS
  7
STANDARD
 71
1
 72
1
 10
81.625
 20
-11.4263809021
 30
0.0
 11
1.0
 21
0.0
 31
0.0
 73
2
 44
0.9
  1
108mm
 40
2.5
 41
20.9523809524
  0
MTEXT
  5
3E6
100
AcDbEntity
  8
NOTIZ
100
AcDbMText
 62
5
  6
CONTINUOUS
  7
STANDARD
 71
2
 72
1
 10
11.5
 20
-16.4263809021
 30
0.0
 11
1.0
 21
0.0
 31
0.0
 73
2
 44
0.9
  1
250
 40
2.5
 41
12.380952381
  0
MTEXT
  5
3E7
100
AcDbEntity
  8
NOTIZ
100
AcDbMText
 62
5
  6
CONTINUOUS
  7
STANDARD
 71
1
 72
1
 10
23.875
 20
-16.4263809021
 30
0.0
 11
1.0
 21
0.0
 31
0.0
 73
2
 44
0.9
  1
217mm
 40
2.5
 41
20.9523809524
  0
MTEXT
  5
3E8
100
AcDbEntity
  8
NOTIZ
100
AcDbMText
 62
5
  6
CONTINUOUS
  7
STANDARD
 71
1
 72
1
 10
43.125
 20
-16.4263809021
 30
0.0
 11
1.0
 21
0.0
 31
0.0
 73
2
 44
0.9
  1
167mm
 40
2.5
 41
20.9523809524
  0
MTEXT
  5
3E9
100
AcDbEntity
  8
NOTIZ
100
AcDbMText
 62
5
  6
CONTINUOUS
  7
STANDARD
 71
1
 72
1
 10
62.375
 20
-16.4263809021
 30
0.0
 11
1.0
 21
0.0
 31
0.0
 73
2
 44
0.9
  1
206mm
 40
2.5
 41
22.0238095238
  0
MTEXT
  5
3EA
100
AcDbEntity
  8
NOTIZ
100
AcDbMText
 62
5
  6
CONTINUOUS
  7
STANDARD
 71
1
 72
1
 10
81.625
 20
-16.4263809021
 30
0.0
 11
1.0
 21
0.0
 31
0.0
 73
2
 44
0.9
  1
156mm
 40
2.5
 41
20.5952380952
  0
MTEXT
  5
3EB
100
AcDbEntity
  8
NOTIZ
100
AcDbMText
 62
5
  6
CONTINUOUS
  7
STANDARD
 71
2
 72
1
 10
11.5
 20
-21.4263809021
 30
0.0
 11
1.0
 21
0.0
 31
0.0
 73
2
 44
0.9
  1
350
 40
2.5
 41
12.0238095238
  0
MTEXT
  5
3EC
100
AcDbEntity
  8
NOTIZ
100
AcDbMText
 62
5
  6
CONTINUOUS
  7
STANDARD
 71
1
 72
1
 10
23.875
 20
-21.4263809021
 30
0.0
 11
1.0
 21
0.0
 31
0.0
 73
2
 44
0.9
  1
217mm
 40
2.5
 41
20.9523809524
  0
MTEXT
  5
3ED
100
AcDbEntity
  8
NOTIZ
100
AcDbMText
 62
5
  6
CONTINUOUS
  7
STANDARD
 71
1
 72
1
 10
43.125
 20
-21.4263809021
 30
0.0
 11
1.0
 21
0.0
 31
0.0
 73
2
 44
0.9
  1
217mm
 40
2.5
 41
20.9523809524
  0
MTEXT
  5
3EE
100
AcDbEntity
  8
NOTIZ
100
AcDbMText
 62
5
  6
CONTINUOUS
  7
STANDARD
 71
1
 72
1
 10
62.375
 20
-21.4263809021
 30
0.0
 11
1.0
 21
0.0
 31
0.0
 73
2
 44
0.9
  1
206mm
 40
2.5
 41
22.0238095238
  0
MTEXT
  5
3EF
100
AcDbEntity
  8
NOTIZ
100
AcDbMText
 62
5
  6
CONTINUOUS
  7
STANDARD
 71
1
 72
1
 10
81.625
 20
-21.4263809021
 30
0.0
 11
1.0
 21
0.0
 31
0.0
 73
2
 44
0.9
  1
206mm
 40
2.5
 41
22.0238095238
  0
ENDBLK
  5
3F0
100
AcDbEntity
  8
0
  6
BYBLOCK
 62
0
100
AcDbBlockEnd
  0
ENDSEC
  0
SECTION
  2
ENTITIES
  0
MTEXT
  5
3F1
100
AcDbEntity
  8
0
100
AcDbMText
 62
5
  6
CONTINUOUS
  7
TEXTSTYLE_2
 71
1
 72
1
 10
379.9971211467
 20
296.2532732219
 30
0.0
 11
1.0
 21
0.0
 31
0.0
 73
2
 44
0.9
  1
\Q0.000018724;8
 40
3.493164
 41
4.1169432857
  0
MTEXT
  5
3F2
100
AcDbEntity
  8
0
100
AcDbMText
 62
5
  6
CONTINUOUS
  7
TEXTSTYLE_3
 71
1
 72
1
 10
331.8671231467
 20
296.2532732219
 30
0.0
 11
1.0
 21
0.0
 31
0.0
 73
2
 44
0.9
  1
\Q0.000018724;7
 40
3.493164
 41
4.1169432857
  0
MTEXT
  5
3F3
100
AcDbEntity
  8
0
100
AcDbMText
 62
5
  6
CONTINUOUS
  7
TEXTSTYLE_4
 71
1
 72
1
 10
283.7371261467
 20
296.2532732219
 30
0.0
 11
1.0
 21
0.0
 31
0.0
 73
2
 44
0.9
  1
\Q0.000018724;6
 40
3.493164
 41
4.1169432857
  0
MTEXT
  5
3F4
100
AcDbEntity
  8
0
100
AcDbMText
 62
5
  6
CONTINUOUS
  7
TEXTSTYLE_3
 71
1
 72
1
 10
235.6171251467
 20
296.2532732219
 30
0.0
 11
1.0
 21
0.0
 31
0.0
 73
2
 44
0.9
  1
\Q0.000018724;5
 40
3.493164
 41
3.7426757143
  0
MTEXT
  5
3F5
100
AcDbEntity
  8
0
100
AcDbMText
 62
5
  6
CONTINUOUS
  7
TEXTSTYLE_4
 71
1
 72
1
 10
187.4871261467
 20
296.2532732219
 30
0.0
 11
1.0
 21
0.0
 31
0.0
 73
2
 44
0.9
  1
\Q0.000018724;4
 40
3.493164
 41
4.1169432857
  0
MTEXT
  5
3F6
100
AcDbEntity
  8
0
100
AcDbMText
 62
5
  6
CONTINUOUS
  7
TEXTSTYLE_3
 71
1
 72
1
 10
139.3571291467
 20
296.2532732219
 30
0.0
 11
1.0
 21
0.0
 31
0.0
 73
2
 44
0.9
  1
\Q0.000018724;3
 40
3.493164
 41
3.7426757143
  0
MTEXT
  5
3F7
100
AcDbEntity
  8
0
100
AcDbMText
 62
5
  6
CONTINUOUS
  7
TEXTSTYLE_3
 71
1
 72
1
 10
91.2271241467
 20
296.2532732219
 30
0.0
 11
1.0
 21
0.0
 31
0.0
 73
2
 44
0.9
  1
\Q0.000018724;2
 40
3.493164
 41
4.1169432857
  0
MTEXT
  5
3F8
100
AcDbEntity
  8
0
100
AcDbMText
 62
5
  6
CONTINUOUS
  7
TEXTSTYLE_3
 71
1
 72
1
 10
43.0971271467
 20
296.2532732219
 30
0.0
 11
1.0
 21
0.0
 31
0.0
 73
2
 44
0.9
  1
\Q0.000018724;1
 40
3.493164
 41
2.9941405714
  0
MTEXT
  5
3F9
100
AcDbEntity
  8
0
100
AcDbMText
 62
5
  6
CONTINUOUS
  7
TEXTSTYLE_4
 71
1
 72
1
 10
416.3853464266
 20
265.7441095567
 30
0.0
 11
1.0
 21
0.0
 31
0.0
 73
2
 44
0.9
  1
\Q0.000018724;A
 40
3.493164
 41
4.4912108571
  0
MTEXT
  5
3FA
100
AcDbEntity
  8
0
100
AcDbMText
 62
5
  6
CONTINUOUS
  7
TEXTSTYLE_4
 71
1
 72
1
 10
416.3853464266
 20
219.5741045567
 30
0.0
 11
1.0
 21
0.0
 31
0.0
 73
2
 44
0.9
  1
\Q0.000018724;B
 40
3.493164
 41
4.1169432857
  0
MTEXT
  5
3FB
100
AcDbEntity
  8
0
100
AcDbMText
 62
5
  6
CONTINUOUS
  7
TEXTSTYLE_5
 71
1
 72
1
 10
416.3853464266
 20
173.4041075567
 30
0.0
 11
1.0
 21
0.0
 31
0.0
 73
2
 44
0.9
  1
\Q0.000018724;C
 40
3.493164
 41
4.366455
  0
MTEXT
  5
3FC
100
AcDbEntity
  8
0
100
AcDbMText
 62
5
  6
CONTINUOUS
  7
TEXTSTYLE_6
 71
1
 72
1
 10
416.3853464266
 20
127.2341075567
 30
0.0
 11
1.0
 21
0.0
 31
0.0
 73
2
 44
0.9
  1
\Q0.000018724;D
 40
3.493164
 41
4.7407225714
  0
MTEXT
  5
3FD
100
AcDbEntity
  8
0
100
AcDbMText
 62
5
  6
CONTINUOUS
  7
TEXTSTYLE_3
 71
1
 72
1
 10
416.3853464266
 20
81.0641095567
 30
0.0
 11
1.0
 21
0.0
 31
0.0
 73
2
 44
0.9
  1
\Q0.000018724;E
 40
3.493164
 41
3.7426757143
  0
MTEXT
  5
3FE
100
AcDbEntity
  8
0
100
AcDbMText
 62
5
  6
CONTINUOUS
  7
TEXTSTYLE_7
 71
1
 72
1
 10
416.3853464266
 20
34.8941035567
 30
0.0
 11
1.0
 21
0.0
 31
0.0
 73
2
 44
0.9
  1
\Q0.000018724;F
 40
3.493164
 41
3.7426757143
  0
MTEXT
  5
3FF
100
AcDbEntity
  8
0
100
AcDbMText
 62
5
  6
CONTINUOUS
  7
TEXTSTYLE_3
 71
1
 72
1
 10
43.1094693683
 20
4.2630255299
 30
0.0
 11
1.0
 21
0.0
 31
0.0
 73
2
 44
0.9
  1
\Q0.000018724;1
 40
3.493164
 41
2.9941405714
  0
MTEXT
  5
400
100
AcDbEntity
  8
0
100
AcDbMText
 62
5
  6
CONTINUOUS
  7
TEXTSTYLE_3
 71
1
 72
1
 10
91.2394663683
 20
4.2630255299
 30
0.0
 11
1.0
 21
0.0
 31
0.0
 73
2
 44
0.9
  1
\Q0.000018724;2
 40
3.493164
 41
4.1169432857
  0
MTEXT
  5
401
100
AcDbEntity
  8
0
100
AcDbMText
 62
5
  6
CONTINUOUS
  7
TEXTSTYLE_3
 71
1
 72
1
 10
139.3694713683
 20
4.2630255299
 30
0.0
 11
1.0
 21
0.0
 31
0.0
 73
2
 44
0.9
  1
\Q0.000018724;3
 40
3.493164
 41
3.7426757143
  0
MTEXT
  5
402
100
AcDbEntity
  8
0
100
AcDbMText
 62
5
  6
CONTINUOUS
  7
TEXTSTYLE_4
 71
1
 72
1
 10
187.4921443922
 20
4.1562321
 30
0.0
 11
1.0
 21
0.0
 31
0.0
 73
2
 44
0.9
  1
\Q0.000018724;4
 40
3.493164
 41
4.1169432857
  0
MTEXT
  5
403
100
AcDbEntity
  8
0
100
AcDbMText
 62
5
  6
CONTINUOUS
  7
TEXTSTYLE_4
 71
1
 72
1
 10
16.3852176355
 20
265.7463639358
 30
0.0
 11
1.0
 21
0.0
 31
0.0
 73
2
 44
0.9
  1
\Q0.000018724;A
 40
3.493164
 41
4.4912108571
  0
MTEXT
  5
404
100
AcDbEntity
  8
0
100
AcDbMText
 62
5
  6
CONTINUOUS
  7
TEXTSTYLE_4
 71
1
 72
1
 10
16.3852176355
 20
219.5763589358
 30
0.0
 11
1.0
 21
0.0
 31
0.0
 73
2
 44
0.9
  1
\Q0.000018724;B
 40
3.493164
 41
4.1169432857
  0
MTEXT
  5
405
100
AcDbEntity
  8
0
100
AcDbMText
 62
5
  6
CONTINUOUS
  7
TEXTSTYLE_5
 71
1
 72
1
 10
16.3852176355
 20
173.4063619358
 30
0.0
 11
1.0
 21
0.0
 31
0.0
 73
2
 44
0.9
  1
\Q0.000018724;C
 40
3.493164
 41
4.366455
  0
MTEXT
  5
406
100
AcDbEntity
  8
0
100
AcDbMText
 62
5
  6
CONTINUOUS
  7
TEXTSTYLE_6
 71
1
 72
1
 10
16.3852176355
 20
127.2363619358
 30
0.0
 11
1.0
 21
0.0
 31
0.0
 73
2
 44
0.9
  1
\Q0.000018724;D
 40
3.493164
 41
4.7407225714
  0
MTEXT
  5
407
100
AcDbEntity
  8
0
100
AcDbMText
 62
5
  6
CONTINUOUS
  7
TEXTSTYLE_3
 71
1
 72
1
 10
16.3852176355
 20
81.0663639358
 30
0.0
 11
1.0
 21
0.0
 31
0.0
 73
2
 44
0.9
  1
\Q0.000018724;E
 40
3.493164
 41
3.7426757143
  0
MTEXT
  5
408
100
AcDbEntity
  8
0
100
AcDbMText
 62
5
  6
CONTINUOUS
  7
TEXTSTYLE_7
 71
1
 72
1
 10
16.3852176355
 20
34.8963579358
 30
0.0
 11
1.0
 21
0.0
 31
0.0
 73
2
 44
0.9
  1
\Q0.000018724;F
 40
3.493164
 41
3.7426757143
  0
MTEXT
  5
409
100
AcDbEntity
  8
0
100
AcDbMText
 62
5
  6
CONTINUOUS
  7
TEXTSTYLE_3
 71
1
 72
1
 10
235.6083580406
 20
4.1844226257
 30
0.0
 11
1.0
 21
0.0
 31
0.0
 73
2
 44
0.9
  1
\Q0.000018724;5
 40
3.493164
 41
3.7426757143
  0
DIMENSION
  5
40A
100
AcDbEntity
  8
2D-BEMASSUNG
100
AcDbDimension
 62
2
  6
CONTINUOUS
  2
*D0
 10
61.9846811933
 20
233.080697938
 11
121.6275421143
 21
233.080697938
 70
160
 71
2
 72
2
 41
0.9
 42
120.0
  1
<>A
  3
DIMSTYLE_1
100
AcDbAlignedDimension
 13
181.9846811933
 23
208.080697938
 14
61.9846811933
 24
208.080697938
 50
180.0
100
AcDbRotatedDimension
  0
DIMENSION
  5
40B
100
AcDbEntity
  8
2D-BEMASSUNG
100
AcDbDimension
 62
2
  6
CONTINUOUS
  2
*D1
 10
196.9846811933
 20
98.080697938
 11
196.9846811933
 21
157.7235522322
 70
160
 71
2
 72
2
 41
0.9
 42
120.0
  1
<>B
  3
DIMSTYLE_2
100
AcDbAlignedDimension
 13
171.9846811933
 23
218.080697938
 14
171.9846811933
 24
98.080697938
 50
270.0
100
AcDbRotatedDimension
  0
DIMENSION
  5
40C
100
AcDbEntity
  8
2D-BEMASSUNG
100
AcDbDimension
 62
2
  6
CONTINUOUS
  2
*D2
 10
191.9846811933
 20
104.080697938
 11
191.9846811933
 21
157.5747457602
 70
160
 71
2
 72
2
 41
0.9
 42
108.0
  1
<>D
  3
DIMSTYLE_3
100
AcDbAlignedDimension
 13
124.1346811933
 23
212.080697938
 14
124.1346811933
 24
104.080697938
 50
270.0
100
AcDbRotatedDimension
  0
DIMENSION
  5
40D
100
AcDbEntity
  8
2D-BEMASSUNG
100
AcDbDimension
 62
2
  6
CONTINUOUS
  2
*D3
 10
67.9846811933
 20
228.080697938
 11
121.4787322998
 21
228.080697938
 70
160
 71
2
 72
2
 41
0.9
 42
108.0
  1
<>C
  3
DIMSTYLE_2
100
AcDbAlignedDimension
 13
175.9846811933
 23
160.230697938
 14
67.9846811933
 24
160.230697938
 50
180.0
100
AcDbRotatedDimension
  0
DIMENSION
  5
40E
100
AcDbEntity
  8
2D-BEMASSUNG
100
AcDbDimension
 62
2
  6
CONTINUOUS
  2
*D4
 10
51.9846811933
 20
265.0015812372
 11
51.9846811933
 21
277.733723164
 70
160
 71
1
 72
2
 41
0.9
 42
2.5
  3
DIMSTYLE_4
100
AcDbAlignedDimension
 13
61.9846811933
 23
262.5015812372
 14
61.9846811933
 24
265.0015812372
 50
90.0
100
AcDbRotatedDimension
  0
DIMENSION
  5
40F
100
AcDbEntity
  8
2D-BEMASSUNG
100
AcDbDimension
 62
2
  6
CONTINUOUS
  2
*D5
 10
222.985885752
 20
266.4309111568
 11
222.985885752
 21
279.1630515278
 70
160
 71
1
 72
2
 41
0.9
 42
2.5
  3
DIMSTYLE_4
100
AcDbAlignedDimension
 13
232.985885752
 23
263.9309111568
 14
232.985885752
 24
266.4309111568
 50
90.0
100
AcDbRotatedDimension
  0
DIMENSION
  5
410
100
AcDbEntity
  8
2D-BEMASSUNG
100
AcDbDimension
 62
2
  6
CONTINUOUS
  2
*D6
 10
396.985885752
 20
83.580697938
 11
396.985885752
 21
157.7235491071
 70
160
 71
2
 72
2
 41
0.9
 42
149.0
  3
DIMSTYLE_5
100
AcDbAlignedDimension
 13
370.485885752
 23
232.580697938
 14
370.485885752
 24
83.580697938
 50
270.0
100
AcDbRotatedDimension
  0
DIMENSION
  5
411
100
AcDbEntity
  8
2D-BEMASSUNG
100
AcDbDimension
 62
2
  6
CONTINUOUS
  2
*D7
 10
232.985885752
 20
247.580697938
 11
307.1287426758
 21
247.580697938
 70
160
 71
2
 72
2
 41
0.9
 42
149.0
  3
DIMSTYLE_5
100
AcDbAlignedDimension
 13
381.985885752
 23
221.080697938
 14
232.985885752
 24
221.080697938
 50
180.0
100
AcDbRotatedDimension
  0
DIMENSION
  5
412
100
AcDbEntity
  8
2D-BEMASSUNG
100
AcDbDimension
 62
2
  6
CONTINUOUS
  2
*D8
 10
307.485885752
 20
242.580697938
 11
294.128737793
 21
242.580697938
 70
160
 71
2
 72
2
 41
0.9
 42
26.0
  3
DIMSTYLE_6
100
AcDbAlignedDimension
 13
281.485885752
 23
222.6895768141
 14
307.485885752
 24
235.580697938
100
AcDbRotatedDimension
  0
DIMENSION
  5
413
100
AcDbEntity
  8
2D-BEMASSUNG
100
AcDbDimension
 62
2
  6
CONTINUOUS
  2
*D9
 10
391.985885752
 20
158.080697938
 11
391.985885752
 21
170.7235635811
 70
160
 71
2
 72
2
 41
0.9
 42
26.0
  3
DIMSTYLE_6
100
AcDbAlignedDimension
 13
372.8443731227
 23
184.080697938
 14
384.985885752
 24
158.080697938
 50
270.0
100
AcDbRotatedDimension
  0
DIMENSION
  5
414
100
AcDbEntity
  8
2D-BEMASSUNG
100
AcDbDimension
 62
2
  6
CONTINUOUS
  2
*D10
 10
124.1346811933
 20
200.871980221
 11
133.6315145874
 21
200.871980221
 70
160
 71
1
 72
2
 41
0.9
 42
4.3
  3
DIMSTYLE_4
100
AcDbAlignedDimension
 13
119.8346811933
 23
210.580697938
 14
124.1346811933
 24
210.580697938
100
AcDbRotatedDimension
  0
DIMENSION
  5
415
100
AcDbEntity
  8
2D-BEMASSUNG
100
AcDbDimension
 62
2
  6
CONTINUOUS
  2
*D11
 10
110.492479112
 20
210.580697938
 11
110.492479112
 21
222.1538706143
 70
160
 71
1
 72
2
 41
0.9
 42
3.0
  3
DIMSTYLE_4
100
AcDbAlignedDimension
 13
120.7406150451
 23
213.580697938
 14
120.4391992824
 24
210.580697938
 50
270.0
100
AcDbRotatedDimension
  0
DIMENSION
  5
416
100
AcDbEntity
  8
2D-BEMASSUNG
100
AcDbDimension
 62
2
  6
CONTINUOUS
  2
*D12
 10
222.985885752
 20
158.080697938
 11
222.985885752
 21
144.7235513741
 70
160
 71
2
 72
2
 41
0.9
 42
26.0
  3
DIMSTYLE_6
100
AcDbAlignedDimension
 13
241.1010466801
 23
132.080697938
 14
245.0104002923
 24
158.080697938
 50
90.0
100
AcDbRotatedDimension
  0
DIMENSION
  5
417
100
AcDbEntity
  8
2D-BEMASSUNG
100
AcDbDimension
 62
2
  6
CONTINUOUS
  2
*D13
 10
307.485885752
 20
73.580697938
 11
320.1287475586
 21
73.580697938
 70
160
 71
2
 72
2
 41
0.9
 42
26.0
  3
DIMSTYLE_6
100
AcDbAlignedDimension
 13
333.485885752
 23
92.9250409905
 14
307.485885752
 24
100.9737101921
 50
180.0
100
AcDbRotatedDimension
  0
INSERT
  5
418
100
AcDbEntity
  8
0
100
AcDbBlockReference
 62
2
  6
CONTINUOUS
  2
ANSICHTEN_NACH_DIN_BL0
 10
408.2884522882
 20
8.9999873543
  0
INSERT
  5
419
100
AcDbEntity
  8
0
100
AcDbBlockReference
 62
5
  6
CONTINUOUS
  2
ELS-SPELSBERG-LOGO_BL1
 10
317.9843691281
 20
17.2519462583
  0
ACAD_TABLE
  5
41A
100
AcDbEntity
  8
0
 62
2
  6
CONTINUOUS
100
AcDbBlockReference
  2
*T1
 10
296.7000163542
 20
4.9999873543
 30
0.0
100
AcDbTable
342
       52A
343
227
 11
1.0
 21
0.0
 31
0.0
 90
6
 91
6
 92
15
 93
20
 94
0
 95
0
 96
0
 70
1
 41
0.0
141
4.0
141
4.0
141
4.0
141
4.0
141
4.0
141
5.0
142
5.0
142
3.0
142
1.0
142
15.0
142
13.3
142
5.0
142
11.0
142
9.0
142
9.0
142
6.0
142
9.0
142
10.0
142
9.0
142
7.0
142
6.0
171
1
172
0
173
0
174
0
175
1
176
1
 91
41
178
0
145
0.0
301
CELL_VALUE
 90
4
  1
0 
304
ACVALUE_END
170
4
140
1.0
 64
5
171
1
172
0
173
0
174
0
175
1
176
1
 91
41
178
0
145
0.0
301
CELL_VALUE
 90
4
  1
 
304
ACVALUE_END
170
4
140
3.5
 64
5
171
1
172
0
173
0
174
0
175
1
176
1
 91
41
178
0
145
0.0
301
CELL_VALUE
 90
4
  1
 
304
ACVALUE_END
170
4
140
3.5
 64
5
171
1
172
0
173
0
174
0
175
1
176
1
 91
41
178
0
145
0.0
301
CELL_VALUE
 90
4
  1
Freigabe
304
ACVALUE_END
170
4
140
1.0
 64
5
171
1
172
0
173
0
174
0
175
1
176
1
 91
57
178
0
145
0.0
  7
TEXTSTYLE_8
301
CELL_VALUE
 90
4
  1
     01.02.22 
304
ACVALUE_END
170
4
140
1.0
 64
5
171
1
172
0
173
0
174
0
175
1
176
1
 91
41
178
0
145
0.0
301
CELL_VALUE
 90
4
  1
 
304
ACVALUE_END
170
5
140
3.5
 64
5
171
1
172
0
173
0
174
0
175
7
176
2
 91
33
178
0
145
0.0
301
CELL_VALUE
 90
4
  1
M-MPL-ABOX
304
ACVALUE_END
170
4
140
3.0
171
1
172
0
173
1
174
0
175
1
176
1
 91
1
178
0
145
0.0
170
1
171
1
172
0
173
1
174
0
175
1
176
1
 91
1
178
0
145
0.0
170
1
171
1
172
0
173
1
174
0
175
1
176
1
 91
1
178
0
145
0.0
170
1
171
1
172
0
173
1
174
0
175
1
176
1
 91
1
178
0
145
0.0
170
1
171
1
172
0
173
1
174
0
175
1
176
1
 91
1
178
0
145
0.0
170
1
171
1
172
0
173
1
174
0
175
1
176
1
 91
1
178
0
145
0.0
170
4
171
1
172
0
173
0
174
0
175
2
176
2
 91
33
178
0
145
0.0
301
CELL_VALUE
 90
4
  1
 
304
ACVALUE_END
170
7
140
3.5
171
1
172
0
173
1
174
0
175
1
176
1
 91
1
178
0
145
0.0
170
7
171
1
172
0
173
0
174
0
175
1
176
1
 91
41
178
0
145
0.0
301
CELL_VALUE
 90
4
  1
  \P \P \P \P \P \P(Dateiname Modell:)
304
ACVALUE_END
170
1
140
0.9
 64
5
171
1
172
0
173
0
174
0
175
1
176
1
 91
33
178
0
145
0.0
301
CELL_VALUE
 90
4
  1
 
304
ACVALUE_END
170
1
140
3.5
171
1
172
0
173
0
174
0
175
1
176
1
 91
33
178
0
145
0.0
301
CELL_VALUE
 90
4
  1
 
304
ACVALUE_END
170
1
140
3.5
171
1
172
0
173
0
174
0
175
2
176
1
 91
33
178
0
145
0.0
301
CELL_VALUE
 90
4
  1
 \P \P  \P \P \P \P    M-MPL-ABOX
304
ACVALUE_END
170
1
140
0.9
171
1
172
0
173
1
174
0
175
1
176
1
 91
1
178
0
145
0.0
170
1
171
1
172
0
173
0
174
0
175
1
176
4
 91
41
178
0
145
0.0
301
CELL_VALUE
 90
4
  1
 
304
ACVALUE_END
170
7
140
3.5
 64
5
171
1
172
0
173
1
174
0
175
1
176
1
 91
1
178
0
145
0.0
170
1
171
1
172
0
173
1
174
0
175
1
176
1
 91
1
178
0
145
0.0
170
1
171
1
172
0
173
1
174
0
175
1
176
1
 91
1
178
0
145
0.0
170
1
171
1
172
0
173
1
174
0
175
1
176
1
 91
1
178
0
145
0.0
170
1
171
1
172
0
173
1
174
0
175
1
176
1
 91
1
178
0
145
0.0
170
1
171
1
172
0
173
1
174
0
175
1
176
1
 91
1
178
0
145
0.0
170
1
171
1
172
0
173
1
174
0
175
1
176
1
 91
1
178
0
145
0.0
170
1
171
1
172
0
173
1
174
0
175
1
176
1
 91
1
178
0
145
0.0
170
1
171
1
172
0
173
1
174
0
175
1
176
1
 91
1
178
0
145
0.0
170
1
171
1
172
0
173
0
174
0
175
1
176
1
 91
41
178
0
145
0.0
301
CELL_VALUE
 90
4
  1
  \P \P \P \P \P \P \P \P \P                                                          (Dateiname Zeichnung:)
304
ACVALUE_END
170
1
140
0.9
 64
5
171
1
172
0
173
0
174
0
175
1
176
1
 91
33
178
0
145
0.0
301
CELL_VALUE
 90
4
  1
 
304
ACVALUE_END
170
1
140
3.5
171
1
172
0
173
0
174
0
175
1
176
1
 91
33
178
0
145
0.0
301
CELL_VALUE
 90
4
  1
 
304
ACVALUE_END
170
1
140
3.5
171
1
172
0
173
0
174
0
175
1
176
1
 91
41
178
0
145
0.0
301
CELL_VALUE
 90
4
  1
 \P \P \P \P \P \P \P \P \P                                                                  M-MPL-ABOX
304
ACVALUE_END
170
1
140
0.9
 64
5
171
1
172
0
173
0
174
0
175
1
176
1
 91
33
178
0
145
0.0
301
CELL_VALUE
 90
4
  1
 
304
ACVALUE_END
170
1
140
3.5
171
1
172
0
173
1
174
0
175
1
176
1
 91
1
178
0
145
0.0
170
1
171
1
172
0
173
0
174
0
175
7
176
1
 91
33
178
0
145
0.0
301
CELL_VALUE
 90
4
  1
Montageplatten Abox
304
ACVALUE_END
170
4
140
2.5
171
1
172
0
173
1
174
0
175
1
176
1
 91
1
178
0
145
0.0
170
1
171
1
172
0
173
1
174
0
175
1
176
1
 91
1
178
0
145
0.0
170
1
171
1
172
0
173
1
174
0
175
1
176
1
 91
1
178
0
145
0.0
170
1
171
1
172
0
173
1
174
0
175
1
176
1
 91
1
178
0
145
0.0
170
1
171
1
172
0
173
1
174
0
175
1
176
1
 91
1
178
0
145
0.0
170
1
171
1
172
0
173
1
174
0
175
1
176
1
 91
1
178
0
145
0.0
170
4
171
1
172
0
173
0
174
0
175
1
176
1
 91
33
178
0
145
0.0
301
CELL_VALUE
 90
4
  1
 
304
ACVALUE_END
170
1
140
3.5
171
1
172
0
173
0
174
0
175
1
176
1
 91
41
178
0
145
0.0
301
CELL_VALUE
 90
4
  1
A3
304
ACVALUE_END
170
4
140
2.0
 64
5
171
1
172
0
173
0
174
0
175
1
176
1
 91
33
178
0
145
0.0
301
CELL_VALUE
 90
4
  1
 
304
ACVALUE_END
170
1
140
3.5
171
1
172
0
173
0
174
0
175
1
176
1
 91
33
178
0
145
0.0
301
CELL_VALUE
 90
4
  1
 
304
ACVALUE_END
170
1
140
3.5
171
1
172
0
173
0
174
0
175
1
176
1
 91
33
178
0
145
0.0
301
CELL_VALUE
 90
4
  1
 
304
ACVALUE_END
170
1
140
3.5
171
1
172
0
173
0
174
0
175
1
176
1
 91
33
178
0
145
0.0
301
CELL_VALUE
 90
4
  1
 
304
ACVALUE_END
170
1
140
3.5
171
1
172
0
173
0
174
0
175
1
176
1
 91
33
178
0
145
0.0
301
CELL_VALUE
 90
4
  1
 
304
ACVALUE_END
170
1
140
3.5
171
1
172
0
173
1
174
0
175
1
176
1
 91
1
178
0
145
0.0
170
1
171
1
172
0
173
0
174
0
175
9
176
2
 91
33
178
0
145
0.0
301
CELL_VALUE
 90
4
  1
Massblatt/ dimension sheet
304
ACVALUE_END
170
4
140
3.5
171
1
172
0
173
1
174
0
175
1
176
1
 91
1
178
0
145
0.0
170
1
171
1
172
0
173
1
174
0
175
1
176
1
 91
1
178
0
145
0.0
170
1
171
1
172
0
173
1
174
0
175
1
176
1
 91
1
178
0
145
0.0
170
1
171
1
172
0
173
1
174
0
175
1
176
1
 91
1
178
0
145
0.0
170
1
171
1
172
0
173
1
174
0
175
1
176
1
 91
1
178
0
145
0.0
170
1
171
1
172
0
173
1
174
0
175
1
176
1
 91
1
178
0
145
0.0
170
1
171
1
172
0
173
1
174
0
175
1
176
1
 91
1
178
0
145
0.0
170
1
171
1
172
0
173
1
174
0
175
1
176
1
 91
1
178
0
145
0.0
170
4
171
1
172
0
173
0
174
0
175
1
176
1
 91
41
178
0
145
0.0
301
CELL_VALUE
 90
4
  1
 
304
ACVALUE_END
170
1
140
3.5
 64
5
171
1
172
0
173
0
174
0
175
1
176
1
 91
33
178
0
145
0.0
301
CELL_VALUE
 90
4
  1
 
304
ACVALUE_END
170
1
140
3.5
171
1
172
0
173
0
174
0
175
1
176
1
 91
33
178
0
145
0.0
301
CELL_VALUE
 90
4
  1
 
304
ACVALUE_END
170
1
140
3.5
171
1
172
0
173
0
174
0
175
1
176
1
 91
33
178
0
145
0.0
301
CELL_VALUE
 90
4
  1
 
304
ACVALUE_END
170
1
140
3.5
171
1
172
0
173
0
174
0
175
1
176
1
 91
33
178
0
145
0.0
301
CELL_VALUE
 90
4
  1
 
304
ACVALUE_END
170
1
140
3.5
171
1
172
0
173
1
174
0
175
1
176
1
 91
1
178
0
145
0.0
170
1
171
1
172
0
173
1
174
0
175
1
176
1
 91
1
178
0
145
0.0
170
1
171
1
172
0
173
1
174
0
175
1
176
1
 91
1
178
0
145
0.0
170
1
171
1
172
0
173
1
174
0
175
1
176
1
 91
1
178
0
145
0.0
170
1
171
1
172
0
173
1
174
0
175
1
176
1
 91
1
178
0
145
0.0
170
1
171
1
172
0
173
1
174
0
175
1
176
1
 91
1
178
0
145
0.0
170
1
171
1
172
0
173
1
174
0
175
1
176
1
 91
1
178
0
145
0.0
170
1
171
1
172
0
173
1
174
0
175
1
176
1
 91
1
178
0
145
0.0
170
1
171
1
172
0
173
1
174
0
175
1
176
1
 91
1
178
0
145
0.0
170
1
171
1
172
0
173
1
174
0
175
1
176
1
 91
1
178
0
145
0.0
170
1
171
1
172
0
173
0
174
0
175
1
176
1
 91
41
178
0
145
0.0
301
CELL_VALUE
 90
4
  1
Schutzvermerk ISO 16016 beachten. Refer to protection notice ISO 16016. 
304
ACVALUE_END
170
4
140
1.8
 64
5
171
1
172
0
173
0
174
0
175
11
176
1
 91
33
178
0
145
0.0
301
CELL_VALUE
 90
4
  1
 
304
ACVALUE_END
170
1
140
3.5
171
1
172
0
173
1
174
0
175
1
176
1
 91
1
178
0
145
0.0
170
1
171
1
172
0
173
1
174
0
175
1
176
1
 91
1
178
0
145
0.0
170
1
171
1
172
0
173
1
174
0
175
1
176
1
 91
1
178
0
145
0.0
170
1
171
1
172
0
173
1
174
0
175
1
176
1
 91
1
178
0
145
0.0
170
1
171
1
172
0
173
1
174
0
175
1
176
1
 91
1
178
0
145
0.0
170
1
171
1
172
0
173
1
174
0
175
1
176
1
 91
1
178
0
145
0.0
170
1
171
1
172
0
173
1
174
0
175
1
176
1
 91
1
178
0
145
0.0
170
1
171
1
172
0
173
1
174
0
175
1
176
1
 91
1
178
0
145
0.0
170
1
171
1
172
0
173
1
174
0
175
1
176
1
 91
1
178
0
145
0.0
170
1
171
1
172
0
173
1
174
0
175
1
176
1
 91
1
178
0
145
0.0
170
1
171
1
172
0
173
0
174
0
175
1
176
1
 91
41
178
0
145
0.0
301
CELL_VALUE
 90
4
  1
Maßstab:
304
ACVALUE_END
170
5
140
1.8
 64
5
171
1
172
0
173
0
174
0
175
2
176
1
 91
33
178
0
145
0.0
301
CELL_VALUE
 90
4
  1
1:1 
304
ACVALUE_END
170
5
140
3.0
171
1
172
0
173
1
174
0
175
1
176
1
 91
1
178
0
145
0.0
170
5
  0
ACAD_TABLE
  5
41B
100
AcDbEntity
  8
0
 62
2
  6
CONTINUOUS
100
AcDbBlockReference
  2
*T2
 10
90.4496203214
 20
64.5597742692
 30
0.0
100
AcDbTable
342
       529
343
228
 11
1.0
 21
0.0
 31
0.0
 90
22
 91
5
 92
5
 93
0
 94
0
 95
0
 96
0
141
5.1763809021
141
5.0
141
5.0
141
5.0
141
5.0
142
23.0
142
19.25
142
19.25
142
19.25
142
19.25
171
1
172
0
173
0
174
0
175
1
176
1
 91
41
178
0
145
0.0
301
CELL_VALUE
 90
4
  1
Größe/ \Q15.0;size
304
ACVALUE_END
170
1
140
2.5
 64
5
171
1
172
0
173
0
174
0
175
1
176
1
 91
41
178
0
145
0.0
301
CELL_VALUE
 90
4
  1
A
304
ACVALUE_END
170
2
140
2.5
 64
5
171
1
172
0
173
0
174
0
175
1
176
1
 91
41
178
0
145
0.0
301
CELL_VALUE
 90
4
  1
B
304
ACVALUE_END
170
2
140
2.5
 64
5
171
1
172
0
173
0
174
0
175
1
176
1
 91
41
178
0
145
0.0
301
CELL_VALUE
 90
4
  1
C
304
ACVALUE_END
170
2
140
2.5
 64
5
171
1
172
0
173
0
174
0
175
1
176
1
 91
41
178
0
145
0.0
301
CELL_VALUE
 90
4
  1
D
304
ACVALUE_END
170
2
140
2.5
 64
5
171
1
172
0
173
0
174
0
175
1
176
1
 91
41
178
0
145
0.0
301
CELL_VALUE
 90
4
  1
060
304
ACVALUE_END
170
2
140
2.5
 64
5
171
1
172
0
173
0
174
0
175
1
176
1
 91
41
178
0
145
0.0
301
CELL_VALUE
 90
4
  1
94mm
304
ACVALUE_END
170
1
140
2.5
 64
5
171
1
172
0
173
0
174
0
175
1
176
1
 91
41
178
0
145
0.0
301
CELL_VALUE
 90
4
  1
94mm
304
ACVALUE_END
170
1
140
2.5
 64
5
171
1
172
0
173
0
174
0
175
1
176
1
 91
41
178
0
145
0.0
301
CELL_VALUE
 90
4
  1
83mm
304
ACVALUE_END
170
1
140
2.5
 64
5
171
1
172
0
173
0
174
0
175
1
176
1
 91
41
178
0
145
0.0
301
CELL_VALUE
 90
4
  1
83mm
304
ACVALUE_END
170
1
140
2.5
 64
5
171
1
172
0
173
0
174
0
175
1
176
1
 91
41
178
0
145
0.0
301
CELL_VALUE
 90
4
  1
100
304
ACVALUE_END
170
2
140
2.5
 64
5
171
1
172
0
173
0
174
0
175
1
176
1
 91
41
178
0
145
0.0
301
CELL_VALUE
 90
4
  1
120mm
304
ACVALUE_END
170
1
140
2.5
 64
5
171
1
172
0
173
0
174
0
175
1
176
1
 91
41
178
0
145
0.0
301
CELL_VALUE
 90
4
  1
120mm
304
ACVALUE_END
170
1
140
2.5
 64
5
171
1
172
0
173
0
174
0
175
1
176
1
 91
41
178
0
145
0.0
301
CELL_VALUE
 90
4
  1
108mm
304
ACVALUE_END
170
1
140
2.5
 64
5
171
1
172
0
173
0
174
0
175
1
176
1
 91
41
178
0
145
0.0
301
CELL_VALUE
 90
4
  1
108mm
304
ACVALUE_END
170
1
140
2.5
 64
5
171
1
172
0
173
0
174
0
175
1
176
1
 91
41
178
0
145
0.0
301
CELL_VALUE
 90
4
  1
250
304
ACVALUE_END
170
2
140
2.5
 64
5
171
1
172
0
173
0
174
0
175
1
176
1
 91
41
178
0
145
0.0
301
CELL_VALUE
 90
4
  1
217mm
304
ACVALUE_END
170
1
140
2.5
 64
5
171
1
172
0
173
0
174
0
175
1
176
1
 91
41
178
0
145
0.0
301
CELL_VALUE
 90
4
  1
167mm
304
ACVALUE_END
170
1
140
2.5
 64
5
171
1
172
0
173
0
174
0
175
1
176
1
 91
41
178
0
145
0.0
301
CELL_VALUE
 90
4
  1
206mm
304
ACVALUE_END
170
1
140
2.5
 64
5
171
1
172
0
173
0
174
0
175
1
176
1
 91
41
178
0
145
0.0
301
CELL_VALUE
 90
4
  1
156mm
304
ACVALUE_END
170
1
140
2.5
 64
5
171
1
172
0
173
0
174
0
175
1
176
1
 91
41
178
0
145
0.0
301
CELL_VALUE
 90
4
  1
350
304
ACVALUE_END
170
2
140
2.5
 64
5
171
1
172
0
173
0
174
0
175
1
176
1
 91
41
178
0
145
0.0
301
CELL_VALUE
 90
4
  1
217mm
304
ACVALUE_END
170
1
140
2.5
 64
5
171
1
172
0
173
0
174
0
175
1
176
1
 91
41
178
0
145
0.0
301
CELL_VALUE
 90
4
  1
217mm
304
ACVALUE_END
170
1
140
2.5
 64
5
171
1
172
0
173
0
174
0
175
1
176
1
 91
41
178
0
145
0.0
301
CELL_VALUE
 90
4
  1
206mm
304
ACVALUE_END
170
1
140
2.5
 64
5
171
1
172
0
173
0
174
0
175
1
176
1
 91
41
178
0
145
0.0
301
CELL_VALUE
 90
4
  1
206mm
304
ACVALUE_END
170
1
140
2.5
 64
5
  0
MTEXT
  5
41C
100
AcDbEntity
  8
NOTIZ
100
AcDbMText
 62
5
  6
CONTINUOUS
  7
STANDARD
 71
1
 72
1
 10
297.8077471483
 20
40.005495711
 30
0.0
 11
1.0
 21
0.0
 31
0.0
 73
2
 44
0.9
  1
Fehlende Maße können dem DXF entnommen werden\P\Q15.0;missing dimensions are provided in the DXF
 40
2.5
 41
126.4107142857
  0
TEXT
  5
41D
100
AcDbEntity
  8
NOTIZ
100
AcDbText
 62
5
  6
CONTINUOUS
 10
293.2376478527
 20
62.2337315632
  7
STANDARD
 40
2.5
  1
Größe/ size 160
 41
0.7250793651
 72
0
100
AcDbText
  0
MTEXT
  5
41E
100
AcDbEntity
  8
NOTIZ
100
AcDbMText
 62
5
  6
CONTINUOUS
  7
STANDARD
 71
3
 72
1
 10
50.6862048479
 20
12.9489087376
 30
0.0
 11
1.0
 21
0.0
 31
0.0
 73
2
 44
0.9
  1
1:2
 40
2.5
 41
6.4285714286
  0
LINE
  5
41F
100
AcDbEntity
  8
0
100
AcDbLine
 62
2
  6
CONTINUOUS
 10
0.0
 20
297.0
 11
0.0
 21
0.0
  0
LINE
  5
420
100
AcDbEntity
  8
0
100
AcDbLine
 62
7
  6
CONTINUOUS
 10
14.9998712089
 20
5.0
 11
14.9998712089
 21
292.0
  0
LINE
  5
421
100
AcDbEntity
  8
0
100
AcDbLine
 62
2
  6
CONTINUOUS
 10
19.9998712089
 20
5.0
 11
19.9998712089
 21
292.1252050745
  0
LINE
  5
422
100
AcDbEntity
  8
0
100
AcDbLine
 62
7
  6
CONTINUOUS
 10
20.0
 20
292.0
 11
20.0
 21
5.0
  0
LINE
  5
423
100
AcDbEntity
  8
0
100
AcDbLine
 62
2
  6
CONTINUOUS
 10
0.0
 20
0.0
 11
420.0
 21
0.0
  0
LINE
  5
424
100
AcDbEntity
  8
0
100
AcDbLine
 62
2
  6
CONTINUOUS
 10
68.0971271467
 20
291.9901052219
 11
68.0971271467
 21
296.9901052219
  0
LINE
  5
425
100
AcDbEntity
  8
0
100
AcDbLine
 62
2
  6
CONTINUOUS
 10
68.1094693683
 20
4.9998575299
 11
68.1094693683
 21
-0.0001424701
  0
LINE
  5
426
100
AcDbEntity
  8
0
100
AcDbLine
 62
7
  6
CONTINUOUS
 10
14.9998712089
 20
5.0
 11
415.0
 21
5.0
  0
LINE
  5
427
100
AcDbEntity
  8
0
100
AcDbLine
 62
2
  6
CONTINUOUS
 10
116.2271241467
 20
291.9901052219
 11
116.2271241467
 21
296.9901052219
  0
LINE
  5
428
100
AcDbEntity
  8
0
100
AcDbLine
 62
2
  6
CONTINUOUS
 10
116.2394663683
 20
4.9998575299
 11
116.2394663683
 21
-0.0001424701
  0
LINE
  5
429
100
AcDbEntity
  8
0
100
AcDbLine
 62
2
  6
CONTINUOUS
 10
420.0053414266
 20
56.2409435567
 11
415.0053414266
 21
56.2409435567
  0
LINE
  5
42A
100
AcDbEntity
  8
0
100
AcDbLine
 62
2
  6
CONTINUOUS
 10
20.0052126355
 20
56.2431979358
 11
15.0052126355
 21
56.2431979358
  0
LINE
  5
42B
100
AcDbEntity
  8
0
100
AcDbLine
 62
2
  6
CONTINUOUS
 10
125.0
 20
5.0
 11
125.0
 21
2.0
  0
LINE
  5
42C
100
AcDbEntity
  8
0
100
AcDbLine
 62
2
  6
CONTINUOUS
 10
125.0
 20
292.0
 11
125.0
 21
295.0
  0
LINE
  5
42D
100
AcDbEntity
  8
0
100
AcDbLine
 62
2
  6
CONTINUOUS
 10
3.5
 20
148.5
 11
0.0
 21
147.33
  0
LINE
  5
42E
100
AcDbEntity
  8
0
100
AcDbLine
 62
2
  6
CONTINUOUS
 10
0.0
 20
149.67
 11
3.5
 21
148.5
  0
LINE
  5
42F
100
AcDbEntity
  8
0
100
AcDbLine
 62
2
  6
CONTINUOUS
 10
164.3571251467
 20
291.9901052219
 11
164.3571251467
 21
296.9901052219
  0
LINE
  5
430
100
AcDbEntity
  8
0
100
AcDbLine
 62
2
  6
CONTINUOUS
 10
164.3694673683
 20
4.9998575299
 11
164.3694673683
 21
-0.0001424701
  0
LINE
  5
431
100
AcDbEntity
  8
0
100
AcDbLine
 62
2
  6
CONTINUOUS
 10
420.0053414266
 20
102.4009435567
 11
415.0053414266
 21
102.4009435567
  0
LINE
  5
432
100
AcDbEntity
  8
0
100
AcDbLine
 62
2
  6
CONTINUOUS
 10
20.0052126355
 20
102.4031979358
 11
15.0052126355
 21
102.4031979358
  0
LINE
  5
433
100
AcDbEntity
  8
0
100
AcDbLine
 62
2
  6
CONTINUOUS
 10
420.0053414266
 20
148.5609435567
 11
415.0053414266
 21
148.5609435567
  0
LINE
  5
434
100
AcDbEntity
  8
0
100
AcDbLine
 62
2
  6
CONTINUOUS
 10
20.0052126355
 20
148.5631979358
 11
15.0052126355
 21
148.5631979358
  0
LINE
  5
435
100
AcDbEntity
  8
0
100
AcDbLine
 62
2
  6
CONTINUOUS
 10
212.4871261467
 20
291.9901052219
 11
212.4871261467
 21
296.9901052219
  0
LINE
  5
436
100
AcDbEntity
  8
0
100
AcDbLine
 62
2
  6
CONTINUOUS
 10
212.4994683683
 20
4.9998575299
 11
212.4994683683
 21
-0.0001424701
  0
LINE
  5
437
100
AcDbEntity
  8
0
100
AcDbLine
 62
2
  6
CONTINUOUS
 10
230.0
 20
5.0
 11
230.0
 21
2.0
  0
LINE
  5
438
100
AcDbEntity
  8
0
100
AcDbLine
 62
2
  6
CONTINUOUS
 10
230.0
 20
292.0
 11
230.0
 21
295.0
  0
LINE
  5
439
100
AcDbEntity
  8
0
100
AcDbLine
 62
2
  6
CONTINUOUS
 10
260.6171271467
 20
291.9901052219
 11
260.6171271467
 21
296.9901052219
  0
LINE
  5
43A
100
AcDbEntity
  8
0
100
AcDbLine
 62
2
  6
CONTINUOUS
 10
260.6294683683
 20
4.9998575299
 11
260.6294683683
 21
-0.0001424701
  0
LINE
  5
43B
100
AcDbEntity
  8
0
100
AcDbLine
 62
2
  6
CONTINUOUS
 10
420.0053414266
 20
194.7209435567
 11
415.0053414266
 21
194.7209435567
  0
LINE
  5
43C
100
AcDbEntity
  8
0
100
AcDbLine
 62
2
  6
CONTINUOUS
 10
20.0052126355
 20
194.7231979358
 11
15.0052126355
 21
194.7231979358
  0
LINE
  5
43D
100
AcDbEntity
  8
0
100
AcDbLine
 62
2
  6
CONTINUOUS
 10
308.7471281467
 20
291.9901052219
 11
308.7471281467
 21
296.9901052219
  0
LINE
  5
43E
100
AcDbEntity
  8
0
100
AcDbLine
 62
2
  6
CONTINUOUS
 10
420.0053414266
 20
240.8809435567
 11
415.0053414266
 21
240.8809435567
  0
LINE
  5
43F
100
AcDbEntity
  8
0
100
AcDbLine
 62
2
  6
CONTINUOUS
 10
20.0052126355
 20
240.8831979358
 11
15.0052126355
 21
240.8831979358
  0
LINE
  5
440
100
AcDbEntity
  8
0
100
AcDbLine
 62
2
  6
CONTINUOUS
 10
356.8771251467
 20
291.9901052219
 11
356.8771251467
 21
296.9901052219
  0
LINE
  5
441
100
AcDbEntity
  8
0
100
AcDbLine
 62
7
  6
CONTINUOUS
 10
415.0
 20
292.0
 11
14.9998712089
 21
292.0
  0
LINE
  5
442
100
AcDbEntity
  8
0
100
AcDbLine
 62
2
  6
CONTINUOUS
 10
420.0
 20
297.0
 11
0.0
 21
297.0
  0
LINE
  5
443
100
AcDbEntity
  8
0
100
AcDbLine
 62
7
  6
CONTINUOUS
 10
415.0
 20
5.0
 11
415.0
 21
292.0
  0
LINE
  5
444
100
AcDbEntity
  8
0
100
AcDbLine
 62
2
  6
CONTINUOUS
 10
420.0
 20
0.0
 11
420.0
 21
297.0
  0
LINE
  5
445
100
AcDbEntity
  8
BEZUGSACHSEN
100
AcDbLine
 62
7
  6
CONTINUOUS
 10
61.9846811933
 20
208.080697938
 11
61.9846811933
 21
108.080697938
  0
LINE
  5
446
100
AcDbEntity
  8
BEZUGSACHSEN
100
AcDbLine
 62
7
  6
CONTINUOUS
 10
71.9846811933
 20
98.080697938
 11
171.9846811933
 21
98.080697938
  0
LINE
  5
447
100
AcDbEntity
  8
BEZUGSACHSEN
100
AcDbLine
 62
7
  6
CENTER
 10
66.4846811933
 20
158.080697938
 11
66.4846811933
 21
155.080597938
  0
LINE
  5
448
100
AcDbEntity
  8
BEZUGSACHSEN
100
AcDbLine
 62
7
  6
CENTER
 10
66.4846811933
 20
158.080697938
 11
66.4846811933
 21
161.080797938
  0
LINE
  5
449
100
AcDbEntity
  8
BEZUGSACHSEN
100
AcDbLine
 62
7
  6
CENTER
 10
69.4846811933
 20
158.080697938
 11
69.4846811933
 21
155.080597938
  0
LINE
  5
44A
100
AcDbEntity
  8
BEZUGSACHSEN
100
AcDbLine
 62
7
  6
CENTER
 10
69.4846811933
 20
158.080697938
 11
69.4846811933
 21
161.080797938
  0
LINE
  5
44B
100
AcDbEntity
  8
BEZUGSACHSEN
100
AcDbLine
 62
7
  6
CENTER
 10
121.9846811933
 20
102.580697938
 11
118.9845811933
 21
102.580697938
  0
LINE
  5
44C
100
AcDbEntity
  8
BEZUGSACHSEN
100
AcDbLine
 62
7
  6
CENTER
 10
121.9846811933
 20
102.580697938
 11
124.9847811933
 21
102.580697938
  0
LINE
  5
44D
100
AcDbEntity
  8
BEZUGSACHSEN
100
AcDbLine
 62
7
  6
CENTER
 10
121.9846811933
 20
105.580697938
 11
118.9845811933
 21
105.580697938
  0
LINE
  5
44E
100
AcDbEntity
  8
BEZUGSACHSEN
100
AcDbLine
 62
7
  6
CENTER
 10
121.9846811933
 20
105.580697938
 11
124.9847811933
 21
105.580697938
  0
LINE
  5
44F
100
AcDbEntity
  8
BEZUGSACHSEN
100
AcDbLine
 62
7
  6
CONTINUOUS
 10
71.9846811933
 20
218.080697938
 11
71.9846811933
 21
214.080697938
  0
LINE
  5
450
100
AcDbEntity
  8
BEZUGSACHSEN
100
AcDbLine
 62
7
  6
CONTINUOUS
 10
71.9846811933
 20
98.080697938
 11
71.9846811933
 21
102.080697938
  0
LINE
  5
451
100
AcDbEntity
  8
BEZUGSACHSEN
100
AcDbLine
 62
7
  6
CONTINUOUS
 10
181.9846811933
 20
108.080697938
 11
177.9846811933
 21
108.080697938
  0
LINE
  5
452
100
AcDbEntity
  8
BEZUGSACHSEN
100
AcDbLine
 62
7
  6
CONTINUOUS
 10
61.9846811933
 20
108.080697938
 11
65.9846811933
 21
108.080697938
  0
LINE
  5
453
100
AcDbEntity
  8
BEZUGSACHSEN
100
AcDbLine
 62
7
  6
CONTINUOUS
 10
119.8346811933
 20
213.580697938
 11
119.8346811933
 21
210.580697938
  0
LINE
  5
454
100
AcDbEntity
  8
BEZUGSACHSEN
100
AcDbLine
 62
7
  6
CONTINUOUS
 10
119.8346811933
 20
105.580697938
 11
119.8346811933
 21
102.580697938
  0
LINE
  5
455
100
AcDbEntity
  8
BEZUGSACHSEN
100
AcDbLine
 62
7
  6
CENTER
 10
121.9846811933
 20
213.580697938
 11
121.9846811933
 21
210.580597938
  0
LINE
  5
456
100
AcDbEntity
  8
BEZUGSACHSEN
100
AcDbLine
 62
7
  6
CENTER
 10
121.9846811933
 20
210.580697938
 11
121.9846811933
 21
207.580597938
  0
LINE
  5
457
100
AcDbEntity
  8
BEZUGSACHSEN
100
AcDbLine
 62
7
  6
CENTER
 10
121.9846811933
 20
105.580697938
 11
121.9846811933
 21
102.580597938
  0
LINE
  5
458
100
AcDbEntity
  8
BEZUGSACHSEN
100
AcDbLine
 62
7
  6
CENTER
 10
121.9846811933
 20
102.580697938
 11
121.9846811933
 21
99.580597938
  0
LINE
  5
459
100
AcDbEntity
  8
BEZUGSACHSEN
100
AcDbLine
 62
7
  6
CENTER
 10
121.9846811933
 20
105.580697938
 11
121.9846811933
 21
108.580797938
  0
LINE
  5
45A
100
AcDbEntity
  8
BG_STARTBEZUEGE
100
AcDbLine
 62
7
  6
CENTER
 10
121.9846811933
 20
95.0690155872
 11
121.9846811933
 21
205.3753819054
  0
LINE
  5
45B
100
AcDbEntity
  8
BEZUGSACHSEN
100
AcDbLine
 62
7
  6
CENTER
 10
121.9846811933
 20
213.580697938
 11
121.9846811933
 21
216.580797938
  0
LINE
  5
45C
100
AcDbEntity
  8
BEZUGSACHSEN
100
AcDbLine
 62
7
  6
CONTINUOUS
 10
66.4846811933
 20
155.930697938
 11
69.4846811933
 21
155.930697938
  0
LINE
  5
45D
100
AcDbEntity
  8
BEZUGSACHSEN
100
AcDbLine
 62
7
  6
CONTINUOUS
 10
174.4846811933
 20
155.930697938
 11
177.4846811933
 21
155.930697938
  0
LINE
  5
45E
100
AcDbEntity
  8
BEZUGSACHSEN
100
AcDbLine
 62
7
  6
CENTER
 10
177.4846811933
 20
158.080697938
 11
174.4845811933
 21
158.080697938
  0
LINE
  5
45F
100
AcDbEntity
  8
BEZUGSACHSEN
100
AcDbLine
 62
7
  6
CENTER
 10
174.4846811933
 20
158.080697938
 11
171.4845811933
 21
158.080697938
  0
LINE
  5
460
100
AcDbEntity
  8
BEZUGSACHSEN
100
AcDbLine
 62
7
  6
CENTER
 10
69.4846811933
 20
158.080697938
 11
66.4845811933
 21
158.080697938
  0
LINE
  5
461
100
AcDbEntity
  8
BEZUGSACHSEN
100
AcDbLine
 62
7
  6
CENTER
 10
66.4846811933
 20
158.080697938
 11
63.4845811933
 21
158.080697938
  0
LINE
  5
462
100
AcDbEntity
  8
BG_STARTBEZUEGE
100
AcDbLine
 62
7
  6
CENTER
 10
59.6931314196
 20
158.080697938
 11
169.8835448489
 21
158.080697938
  0
LINE
  5
463
100
AcDbEntity
  8
BEZUGSACHSEN
100
AcDbLine
 62
7
  6
CENTER
 10
69.4846811933
 20
158.080697938
 11
72.4847811933
 21
158.080697938
  0
LINE
  5
464
100
AcDbEntity
  8
BEZUGSACHSEN
100
AcDbLine
 62
7
  6
CENTER
 10
177.4846811933
 20
158.080697938
 11
180.4847811933
 21
158.080697938
  0
LINE
  5
465
100
AcDbEntity
  8
BEZUGSACHSEN
100
AcDbLine
 62
7
  6
CONTINUOUS
 10
124.1346811933
 20
102.580697938
 11
124.1346811933
 21
105.580697938
  0
LINE
  5
466
100
AcDbEntity
  8
BEZUGSACHSEN
100
AcDbLine
 62
7
  6
CONTINUOUS
 10
124.1346811933
 20
210.580697938
 11
124.1346811933
 21
213.580697938
  0
LINE
  5
467
100
AcDbEntity
  8
BEZUGSACHSEN
100
AcDbLine
 62
7
  6
CONTINUOUS
 10
177.4846811933
 20
160.230697938
 11
174.4846811933
 21
160.230697938
  0
LINE
  5
468
100
AcDbEntity
  8
BEZUGSACHSEN
100
AcDbLine
 62
7
  6
CONTINUOUS
 10
69.4846811933
 20
160.230697938
 11
66.4846811933
 21
160.230697938
  0
LINE
  5
469
100
AcDbEntity
  8
BEZUGSACHSEN
100
AcDbLine
 62
7
  6
CONTINUOUS
 10
171.9846811933
 20
218.080697938
 11
171.9846811933
 21
214.080697938
  0
LINE
  5
46A
100
AcDbEntity
  8
BEZUGSACHSEN
100
AcDbLine
 62
7
  6
CONTINUOUS
 10
171.9846811933
 20
98.080697938
 11
171.9846811933
 21
102.080697938
  0
LINE
  5
46B
100
AcDbEntity
  8
BEZUGSACHSEN
100
AcDbLine
 62
7
  6
CONTINUOUS
 10
181.9846811933
 20
208.080697938
 11
177.9846811933
 21
208.080697938
  0
LINE
  5
46C
100
AcDbEntity
  8
BEZUGSACHSEN
100
AcDbLine
 62
7
  6
CONTINUOUS
 10
61.9846811933
 20
208.080697938
 11
65.9846811933
 21
208.080697938
  0
LINE
  5
46D
100
AcDbEntity
  8
BEZUGSACHSEN
100
AcDbLine
 62
7
  6
CENTER
 10
174.4846811933
 20
158.080697938
 11
174.4846811933
 21
155.080597938
  0
LINE
  5
46E
100
AcDbEntity
  8
BEZUGSACHSEN
100
AcDbLine
 62
7
  6
CENTER
 10
174.4846811933
 20
158.080697938
 11
174.4846811933
 21
161.080797938
  0
LINE
  5
46F
100
AcDbEntity
  8
BEZUGSACHSEN
100
AcDbLine
 62
7
  6
CENTER
 10
177.4846811933
 20
158.080697938
 11
177.4846811933
 21
155.080597938
  0
LINE
  5
470
100
AcDbEntity
  8
BEZUGSACHSEN
100
AcDbLine
 62
7
  6
CENTER
 10
177.4846811933
 20
158.080697938
 11
177.4846811933
 21
161.080797938
  0
LINE
  5
471
100
AcDbEntity
  8
BEZUGSACHSEN
100
AcDbLine
 62
7
  6
CENTER
 10
121.9846811933
 20
210.580697938
 11
118.9845811933
 21
210.580697938
  0
LINE
  5
472
100
AcDbEntity
  8
BEZUGSACHSEN
100
AcDbLine
 62
7
  6
CENTER
 10
121.9846811933
 20
210.580697938
 11
124.9847811933
 21
210.580697938
  0
LINE
  5
473
100
AcDbEntity
  8
BEZUGSACHSEN
100
AcDbLine
 62
7
  6
CENTER
 10
121.9846811933
 20
213.580697938
 11
118.9845811933
 21
213.580697938
  0
LINE
  5
474
100
AcDbEntity
  8
BEZUGSACHSEN
100
AcDbLine
 62
7
  6
CENTER
 10
121.9846811933
 20
213.580697938
 11
124.9847811933
 21
213.580697938
  0
LINE
  5
475
100
AcDbEntity
  8
BEZUGSACHSEN
100
AcDbLine
 62
7
  6
CONTINUOUS
 10
181.9846811933
 20
108.080697938
 11
181.9846811933
 21
208.080697938
  0
LINE
  5
476
100
AcDbEntity
  8
BEZUGSACHSEN
100
AcDbLine
 62
7
  6
CONTINUOUS
 10
171.9846811933
 20
218.080697938
 11
71.9846811933
 21
218.080697938
  0
LINE
  5
477
100
AcDbEntity
  8
BEZUGSACHSEN
100
AcDbLine
 62
7
  6
CONTINUOUS
 10
61.9846811933
 20
262.5015812372
 11
61.9846811933
 21
265.0015812372
  0
LINE
  5
478
100
AcDbEntity
  8
BEZUGSACHSEN
100
AcDbLine
 62
9
  6
CONTINUOUS
 10
65.9846811933
 20
265.0015812372
 11
65.9846811933
 21
262.5015812372
  0
LINE
  5
479
100
AcDbEntity
  8
BEZUGSACHSEN
100
AcDbLine
 62
7
  6
CONTINUOUS
 10
71.9846811933
 20
262.5015812372
 11
71.9846811933
 21
265.0015812372
  0
LINE
  5
47A
100
AcDbEntity
  8
BG_STARTBEZUEGE
100
AcDbLine
 62
7
  6
CENTER
 10
121.9846811933
 20
268.0015812372
 11
121.9846811933
 21
259.5015812372
  0
LINE
  5
47B
100
AcDbEntity
  8
BEZUGSACHSEN
100
AcDbLine
 62
7
  6
CONTINUOUS
 10
61.9846811933
 20
262.5015812372
 11
181.9846811933
 21
262.5015812372
  0
LINE
  5
47C
100
AcDbEntity
  8
BEZUGSACHSEN
100
AcDbLine
 62
7
  6
CONTINUOUS
 10
61.9846811933
 20
265.0015812372
 11
181.9846811933
 21
265.0015812372
  0
LINE
  5
47D
100
AcDbEntity
  8
BEZUGSACHSEN
100
AcDbLine
 62
7
  6
CONTINUOUS
 10
171.9846811933
 20
262.5015812372
 11
171.9846811933
 21
265.0015812372
  0
LINE
  5
47E
100
AcDbEntity
  8
BEZUGSACHSEN
100
AcDbLine
 62
9
  6
CONTINUOUS
 10
177.9846811933
 20
265.0015812372
 11
177.9846811933
 21
262.5015812372
  0
LINE
  5
47F
100
AcDbEntity
  8
BEZUGSACHSEN
100
AcDbLine
 62
7
  6
CONTINUOUS
 10
181.9846811933
 20
262.5015812372
 11
181.9846811933
 21
265.0015812372
  0
LWPOLYLINE
  5
480
100
AcDbEntity
  8
NOTIZ
100
AcDbPolyline
 62
2
  6
CONTINUOUS
 90
5
 70
0
 10
291.9876478527
 20
60.9837315632
 10
321.6781240432
 20
60.9837315632
 10
321.6781240432
 20
65.9837315632
 10
291.9876478527
 20
65.9837315632
 10
291.9876478527
 20
60.9837315632
  0
LINE
  5
481
100
AcDbEntity
  8
BEZUGSACHSEN
100
AcDbLine
 62
7
  6
CONTINUOUS
 10
232.985885752
 20
221.080697938
 11
232.985885752
 21
95.080697938
  0
LINE
  5
482
100
AcDbEntity
  8
BEZUGSACHSEN
100
AcDbLine
 62
7
  6
CONTINUOUS
 10
244.485885752
 20
83.580697938
 11
370.485885752
 21
83.580697938
  0
LINE
  5
483
100
AcDbEntity
  8
BEZUGSACHSEN
100
AcDbLine
 62
7
  6
CONTINUOUS
 10
244.485885752
 20
232.580697938
 11
244.485885752
 21
227.580697938
  0
LINE
  5
484
100
AcDbEntity
  8
BEZUGSACHSEN
100
AcDbLine
 62
7
  6
CONTINUOUS
 10
244.485885752
 20
83.580697938
 11
244.485885752
 21
88.580697938
  0
LINE
  5
485
100
AcDbEntity
  8
BEZUGSACHSEN
100
AcDbLine
 62
7
  6
CENTER
 10
244.985885752
 20
132.080697938
 11
244.985885752
 21
129.080597938
  0
LINE
  5
486
100
AcDbEntity
  8
BEZUGSACHSEN
100
AcDbLine
 62
7
  6
CENTER
 10
244.985885752
 20
132.080697938
 11
244.985885752
 21
135.080797938
  0
LINE
  5
487
100
AcDbEntity
  8
BEZUGSACHSEN
100
AcDbLine
 62
7
  6
CONTINUOUS
 10
381.985885752
 20
95.080697938
 11
376.985885752
 21
95.080697938
  0
LINE
  5
488
100
AcDbEntity
  8
BEZUGSACHSEN
100
AcDbLine
 62
7
  6
CONTINUOUS
 10
232.985885752
 20
95.080697938
 11
237.985885752
 21
95.080697938
  0
LINE
  5
489
100
AcDbEntity
  8
BEZUGSACHSEN
100
AcDbLine
 62
7
  6
CENTER
 10
333.485885752
 20
95.580697938
 11
330.485785752
 21
95.580697938
  0
LINE
  5
48A
100
AcDbEntity
  8
BEZUGSACHSEN
100
AcDbLine
 62
7
  6
CENTER
 10
333.485885752
 20
95.580697938
 11
336.485985752
 21
95.580697938
  0
LINE
  5
48B
100
AcDbEntity
  8
BEZUGSACHSEN
100
AcDbLine
 62
7
  6
CENTER
 10
247.985885752
 20
132.080697938
 11
247.985885752
 21
129.080597938
  0
LINE
  5
48C
100
AcDbEntity
  8
BEZUGSACHSEN
100
AcDbLine
 62
7
  6
CENTER
 10
247.985885752
 20
132.080697938
 11
247.985885752
 21
135.080797938
  0
LINE
  5
48D
100
AcDbEntity
  8
BEZUGSACHSEN
100
AcDbLine
 62
7
  6
CENTER
 10
333.485885752
 20
98.580697938
 11
330.485785752
 21
98.580697938
  0
LINE
  5
48E
100
AcDbEntity
  8
BEZUGSACHSEN
100
AcDbLine
 62
7
  6
CENTER
 10
333.485885752
 20
98.580697938
 11
336.485985752
 21
98.580697938
  0
LINE
  5
48F
100
AcDbEntity
  8
BEZUGSACHSEN
100
AcDbLine
 62
7
  6
CONTINUOUS
 10
279.335885752
 20
220.580697938
 11
279.335885752
 21
217.580697938
  0
LINE
  5
490
100
AcDbEntity
  8
BEZUGSACHSEN
100
AcDbLine
 62
7
  6
CONTINUOUS
 10
244.985885752
 20
129.930697938
 11
247.985885752
 21
129.930697938
  0
LINE
  5
491
100
AcDbEntity
  8
BEZUGSACHSEN
100
AcDbLine
 62
7
  6
CENTER
 10
281.485885752
 20
220.580697938
 11
281.485885752
 21
217.580597938
  0
LINE
  5
492
100
AcDbEntity
  8
BEZUGSACHSEN
100
AcDbLine
 62
7
  6
CENTER
 10
281.485885752
 20
217.580697938
 11
281.485885752
 21
214.580597938
  0
LINE
  5
493
100
AcDbEntity
  8
BEZUGSACHSEN
100
AcDbLine
 62
7
  6
CENTER
 10
281.485885752
 20
220.580697938
 11
281.485885752
 21
223.580797938
  0
LINE
  5
494
100
AcDbEntity
  8
BEZUGSACHSEN
100
AcDbLine
 62
7
  6
CONTINUOUS
 10
283.635885752
 20
217.580697938
 11
283.635885752
 21
220.580697938
  0
LINE
  5
495
100
AcDbEntity
  8
BEZUGSACHSEN
100
AcDbLine
 62
7
  6
CENTER
 10
247.985885752
 20
132.080697938
 11
244.985785752
 21
132.080697938
  0
LINE
  5
496
100
AcDbEntity
  8
BEZUGSACHSEN
100
AcDbLine
 62
7
  6
CENTER
 10
244.985885752
 20
132.080697938
 11
241.985785752
 21
132.080697938
  0
LINE
  5
497
100
AcDbEntity
  8
BEZUGSACHSEN
100
AcDbLine
 62
7
  6
CENTER
 10
247.985885752
 20
132.080697938
 11
250.985985752
 21
132.080697938
  0
LINE
  5
498
100
AcDbEntity
  8
BEZUGSACHSEN
100
AcDbLine
 62
7
  6
CONTINUOUS
 10
247.985885752
 20
134.230697938
 11
244.985885752
 21
134.230697938
  0
LINE
  5
499
100
AcDbEntity
  8
BG_STARTBEZUEGE
100
AcDbLine
 62
7
  6
CENTER
 10
307.485885752
 20
80.580697938
 11
307.485885752
 21
235.580697938
  0
LINE
  5
49A
100
AcDbEntity
  8
BG_STARTBEZUEGE
100
AcDbLine
 62
7
  6
CENTER
 10
229.985885752
 20
158.080697938
 11
384.985885752
 21
158.080697938
  0
LINE
  5
49B
100
AcDbEntity
  8
BEZUGSACHSEN
100
AcDbLine
 62
7
  6
CONTINUOUS
 10
331.335885752
 20
98.580697938
 11
331.335885752
 21
95.580697938
  0
LINE
  5
49C
100
AcDbEntity
  8
BEZUGSACHSEN
100
AcDbLine
 62
7
  6
CENTER
 10
333.485885752
 20
98.580697938
 11
333.485885752
 21
95.580597938
  0
LINE
  5
49D
100
AcDbEntity
  8
BEZUGSACHSEN
100
AcDbLine
 62
7
  6
CENTER
 10
333.485885752
 20
95.580697938
 11
333.485885752
 21
92.580597938
  0
LINE
  5
49E
100
AcDbEntity
  8
BEZUGSACHSEN
100
AcDbLine
 62
7
  6
CENTER
 10
333.485885752
 20
98.580697938
 11
333.485885752
 21
101.580797938
  0
LINE
  5
49F
100
AcDbEntity
  8
BEZUGSACHSEN
100
AcDbLine
 62
7
  6
CONTINUOUS
 10
335.635885752
 20
95.580697938
 11
335.635885752
 21
98.580697938
  0
LINE
  5
4A0
100
AcDbEntity
  8
BEZUGSACHSEN
100
AcDbLine
 62
7
  6
CONTINUOUS
 10
366.985885752
 20
181.930697938
 11
369.985885752
 21
181.930697938
  0
LINE
  5
4A1
100
AcDbEntity
  8
BEZUGSACHSEN
100
AcDbLine
 62
7
  6
CENTER
 10
369.985885752
 20
184.080697938
 11
366.985785752
 21
184.080697938
  0
LINE
  5
4A2
100
AcDbEntity
  8
BEZUGSACHSEN
100
AcDbLine
 62
7
  6
CENTER
 10
366.985885752
 20
184.080697938
 11
363.985785752
 21
184.080697938
  0
LINE
  5
4A3
100
AcDbEntity
  8
BEZUGSACHSEN
100
AcDbLine
 62
7
  6
CENTER
 10
369.985885752
 20
184.080697938
 11
372.985985752
 21
184.080697938
  0
LINE
  5
4A4
100
AcDbEntity
  8
BEZUGSACHSEN
100
AcDbLine
 62
7
  6
CONTINUOUS
 10
369.985885752
 20
186.230697938
 11
366.985885752
 21
186.230697938
  0
LINE
  5
4A5
100
AcDbEntity
  8
BEZUGSACHSEN
100
AcDbLine
 62
7
  6
CENTER
 10
366.985885752
 20
184.080697938
 11
366.985885752
 21
181.080597938
  0
LINE
  5
4A6
100
AcDbEntity
  8
BEZUGSACHSEN
100
AcDbLine
 62
7
  6
CENTER
 10
366.985885752
 20
184.080697938
 11
366.985885752
 21
187.080797938
  0
LINE
  5
4A7
100
AcDbEntity
  8
BEZUGSACHSEN
100
AcDbLine
 62
7
  6
CENTER
 10
369.985885752
 20
184.080697938
 11
369.985885752
 21
181.080597938
  0
LINE
  5
4A8
100
AcDbEntity
  8
BEZUGSACHSEN
100
AcDbLine
 62
7
  6
CENTER
 10
369.985885752
 20
184.080697938
 11
369.985885752
 21
187.080797938
  0
LINE
  5
4A9
100
AcDbEntity
  8
BEZUGSACHSEN
100
AcDbLine
 62
7
  6
CONTINUOUS
 10
370.485885752
 20
232.580697938
 11
370.485885752
 21
227.580697938
  0
LINE
  5
4AA
100
AcDbEntity
  8
BEZUGSACHSEN
100
AcDbLine
 62
7
  6
CONTINUOUS
 10
370.485885752
 20
83.580697938
 11
370.485885752
 21
88.580697938
  0
LINE
  5
4AB
100
AcDbEntity
  8
BEZUGSACHSEN
100
AcDbLine
 62
7
  6
CENTER
 10
281.485885752
 20
217.580697938
 11
278.485785752
 21
217.580697938
  0
LINE
  5
4AC
100
AcDbEntity
  8
BEZUGSACHSEN
100
AcDbLine
 62
7
  6
CENTER
 10
281.485885752
 20
217.580697938
 11
284.485985752
 21
217.580697938
  0
LINE
  5
4AD
100
AcDbEntity
  8
BEZUGSACHSEN
100
AcDbLine
 62
7
  6
CENTER
 10
281.485885752
 20
220.580697938
 11
278.485785752
 21
220.580697938
  0
LINE
  5
4AE
100
AcDbEntity
  8
BEZUGSACHSEN
100
AcDbLine
 62
7
  6
CENTER
 10
281.485885752
 20
220.580697938
 11
284.485985752
 21
220.580697938
  0
LINE
  5
4AF
100
AcDbEntity
  8
BEZUGSACHSEN
100
AcDbLine
 62
7
  6
CONTINUOUS
 10
381.985885752
 20
221.080697938
 11
376.985885752
 21
221.080697938
  0
LINE
  5
4B0
100
AcDbEntity
  8
BEZUGSACHSEN
100
AcDbLine
 62
7
  6
CONTINUOUS
 10
232.985885752
 20
221.080697938
 11
237.985885752
 21
221.080697938
  0
LINE
  5
4B1
100
AcDbEntity
  8
BEZUGSACHSEN
100
AcDbLine
 62
7
  6
CONTINUOUS
 10
381.985885752
 20
95.080697938
 11
381.985885752
 21
221.080697938
  0
LINE
  5
4B2
100
AcDbEntity
  8
BEZUGSACHSEN
100
AcDbLine
 62
7
  6
CONTINUOUS
 10
370.485885752
 20
232.580697938
 11
244.485885752
 21
232.580697938
  0
LINE
  5
4B3
100
AcDbEntity
  8
BEZUGSACHSEN
100
AcDbLine
 62
7
  6
CONTINUOUS
 10
232.985885752
 20
263.9309111568
 11
232.985885752
 21
266.4309111568
  0
LINE
  5
4B4
100
AcDbEntity
  8
BEZUGSACHSEN
100
AcDbLine
 62
9
  6
CONTINUOUS
 10
237.985885752
 20
266.4309111568
 11
237.985885752
 21
263.9309111568
  0
LINE
  5
4B5
100
AcDbEntity
  8
BEZUGSACHSEN
100
AcDbLine
 62
7
  6
CONTINUOUS
 10
244.485885752
 20
263.9309111568
 11
244.485885752
 21
266.4309111568
  0
LINE
  5
4B6
100
AcDbEntity
  8
BG_STARTBEZUEGE
100
AcDbLine
 62
7
  6
CENTER
 10
307.485885752
 20
269.4309111568
 11
307.485885752
 21
260.9309111568
  0
LINE
  5
4B7
100
AcDbEntity
  8
BEZUGSACHSEN
100
AcDbLine
 62
7
  6
CONTINUOUS
 10
232.985885752
 20
263.9309111568
 11
381.985885752
 21
263.9309111568
  0
LINE
  5
4B8
100
AcDbEntity
  8
BEZUGSACHSEN
100
AcDbLine
 62
7
  6
CONTINUOUS
 10
232.985885752
 20
266.4309111568
 11
381.985885752
 21
266.4309111568
  0
LINE
  5
4B9
100
AcDbEntity
  8
BEZUGSACHSEN
100
AcDbLine
 62
7
  6
CONTINUOUS
 10
370.485885752
 20
263.9309111568
 11
370.485885752
 21
266.4309111568
  0
LINE
  5
4BA
100
AcDbEntity
  8
BEZUGSACHSEN
100
AcDbLine
 62
9
  6
CONTINUOUS
 10
376.985885752
 20
266.4309111568
 11
376.985885752
 21
263.9309111568
  0
LINE
  5
4BB
100
AcDbEntity
  8
BEZUGSACHSEN
100
AcDbLine
 62
7
  6
CONTINUOUS
 10
381.985885752
 20
263.9309111568
 11
381.985885752
 21
266.4309111568
  0
LINE
  5
4BC
100
AcDbEntity
  8
BEZUGSACHSEN
100
AcDbLine
 62
7
  6
CONTINUOUS
 10
34.3522348779
 20
16.6691564035
 11
34.9772348779
 21
16.2989087376
  0
LINE
  5
4BD
100
AcDbEntity
  8
BEZUGSACHSEN
100
AcDbLine
 62
7
  6
CONTINUOUS
 10
30.022107859
 20
20.5125691491
 11
30.647107859
 21
20.1423214832
  0
LINE
  5
4BE
100
AcDbEntity
  8
BEZUGSACHSEN
100
AcDbLine
 62
9
  6
CONTINUOUS
 10
34.9772348779
 20
18.1782939792
 11
34.3522348779
 21
18.5485416451
  0
LINE
  5
4BF
100
AcDbEntity
  8
BEZUGSACHSEN
100
AcDbLine
 62
7
  6
CONTINUOUS
 10
34.9772348779
 20
16.2989087376
 11
67.0201748179
 21
22.6262813891
  0
LINE
  5
4C0
100
AcDbEntity
  8
BEZUGSACHSEN
100
AcDbLine
 62
7
  6
CONTINUOUS
 10
30.022107859
 20
55.2811961182
 11
30.022107859
 21
20.5125691491
  0
LINE
  5
4C1
100
AcDbEntity
  8
BEZUGSACHSEN
100
AcDbLine
 62
7
  6
CONTINUOUS
 10
30.647107859
 20
54.9109484523
 11
30.647107859
 21
20.1423214832
  0
LINE
  5
4C2
100
AcDbEntity
  8
BEZUGSACHSEN
100
AcDbLine
 62
7
  6
CONTINUOUS
 10
71.3503018368
 20
28.1797948514
 11
69.6182510293
 21
27.837774708
  0
LINE
  5
4C3
100
AcDbEntity
  8
BEZUGSACHSEN
100
AcDbLine
 62
7
  6
CONTINUOUS
 10
30.647107859
 20
20.1423214832
 11
32.3791586665
 21
20.4843416265
  0
LINE
  5
4C4
100
AcDbEntity
  8
BEZUGSACHSEN
100
AcDbLine
 62
7
  6
CONTINUOUS
 10
34.3522348779
 20
60.8347095805
 11
34.3522348779
 21
58.9553243389
  0
LINE
  5
4C5
100
AcDbEntity
  8
BEZUGSACHSEN
100
AcDbLine
 62
7
  6
CONTINUOUS
 10
34.3522348779
 20
16.6691564035
 11
34.3522348779
 21
18.5485416451
  0
LINE
  5
4C6
100
AcDbEntity
  8
BEZUGSACHSEN
100
AcDbLine
 62
7
  6
CONTINUOUS
 10
34.9772348779
 20
60.4644619145
 11
34.9772348779
 21
58.585076673
  0
LINE
  5
4C7
100
AcDbEntity
  8
BEZUGSACHSEN
100
AcDbLine
 62
7
  6
CONTINUOUS
 10
34.9772348779
 20
16.2989087376
 11
34.9772348779
 21
18.1782939792
  0
LINE
  5
4C8
100
AcDbEntity
  8
BEZUGSACHSEN
100
AcDbLine
 62
9
  6
CONTINUOUS
 10
51.304682157
 20
21.8960637979
 11
51.929682157
 21
21.525816132
  0
LINE
  5
4C9
100
AcDbEntity
  8
BEZUGSACHSEN
100
AcDbLine
 62
9
  6
CONTINUOUS
 10
51.304682157
 20
23.3056027291
 11
51.929682157
 21
22.9353550632
  0
LINE
  5
4CA
100
AcDbEntity
  8
BEZUGSACHSEN
100
AcDbLine
 62
9
  6
CONTINUOUS
 10
31.7541586665
 20
37.2287332096
 11
32.3791586665
 21
36.8584855437
  0
LINE
  5
4CB
100
AcDbEntity
  8
BEZUGSACHSEN
100
AcDbLine
 62
9
  6
CONTINUOUS
 10
33.0531967722
 20
37.4852483171
 11
33.6781967722
 21
37.1150006512
  0
LINE
  5
4CC
100
AcDbEntity
  8
BEZUGSACHSEN
100
AcDbLine
 62
7
  6
CONTINUOUS
 10
50.0677275388
 20
61.5649271717
 11
50.0677275388
 21
60.1553882405
  0
LINE
  5
4CD
100
AcDbEntity
  8
BEZUGSACHSEN
100
AcDbLine
 62
7
  6
CONTINUOUS
 10
50.0677275388
 20
22.5676834091
 11
50.0677275388
 21
21.1581444779
  0
LINE
  5
4CE
100
AcDbEntity
  8
BEZUGSACHSEN
100
AcDbLine
 62
7
  6
CONTINUOUS
 10
32.3791586665
 20
36.8584855437
 11
33.6781967722
 21
37.1150006512
  0
LINE
  5
4CF
100
AcDbEntity
  8
BEZUGSACHSEN
100
AcDbLine
 62
7
  6
CONTINUOUS
 10
68.3192129236
 20
43.9554035177
 11
69.6182510293
 21
44.2119186252
  0
LINE
  5
4D0
100
AcDbEntity
  8
BEZUGSACHSEN
100
AcDbLine
 62
7
  6
CONTINUOUS
 10
31.7541586665
 20
37.2287332096
 11
33.0531967722
 21
37.4852483171
  0
LINE
  5
4D1
100
AcDbEntity
  8
BEZUGSACHSEN
100
AcDbLine
 62
7
  6
CONTINUOUS
 10
67.6942129236
 20
44.3256511837
 11
68.9932510293
 21
44.5821662912
  0
LINE
  5
4D2
100
AcDbEntity
  8
BEZUGSACHSEN
100
AcDbLine
 62
7
  6
CONTINUOUS
 10
51.304682157
 20
21.8960637979
 11
51.304682157
 21
23.3056027291
  0
LINE
  5
4D3
100
AcDbEntity
  8
BEZUGSACHSEN
100
AcDbLine
 62
7
  6
CONTINUOUS
 10
51.304682157
 20
60.8933075605
 11
51.304682157
 21
62.3028464917
  0
LINE
  5
4D4
100
AcDbEntity
  8
BEZUGSACHSEN
100
AcDbLine
 62
7
  6
CONTINUOUS
 10
51.929682157
 20
21.525816132
 11
51.929682157
 21
22.9353550632
  0
LINE
  5
4D5
100
AcDbEntity
  8
BEZUGSACHSEN
100
AcDbLine
 62
7
  6
CONTINUOUS
 10
51.929682157
 20
60.5230598946
 11
51.929682157
 21
61.9325988258
  0
LINE
  5
4D6
100
AcDbEntity
  8
BEZUGSACHSEN
100
AcDbLine
 62
7
  6
CONTINUOUS
 10
69.6182510293
 20
46.2322577599
 11
68.3192129236
 21
45.9757426524
  0
LINE
  5
4D7
100
AcDbEntity
  8
BEZUGSACHSEN
100
AcDbLine
 62
7
  6
CONTINUOUS
 10
33.6781967722
 20
39.1353397859
 11
32.3791586665
 21
38.8788246784
  0
LINE
  5
4D8
100
AcDbEntity
  8
BEZUGSACHSEN
100
AcDbLine
 62
7
  6
CONTINUOUS
 10
30.022107859
 20
55.2811961182
 11
30.647107859
 21
54.9109484523
  0
LINE
  5
4D9
100
AcDbEntity
  8
BEZUGSACHSEN
100
AcDbLine
 62
9
  6
CONTINUOUS
 10
32.3791586665
 20
55.2529685956
 11
31.7541586665
 21
55.6232162615
  0
LINE
  5
4DA
100
AcDbEntity
  8
BEZUGSACHSEN
100
AcDbLine
 62
9
  6
CONTINUOUS
 10
34.9772348779
 20
58.585076673
 11
34.3522348779
 21
58.9553243389
  0
LINE
  5
4DB
100
AcDbEntity
  8
BEZUGSACHSEN
100
AcDbLine
 62
7
  6
CONTINUOUS
 10
34.3522348779
 20
60.8347095805
 11
34.9772348779
 21
60.4644619145
  0
LINE
  5
4DC
100
AcDbEntity
  8
BEZUGSACHSEN
100
AcDbLine
 62
9
  6
CONTINUOUS
 10
67.6942129236
 20
44.3256511837
 11
68.3192129236
 21
43.9554035177
  0
LINE
  5
4DD
100
AcDbEntity
  8
BEZUGSACHSEN
100
AcDbLine
 62
9
  6
CONTINUOUS
 10
68.9932510293
 20
44.5821662912
 11
69.6182510293
 21
44.2119186252
  0
LINE
  5
4DE
100
AcDbEntity
  8
BEZUGSACHSEN
100
AcDbLine
 62
7
  6
CONTINUOUS
 10
67.0201748179
 20
66.7918345661
 11
67.0201748179
 21
64.9124493245
  0
LINE
  5
4DF
100
AcDbEntity
  8
BEZUGSACHSEN
100
AcDbLine
 62
7
  6
CONTINUOUS
 10
67.0201748179
 20
22.6262813891
 11
67.0201748179
 21
24.5056666307
  0
LINE
  5
4E0
100
AcDbEntity
  8
BEZUGSACHSEN
100
AcDbLine
 62
7
  6
CONTINUOUS
 10
71.3503018368
 20
62.9484218205
 11
69.6182510293
 21
62.6064016771
  0
LINE
  5
4E1
100
AcDbEntity
  8
BEZUGSACHSEN
100
AcDbLine
 62
7
  6
CONTINUOUS
 10
30.647107859
 20
54.9109484523
 11
32.3791586665
 21
55.2529685956
  0
LINE
  5
4E2
100
AcDbEntity
  8
BEZUGSACHSEN
100
AcDbLine
 62
7
  6
CONTINUOUS
 10
70.7253018368
 20
63.3186694864
 11
68.9932510293
 21
62.976649343
  0
LINE
  5
4E3
100
AcDbEntity
  8
BEZUGSACHSEN
100
AcDbLine
 62
7
  6
CONTINUOUS
 10
30.022107859
 20
55.2811961182
 11
31.7541586665
 21
55.6232162615
  0
LINE
  5
4E4
100
AcDbEntity
  8
BEZUGSACHSEN
100
AcDbLine
 62
9
  6
CONTINUOUS
 10
51.304682157
 20
60.8933075605
 11
51.929682157
 21
60.5230598946
  0
LINE
  5
4E5
100
AcDbEntity
  8
BEZUGSACHSEN
100
AcDbLine
 62
9
  6
CONTINUOUS
 10
51.304682157
 20
62.3028464917
 11
51.929682157
 21
61.9325988258
  0
LINE
  5
4E6
100
AcDbEntity
  8
BEZUGSACHSEN
100
AcDbLine
 62
7
  6
CONTINUOUS
 10
71.3503018368
 20
28.1797948514
 11
71.3503018368
 21
62.9484218205
  0
LINE
  5
4E7
100
AcDbEntity
  8
BEZUGSACHSEN
100
AcDbLine
 62
7
  6
CONTINUOUS
 10
67.0201748179
 20
66.7918345661
 11
34.9772348779
 21
60.4644619145
  0
LINE
  5
4E8
100
AcDbEntity
  8
BEZUGSACHSEN
100
AcDbLine
 62
7
  6
CONTINUOUS
 10
66.3951748179
 20
67.162082232
 11
34.3522348779
 21
60.8347095805
  0
LINE
  5
4E9
100
AcDbEntity
  8
BEZUGSACHSEN
100
AcDbLine
 62
9
  6
CONTINUOUS
 10
69.6182510293
 20
62.6064016771
 11
68.9932510293
 21
62.976649343
  0
LINE
  5
4EA
100
AcDbEntity
  8
BEZUGSACHSEN
100
AcDbLine
 62
7
  6
CONTINUOUS
 10
70.7253018368
 20
63.3186694864
 11
71.3503018368
 21
62.9484218205
  0
LINE
  5
4EB
100
AcDbEntity
  8
BEZUGSACHSEN
100
AcDbLine
 62
7
  6
CONTINUOUS
 10
66.3951748179
 20
67.162082232
 11
67.0201748179
 21
66.7918345661
  0
ARC
  5
4EC
100
AcDbEntity
  8
BEZUGSACHSEN
100
AcDbCircle
 62
7
  6
CONTINUOUS
 10
65.9846811933
 20
102.080697938
 40
6.0
100
AcDbArc
 50
0.0
 51
90.0
  0
ARC
  5
4ED
100
AcDbEntity
  8
BEZUGSACHSEN
100
AcDbCircle
 62
7
  6
CONTINUOUS
 10
177.9846811933
 20
102.080697938
 40
6.0
100
AcDbArc
 50
90.0
 51
180.0
  0
ARC
  5
4EE
100
AcDbEntity
  8
BEZUGSACHSEN
100
AcDbCircle
 62
7
  6
CONTINUOUS
 10
177.9846811933
 20
214.080697938
 40
6.0
100
AcDbArc
 50
180.0
 51
270.0
  0
ARC
  5
4EF
100
AcDbEntity
  8
BEZUGSACHSEN
100
AcDbCircle
 62
7
  6
CONTINUOUS
 10
65.9846811933
 20
214.080697938
 40
6.0
100
AcDbArc
 50
270.0
 51
360.0
  0
ARC
  5
4F0
100
AcDbEntity
  8
BEZUGSACHSEN
100
AcDbCircle
 62
7
  6
CONTINUOUS
 10
177.4846811933
 20
158.080697938
 40
2.15
100
AcDbArc
 50
270.0
 51
90.0
  0
ARC
  5
4F1
100
AcDbEntity
  8
BEZUGSACHSEN
100
AcDbCircle
 62
7
  6
CONTINUOUS
 10
174.4846811933
 20
158.080697938
 40
2.15
100
AcDbArc
 50
90.0
 51
270.0
  0
ARC
  5
4F2
100
AcDbEntity
  8
BEZUGSACHSEN
100
AcDbCircle
 62
7
  6
CONTINUOUS
 10
69.4846811933
 20
158.080697938
 40
2.15
100
AcDbArc
 50
270.0
 51
90.0
  0
ARC
  5
4F3
100
AcDbEntity
  8
BEZUGSACHSEN
100
AcDbCircle
 62
7
  6
CONTINUOUS
 10
66.4846811933
 20
158.080697938
 40
2.15
100
AcDbArc
 50
90.0
 51
270.0
  0
ARC
  5
4F4
100
AcDbEntity
  8
BEZUGSACHSEN
100
AcDbCircle
 62
7
  6
CONTINUOUS
 10
121.9846811933
 20
105.580697938
 40
2.15
100
AcDbArc
 50
0.0
 51
180.0
  0
ARC
  5
4F5
100
AcDbEntity
  8
BEZUGSACHSEN
100
AcDbCircle
 62
7
  6
CONTINUOUS
 10
121.9846811933
 20
102.580697938
 40
2.15
100
AcDbArc
 50
180.0
 51
360.0
  0
ARC
  5
4F6
100
AcDbEntity
  8
BEZUGSACHSEN
100
AcDbCircle
 62
7
  6
CONTINUOUS
 10
121.9846811933
 20
213.580697938
 40
2.15
100
AcDbArc
 50
0.0
 51
180.0
  0
ARC
  5
4F7
100
AcDbEntity
  8
BEZUGSACHSEN
100
AcDbCircle
 62
7
  6
CONTINUOUS
 10
121.9846811933
 20
210.580697938
 40
2.15
100
AcDbArc
 50
180.0
 51
360.0
  0
ARC
  5
4F8
100
AcDbEntity
  8
BEZUGSACHSEN
100
AcDbCircle
 62
7
  6
CONTINUOUS
 10
237.985885752
 20
88.580697938
 40
6.5
100
AcDbArc
 50
0.0
 51
90.0
  0
ARC
  5
4F9
100
AcDbEntity
  8
BEZUGSACHSEN
100
AcDbCircle
 62
7
  6
CONTINUOUS
 10
376.985885752
 20
88.580697938
 40
6.5
100
AcDbArc
 50
90.0
 51
180.0
  0
ARC
  5
4FA
100
AcDbEntity
  8
BEZUGSACHSEN
100
AcDbCircle
 62
7
  6
CONTINUOUS
 10
376.985885752
 20
227.580697938
 40
6.5
100
AcDbArc
 50
180.0
 51
270.0
  0
ARC
  5
4FB
100
AcDbEntity
  8
BEZUGSACHSEN
100
AcDbCircle
 62
7
  6
CONTINUOUS
 10
237.985885752
 20
227.580697938
 40
6.5
100
AcDbArc
 50
270.0
 51
360.0
  0
ARC
  5
4FC
100
AcDbEntity
  8
BEZUGSACHSEN
100
AcDbCircle
 62
7
  6
CONTINUOUS
 10
244.985885752
 20
132.080697938
 40
2.15
100
AcDbArc
 50
90.0
 51
270.0
  0
ARC
  5
4FD
100
AcDbEntity
  8
BEZUGSACHSEN
100
AcDbCircle
 62
7
  6
CONTINUOUS
 10
247.985885752
 20
132.080697938
 40
2.15
100
AcDbArc
 50
270.0
 51
90.0
  0
ARC
  5
4FE
100
AcDbEntity
  8
BEZUGSACHSEN
100
AcDbCircle
 62
7
  6
CONTINUOUS
 10
333.485885752
 20
95.580697938
 40
2.15
100
AcDbArc
 50
180.0
 51
360.0
  0
ARC
  5
4FF
100
AcDbEntity
  8
BEZUGSACHSEN
100
AcDbCircle
 62
7
  6
CONTINUOUS
 10
333.485885752
 20
98.580697938
 40
2.15
100
AcDbArc
 50
0.0
 51
180.0
  0
ARC
  5
500
100
AcDbEntity
  8
BEZUGSACHSEN
100
AcDbCircle
 62
7
  6
CONTINUOUS
 10
369.985885752
 20
184.080697938
 40
2.15
100
AcDbArc
 50
270.0
 51
90.0
  0
ARC
  5
501
100
AcDbEntity
  8
BEZUGSACHSEN
100
AcDbCircle
 62
7
  6
CONTINUOUS
 10
366.985885752
 20
184.080697938
 40
2.15
100
AcDbArc
 50
90.0
 51
270.0
  0
ARC
  5
502
100
AcDbEntity
  8
BEZUGSACHSEN
100
AcDbCircle
 62
7
  6
CONTINUOUS
 10
281.485885752
 20
220.580697938
 40
2.15
100
AcDbArc
 50
0.0
 51
180.0
  0
ARC
  5
503
100
AcDbEntity
  8
BEZUGSACHSEN
100
AcDbCircle
 62
7
  6
CONTINUOUS
 10
281.485885752
 20
217.580697938
 40
2.15
100
AcDbArc
 50
180.0
 51
360.0
  0
ARC
  5
504
100
AcDbEntity
  8
BEZUGSACHSEN
100
AcDbCircle
 62
7
  6
CONTINUOUS
 10
32.2178573628
 20
18.8465849479
 40
2.067246631
100
AcDbArc
 50
39.7113706523
 51
48.7817677779
  0
SPLINE
  5
505
100
AcDbEntity
  8
BEZUGSACHSEN
100
AcDbSpline
 62
7
  6
CONTINUOUS
 70
0
 71
3
 72
9
 73
5
 74
0
 42
0.0000001
 43
0.0000001
 44
0.0000000001
 40
0.0
 40
0.0
 40
0.0
 40
0.0
 40
0.4890145701
 40
1.0
 40
1.0
 40
1.0
 40
1.0
 10
33.9084441347
 20
20.246206082
 30
0.0
 10
33.6876955009
 20
20.3770418293
 30
0.0
 10
33.1787086781
 20
20.556278464
 30
0.0
 10
32.642216736
 20
20.5362864992
 30
0.0
 10
32.3791586665
 20
20.4843416265
 30
0.0
  0
SPLINE
  5
506
100
AcDbEntity
  8
BEZUGSACHSEN
100
AcDbSpline
 62
7
  6
CONTINUOUS
 70
0
 71
3
 72
9
 73
5
 74
0
 42
0.0000001
 43
0.0000001
 44
0.0000000001
 40
0.0
 40
0.0
 40
0.0
 40
0.0
 40
0.5131565088
 40
1.0
 40
1.0
 40
1.0
 40
1.0
 10
51.304682157
 20
62.3028464917
 30
0.0
 10
51.304682157
 20
62.3867838069
 30
0.0
 10
51.2858852106
 20
62.5511120401
 30
0.0
 10
51.2249691287
 20
62.7055012664
 30
0.0
 10
51.1851344675
 20
62.7744553014
 30
0.0
  0
SPLINE
  5
507
100
AcDbEntity
  8
BEZUGSACHSEN
100
AcDbSpline
 62
7
  6
CONTINUOUS
 70
0
 71
3
 72
9
 73
5
 74
0
 42
0.0000001
 43
0.0000001
 44
0.0000000001
 40
0.0
 40
0.0
 40
0.0
 40
0.0
 40
0.4900967542
 40
1.0
 40
1.0
 40
1.0
 40
1.0
 10
67.7923242017
 20
63.0587676783
 30
0.0
 10
67.9786180048
 20
62.9901807611
 30
0.0
 10
68.3814461021
 20
62.9065987552
 30
0.0
 10
68.7906225701
 20
62.9366372289
 30
0.0
 10
68.9932510293
 20
62.976649343
 30
0.0
  0
SPLINE
  5
508
100
AcDbEntity
  8
BEZUGSACHSEN
100
AcDbSpline
 62
7
  6
CONTINUOUS
 70
0
 71
3
 72
9
 73
5
 74
0
 42
0.0000001
 43
0.0000001
 44
0.0000000001
 40
0.0
 40
0.0
 40
0.0
 40
0.0
 40
0.5131565088
 40
1.0
 40
1.0
 40
1.0
 40
1.0
 10
51.304682157
 20
23.3056027291
 30
0.0
 10
51.304682157
 20
23.3895400443
 30
0.0
 10
51.2858852106
 20
23.5538682775
 30
0.0
 10
51.2249691287
 20
23.7082575038
 30
0.0
 10
51.1851344675
 20
23.7772115388
 30
0.0
  0
SPLINE
  5
509
100
AcDbEntity
  8
BEZUGSACHSEN
100
AcDbSpline
 62
7
  6
CONTINUOUS
 70
0
 71
3
 72
9
 73
5
 74
0
 42
0.0000001
 43
0.0000001
 44
0.0000000001
 40
0.0
 40
0.0
 40
0.0
 40
0.0
 40
0.4889892008
 40
1.0
 40
1.0
 40
1.0
 40
1.0
 10
70.1660598832
 20
46.1470226567
 30
0.0
 10
70.086969529
 20
46.193849084
 30
0.0
 10
69.9046593095
 20
46.258051858
 30
0.0
 10
69.7124836992
 20
46.2508654539
 30
0.0
 10
69.6182510293
 20
46.2322577599
 30
0.0
  0
SPLINE
  5
50A
100
AcDbEntity
  8
BEZUGSACHSEN
100
AcDbSpline
 62
7
  6
CONTINUOUS
 70
0
 71
3
 72
9
 73
5
 74
0
 42
0.0000001
 43
0.0000001
 44
0.0000000001
 40
0.0
 40
0.0
 40
0.0
 40
0.0
 40
0.2468132532
 40
1.0
 40
1.0
 40
1.0
 40
1.0
 10
67.5086523096
 20
44.3092881392
 30
0.0
 10
67.5239909766
 20
44.3089360919
 30
0.0
 10
67.5861696099
 20
44.3092759489
 30
0.0
 10
67.6482793808
 20
44.3165808973
 30
0.0
 10
67.6942129236
 20
44.3256511837
 30
0.0
  0
SPLINE
  5
50B
100
AcDbEntity
  8
BEZUGSACHSEN
100
AcDbSpline
 62
7
  6
CONTINUOUS
 70
0
 71
3
 72
13
 73
9
 74
0
 42
0.0000001
 43
0.0000001
 44
0.0000000001
 40
0.0
 40
0.0
 40
0.0
 40
0.0
 40
0.2440946457
 40
0.3745155234
 40
0.5067586708
 40
0.7634781733
 40
0.8848958449
 40
1.0
 40
1.0
 40
1.0
 40
1.0
 10
33.0531967722
 20
37.4852483171
 30
0.0
 10
33.2216647474
 20
37.5185149169
 30
0.0
 10
33.4681925637
 20
37.6452180149
 30
0.0
 10
33.717074586
 20
37.9026004892
 30
0.0
 10
33.9124622211
 20
38.2138260045
 30
0.0
 10
34.0045419074
 20
38.5754992379
 30
0.0
 10
33.9666901101
 20
38.9233817479
 30
0.0
 10
33.905076314
 20
39.0808103373
 30
0.0
 10
33.8645800147
 20
39.1509328203
 30
0.0
  0
SPLINE
  5
50C
100
AcDbEntity
  8
BEZUGSACHSEN
100
AcDbSpline
 62
7
  6
CONTINUOUS
 70
0
 71
3
 72
9
 73
5
 74
0
 42
0.0000001
 43
0.0000001
 44
0.0000000001
 40
0.0
 40
0.0
 40
0.0
 40
0.0
 40
0.4889892008
 40
1.0
 40
1.0
 40
1.0
 40
1.0
 10
34.2260056262
 20
39.0501046827
 30
0.0
 10
34.146915272
 20
39.09693111
 30
0.0
 10
33.9646050524
 20
39.161133884
 30
0.0
 10
33.7724294422
 20
39.1539474798
 30
0.0
 10
33.6781967722
 20
39.1353397859
 30
0.0
  0
SPLINE
  5
50D
100
AcDbEntity
  8
BEZUGSACHSEN
100
AcDbSpline
 62
7
  6
CONTINUOUS
 70
0
 71
3
 72
13
 73
9
 74
0
 42
0.0000001
 43
0.0000001
 44
0.0000000001
 40
0.0
 40
0.0
 40
0.0
 40
0.0
 40
0.2440946457
 40
0.3745155234
 40
0.5067586708
 40
0.7634781733
 40
0.8848958449
 40
1.0
 40
1.0
 40
1.0
 40
1.0
 10
68.9932510293
 20
44.5821662912
 30
0.0
 10
69.1617190045
 20
44.6154328909
 30
0.0
 10
69.4082468208
 20
44.7421359889
 30
0.0
 10
69.6571288431
 20
44.9995184632
 30
0.0
 10
69.8525164781
 20
45.3107439785
 30
0.0
 10
69.9445961645
 20
45.6724172119
 30
0.0
 10
69.9067443671
 20
46.0202997219
 30
0.0
 10
69.8451305711
 20
46.1777283114
 30
0.0
 10
69.8046342717
 20
46.2478507943
 30
0.0
  0
SPLINE
  5
50E
100
AcDbEntity
  8
BEZUGSACHSEN
100
AcDbSpline
 62
7
  6
CONTINUOUS
 70
0
 71
3
 72
11
 73
7
 74
0
 42
0.0000001
 43
0.0000001
 44
0.0000000001
 40
0.0
 40
0.0
 40
0.0
 40
0.0
 40
0.2375908265
 40
0.4908457614
 40
0.7492874226
 40
1.0
 40
1.0
 40
1.0
 40
1.0
 10
31.7541586665
 20
55.6232162615
 30
0.0
 10
32.1059687212
 20
55.6926865824
 30
0.0
 10
32.8060852774
 20
55.9933574799
 30
0.0
 10
33.6445565128
 20
56.7805246202
 30
0.0
 10
34.2089339345
 20
57.8040765372
 30
0.0
 10
34.3522348779
 20
58.5769158013
 30
0.0
 10
34.3522348779
 20
58.9553243389
 30
0.0
  0
SPLINE
  5
50F
100
AcDbEntity
  8
BEZUGSACHSEN
100
AcDbSpline
 62
7
  6
CONTINUOUS
 70
0
 71
3
 72
9
 73
5
 74
0
 42
0.0000001
 43
0.0000001
 44
0.0000000001
 40
0.0
 40
0.0
 40
0.0
 40
0.0
 40
0.2468132532
 40
1.0
 40
1.0
 40
1.0
 40
1.0
 10
31.5685980526
 20
37.2123701652
 30
0.0
 10
31.5839367195
 20
37.2120181179
 30
0.0
 10
31.6461153529
 20
37.2123579749
 30
0.0
 10
31.7082251238
 20
37.2196629232
 30
0.0
 10
31.7541586665
 20
37.2287332096
 30
0.0
  0
SPLINE
  5
510
100
AcDbEntity
  8
BEZUGSACHSEN
100
AcDbSpline
 62
7
  6
CONTINUOUS
 70
0
 71
3
 72
9
 73
5
 74
0
 42
0.0000001
 43
0.0000001
 44
0.0000000001
 40
0.0
 40
0.0
 40
0.0
 40
0.0
 40
0.5165706097
 40
1.0
 40
1.0
 40
1.0
 40
1.0
 10
34.3522348779
 20
18.5485416451
 30
0.0
 10
34.3522348779
 20
18.8470829917
 30
0.0
 10
34.2676377542
 20
19.4299735099
 30
0.0
 10
33.9867071338
 20
19.9525207817
 30
0.0
 10
33.8081339112
 20
20.1673911915
 30
0.0
  0
SPLINE
  5
511
100
AcDbEntity
  8
BEZUGSACHSEN
100
AcDbSpline
 62
7
  6
CONTINUOUS
 70
0
 71
3
 72
13
 73
9
 74
0
 42
0.0000001
 43
0.0000001
 44
0.0000000001
 40
0.0
 40
0.0
 40
0.0
 40
0.0
 40
0.110352626
 40
0.2245914317
 40
0.3451696538
 40
0.4724661439
 40
0.7381216507
 40
1.0
 40
1.0
 40
1.0
 40
1.0
 10
51.5467385772
 20
23.6763336964
 30
0.0
 10
51.477639019
 20
23.7172966679
 30
0.0
 10
51.3214124173
 20
23.7767574719
 30
0.0
 10
51.0663427731
 20
23.7852715402
 30
0.0
 10
50.8083922304
 20
23.7157889137
 30
0.0
 10
50.4822022984
 20
23.5260836661
 30
0.0
 10
50.1681890926
 20
23.1454427025
 30
0.0
 10
50.0677275388
 20
22.7583120407
 30
0.0
 10
50.0677275388
 20
22.5676834091
 30
0.0
  0
SPLINE
  5
512
100
AcDbEntity
  8
BEZUGSACHSEN
100
AcDbSpline
 62
7
  6
CONTINUOUS
 70
0
 71
3
 72
11
 73
7
 74
0
 42
0.0000001
 43
0.0000001
 44
0.0000000001
 40
0.0
 40
0.0
 40
0.0
 40
0.0
 40
0.2318924635
 40
0.4839453097
 40
0.7454615723
 40
1.0
 40
1.0
 40
1.0
 40
1.0
 10
50.188057137
 20
20.6856950131
 30
0.0
 10
50.3275644972
 20
20.6824242324
 30
0.0
 10
50.6225931404
 20
20.7533303828
 30
0.0
 10
50.9872930414
 20
21.0318552383
 30
0.0
 10
51.2392254627
 20
21.4302308243
 30
0.0
 10
51.304682157
 20
21.7428904615
 30
0.0
 10
51.304682157
 20
21.8960637979
 30
0.0
  0
SPLINE
  5
513
100
AcDbEntity
  8
BEZUGSACHSEN
100
AcDbSpline
 62
7
  6
CONTINUOUS
 70
0
 71
3
 72
13
 73
9
 74
0
 42
0.0000001
 43
0.0000001
 44
0.0000000001
 40
0.0
 40
0.0
 40
0.0
 40
0.0
 40
0.110352626
 40
0.2245914317
 40
0.3451696538
 40
0.4724661439
 40
0.7381216507
 40
1.0
 40
1.0
 40
1.0
 40
1.0
 10
51.5467385772
 20
62.673577459
 30
0.0
 10
51.477639019
 20
62.7145404306
 30
0.0
 10
51.3214124173
 20
62.7740012345
 30
0.0
 10
51.0663427731
 20
62.7825153028
 30
0.0
 10
50.8083922304
 20
62.7130326763
 30
0.0
 10
50.4822022984
 20
62.5233274287
 30
0.0
 10
50.1681890926
 20
62.1426864652
 30
0.0
 10
50.0677275388
 20
61.7555558033
 30
0.0
 10
50.0677275388
 20
61.5649271717
 30
0.0
  0
SPLINE
  5
514
100
AcDbEntity
  8
BEZUGSACHSEN
100
AcDbSpline
 62
7
  6
CONTINUOUS
 70
0
 71
3
 72
11
 73
7
 74
0
 42
0.0000001
 43
0.0000001
 44
0.0000000001
 40
0.0
 40
0.0
 40
0.0
 40
0.0
 40
0.2318924635
 40
0.4839453097
 40
0.7454615723
 40
1.0
 40
1.0
 40
1.0
 40
1.0
 10
50.188057137
 20
59.6829387757
 30
0.0
 10
50.3275644972
 20
59.679667995
 30
0.0
 10
50.6225931404
 20
59.7505741454
 30
0.0
 10
50.9872930414
 20
60.0290990009
 30
0.0
 10
51.2392254627
 20
60.4274745869
 30
0.0
 10
51.304682157
 20
60.7401342241
 30
0.0
 10
51.304682157
 20
60.8933075605
 30
0.0
  0
SPLINE
  5
515
100
AcDbEntity
  8
BEZUGSACHSEN
100
AcDbSpline
 62
7
  6
CONTINUOUS
 70
0
 71
3
 72
10
 73
6
 74
0
 42
0.0000001
 43
0.0000001
 44
0.0000000001
 40
0.0
 40
0.0
 40
0.0
 40
0.0
 40
0.518416904
 40
0.7623486249
 40
1.0
 40
1.0
 40
1.0
 40
1.0
 10
50.0677275388
 20
60.1553882405
 30
0.0
 10
50.0677275388
 20
60.0054972142
 30
0.0
 10
50.1151380907
 20
59.7786338551
 30
0.0
 10
50.2816008912
 20
59.538657093
 30
0.0
 10
50.3915638523
 20
59.4494490393
 30
0.0
 10
50.4506711186
 20
59.4144096073
 30
0.0
  0
SPLINE
  5
516
100
AcDbEntity
  8
BEZUGSACHSEN
100
AcDbSpline
 62
7
  6
CONTINUOUS
 70
0
 71
3
 72
10
 73
6
 74
0
 42
0.0000001
 43
0.0000001
 44
0.0000000001
 40
0.0
 40
0.0
 40
0.0
 40
0.0
 40
0.518416904
 40
0.7623486249
 40
1.0
 40
1.0
 40
1.0
 40
1.0
 10
50.0677275388
 20
21.1581444779
 30
0.0
 10
50.0677275388
 20
21.0082534515
 30
0.0
 10
50.1151380907
 20
20.7813900925
 30
0.0
 10
50.2816008912
 20
20.5414133304
 30
0.0
 10
50.3915638523
 20
20.4522052767
 30
0.0
 10
50.4506711186
 20
20.4171658447
 30
0.0
  0
SPLINE
  5
517
100
AcDbEntity
  8
BEZUGSACHSEN
100
AcDbSpline
 62
7
  6
CONTINUOUS
 70
0
 71
3
 72
15
 73
11
 74
0
 42
0.0000001
 43
0.0000001
 44
0.0000000001
 40
0.0
 40
0.0
 40
0.0
 40
0.0
 40
0.1229199798
 40
0.2529434097
 40
0.3871869739
 40
0.521420033
 40
0.6514302634
 40
0.7743100097
 40
0.8896215862
 40
1.0
 40
1.0
 40
1.0
 40
1.0
 10
32.3791586665
 20
38.8788246784
 30
0.0
 10
32.2788932681
 20
38.8590257292
 30
0.0
 10
32.0785861848
 20
38.7829329544
 30
0.0
 10
31.819461539
 20
38.5857168388
 30
0.0
 10
31.6139266488
 20
38.3211988904
 30
0.0
 10
31.4809777314
 20
38.0138088173
 30
0.0
 10
31.4329839908
 20
37.6915278878
 30
0.0
 10
31.4759733746
 20
37.3835410704
 30
0.0
 10
31.6086091992
 20
37.1194215884
 30
0.0
 10
31.7523791855
 20
36.9904761883
 30
0.0
 10
31.8313498126
 20
36.943720647
 30
0.0
  0
SPLINE
  5
518
100
AcDbEntity
  8
BEZUGSACHSEN
100
AcDbSpline
 62
7
  6
CONTINUOUS
 70
0
 71
3
 72
15
 73
11
 74
0
 42
0.0000001
 43
0.0000001
 44
0.0000000001
 40
0.0
 40
0.0
 40
0.0
 40
0.0
 40
0.1229199798
 40
0.2529434097
 40
0.3871869739
 40
0.521420033
 40
0.6514302634
 40
0.7743100097
 40
0.8896215862
 40
1.0
 40
1.0
 40
1.0
 40
1.0
 10
68.3192129236
 20
45.9757426524
 30
0.0
 10
68.2189475251
 20
45.9559437032
 30
0.0
 10
68.0186404419
 20
45.8798509284
 30
0.0
 10
67.7595157961
 20
45.6826348128
 30
0.0
 10
67.5539809058
 20
45.4181168644
 30
0.0
 10
67.4210319884
 20
45.1107267913
 30
0.0
 10
67.3730382479
 20
44.7884458618
 30
0.0
 10
67.4160276316
 20
44.4804590444
 30
0.0
 10
67.5486634563
 20
44.2163395624
 30
0.0
 10
67.6924334425
 20
44.0873941624
 30
0.0
 10
67.7714040697
 20
44.040638621
 30
0.0
  0
SPLINE
  5
519
100
AcDbEntity
  8
BEZUGSACHSEN
100
AcDbSpline
 62
7
  6
CONTINUOUS
 70
0
 71
3
 72
11
 73
7
 74
0
 42
0.0000001
 43
0.0000001
 44
0.0000000001
 40
0.0
 40
0.0
 40
0.0
 40
0.0
 40
0.2663909821
 40
0.5201843293
 40
0.7632254395
 40
1.0
 40
1.0
 40
1.0
 40
1.0
 10
67.0201748179
 20
64.9124493245
 30
0.0
 10
67.0201748179
 20
64.6966983913
 30
0.0
 10
67.0648888783
 20
64.2735530422
 30
0.0
 10
67.2750319829
 20
63.6855292722
 30
0.0
 10
67.6170924397
 20
63.190964954
 30
0.0
 10
67.9239993153
 20
62.9423112449
 30
0.0
 10
68.0889655611
 20
62.8445372217
 30
0.0
  0
SPLINE
  5
51A
100
AcDbEntity
  8
BEZUGSACHSEN
100
AcDbSpline
 62
7
  6
CONTINUOUS
 70
0
 71
3
 72
11
 73
7
 74
0
 42
0.0000001
 43
0.0000001
 44
0.0000000001
 40
0.0
 40
0.0
 40
0.0
 40
0.0
 40
0.2375908265
 40
0.4908457614
 40
0.7492874226
 40
1.0
 40
1.0
 40
1.0
 40
1.0
 10
69.6182510293
 20
27.837774708
 30
0.0
 10
69.2664409747
 20
27.7683043872
 30
0.0
 10
68.5663244184
 20
27.4676334897
 30
0.0
 10
67.727853183
 20
26.6804663494
 30
0.0
 10
67.1634757613
 20
25.6569144324
 30
0.0
 10
67.0201748179
 20
24.8840751683
 30
0.0
 10
67.0201748179
 20
24.5056666307
 30
0.0
  0
SPLINE
  5
51B
100
AcDbEntity
  8
BEZUGSACHSEN
100
AcDbSpline
 62
7
  6
CONTINUOUS
 70
0
 71
3
 72
15
 73
11
 74
0
 42
0.0000001
 43
0.0000001
 44
0.0000000001
 40
0.0
 40
0.0
 40
0.0
 40
0.0
 40
0.1229199798
 40
0.2529434097
 40
0.3871869739
 40
0.521420033
 40
0.6514302634
 40
0.7743100097
 40
0.8896215862
 40
1.0
 40
1.0
 40
1.0
 40
1.0
 10
69.6182510293
 20
44.2119186252
 30
0.0
 10
69.7185164277
 20
44.2317175744
 30
0.0
 10
69.918823511
 20
44.3078103493
 30
0.0
 10
70.1779481568
 20
44.5050264648
 30
0.0
 10
70.3834830471
 20
44.7695444133
 30
0.0
 10
70.5164319645
 20
45.0769344864
 30
0.0
 10
70.564425705
 20
45.3992154158
 30
0.0
 10
70.5214363213
 20
45.7072022333
 30
0.0
 10
70.3888004966
 20
45.9713217153
 30
0.0
 10
70.2450305103
 20
46.1002671153
 30
0.0
 10
70.1660598832
 20
46.1470226567
 30
0.0
  0
SPLINE
  5
51C
100
AcDbEntity
  8
BEZUGSACHSEN
100
AcDbSpline
 62
7
  6
CONTINUOUS
 70
0
 71
3
 72
11
 73
7
 74
0
 42
0.0000001
 43
0.0000001
 44
0.0000000001
 40
0.0
 40
0.0
 40
0.0
 40
0.0
 40
0.2375908265
 40
0.4908457614
 40
0.7492874226
 40
1.0
 40
1.0
 40
1.0
 40
1.0
 10
32.3791586665
 20
55.2529685956
 30
0.0
 10
32.7309687212
 20
55.3224389165
 30
0.0
 10
33.4310852774
 20
55.6231098139
 30
0.0
 10
34.2695565128
 20
56.4102769542
 30
0.0
 10
34.8339339345
 20
57.4338288713
 30
0.0
 10
34.9772348779
 20
58.2066681353
 30
0.0
 10
34.9772348779
 20
58.585076673
 30
0.0
  0
SPLINE
  5
51D
100
AcDbEntity
  8
BEZUGSACHSEN
100
AcDbSpline
 62
7
  6
CONTINUOUS
 70
0
 71
3
 72
10
 73
6
 74
0
 42
0.0000001
 43
0.0000001
 44
0.0000000001
 40
0.0
 40
0.0
 40
0.0
 40
0.0
 40
0.518416904
 40
0.7623486249
 40
1.0
 40
1.0
 40
1.0
 40
1.0
 10
51.929682157
 20
61.9325988258
 30
0.0
 10
51.929682157
 20
62.0824898521
 30
0.0
 10
51.8822716052
 20
62.3093532112
 30
0.0
 10
51.7158088046
 20
62.5493299733
 30
0.0
 10
51.6058458436
 20
62.638538027
 30
0.0
 10
51.5467385772
 20
62.673577459
 30
0.0
  0
SPLINE
  5
51E
100
AcDbEntity
  8
BEZUGSACHSEN
100
AcDbSpline
 62
7
  6
CONTINUOUS
 70
0
 71
3
 72
13
 73
9
 74
0
 42
0.0000001
 43
0.0000001
 44
0.0000000001
 40
0.0
 40
0.0
 40
0.0
 40
0.0
 40
0.110352626
 40
0.2245914317
 40
0.3451696538
 40
0.4724661439
 40
0.7381216507
 40
1.0
 40
1.0
 40
1.0
 40
1.0
 10
50.4506711186
 20
20.4171658447
 30
0.0
 10
50.5197706768
 20
20.3762028731
 30
0.0
 10
50.6759972785
 20
20.3167420692
 30
0.0
 10
50.9310669227
 20
20.3082280008
 30
0.0
 10
51.1890174654
 20
20.3777106273
 30
0.0
 10
51.5152073974
 20
20.567415875
 30
0.0
 10
51.8292206033
 20
20.9480568385
 30
0.0
 10
51.929682157
 20
21.3351875003
 30
0.0
 10
51.929682157
 20
21.525816132
 30
0.0
  0
SPLINE
  5
51F
100
AcDbEntity
  8
BEZUGSACHSEN
100
AcDbSpline
 62
7
  6
CONTINUOUS
 70
0
 71
3
 72
10
 73
6
 74
0
 42
0.0000001
 43
0.0000001
 44
0.0000000001
 40
0.0
 40
0.0
 40
0.0
 40
0.0
 40
0.518416904
 40
0.7623486249
 40
1.0
 40
1.0
 40
1.0
 40
1.0
 10
51.929682157
 20
22.9353550632
 30
0.0
 10
51.929682157
 20
23.0852460895
 30
0.0
 10
51.8822716052
 20
23.3121094486
 30
0.0
 10
51.7158088046
 20
23.5520862107
 30
0.0
 10
51.6058458436
 20
23.6412942644
 30
0.0
 10
51.5467385772
 20
23.6763336964
 30
0.0
  0
SPLINE
  5
520
100
AcDbEntity
  8
BEZUGSACHSEN
100
AcDbSpline
 62
7
  6
CONTINUOUS
 70
0
 71
3
 72
9
 73
5
 74
0
 42
0.0000001
 43
0.0000001
 44
0.0000000001
 40
0.0
 40
0.0
 40
0.0
 40
0.0
 40
0.4889892008
 40
1.0
 40
1.0
 40
1.0
 40
1.0
 10
67.7714040697
 20
44.040638621
 30
0.0
 10
67.8504944238
 20
43.9938121937
 30
0.0
 10
68.0328046434
 20
43.9296094197
 30
0.0
 10
68.2249802536
 20
43.9367958238
 30
0.0
 10
68.3192129236
 20
43.9554035177
 30
0.0
  0
SPLINE
  5
521
100
AcDbEntity
  8
BEZUGSACHSEN
100
AcDbSpline
 62
7
  6
CONTINUOUS
 70
0
 71
3
 72
11
 73
7
 74
0
 42
0.0000001
 43
0.0000001
 44
0.0000000001
 40
0.0
 40
0.0
 40
0.0
 40
0.0
 40
0.2663909821
 40
0.5201843293
 40
0.7632254395
 40
1.0
 40
1.0
 40
1.0
 40
1.0
 10
34.9772348779
 20
18.1782939792
 30
0.0
 10
34.9772348779
 20
18.3940449124
 30
0.0
 10
34.9325208175
 20
18.8171902614
 30
0.0
 10
34.722377713
 20
19.4052140315
 30
0.0
 10
34.3803172561
 20
19.8997783497
 30
0.0
 10
34.0734103805
 20
20.1484320588
 30
0.0
 10
33.9084441347
 20
20.246206082
 30
0.0
  0
SPLINE
  5
522
100
AcDbEntity
  8
BEZUGSACHSEN
100
AcDbSpline
 62
7
  6
CONTINUOUS
 70
0
 71
3
 72
15
 73
11
 74
0
 42
0.0000001
 43
0.0000001
 44
0.0000000001
 40
0.0
 40
0.0
 40
0.0
 40
0.0
 40
0.1229199798
 40
0.2529434097
 40
0.3871869739
 40
0.521420033
 40
0.6514302634
 40
0.7743100097
 40
0.8896215862
 40
1.0
 40
1.0
 40
1.0
 40
1.0
 10
33.6781967722
 20
37.1150006512
 30
0.0
 10
33.7784621707
 20
37.1347996004
 30
0.0
 10
33.9787692539
 20
37.2108923753
 30
0.0
 10
34.2378938997
 20
37.4081084908
 30
0.0
 10
34.44342879
 20
37.6726264393
 30
0.0
 10
34.5763777074
 20
37.9800165124
 30
0.0
 10
34.6243714479
 20
38.3022974418
 30
0.0
 10
34.5813820642
 20
38.6102842593
 30
0.0
 10
34.4487462396
 20
38.8744037413
 30
0.0
 10
34.3049762533
 20
39.0033491413
 30
0.0
 10
34.2260056262
 20
39.0501046827
 30
0.0
  0
SPLINE
  5
523
100
AcDbEntity
  8
BEZUGSACHSEN
100
AcDbSpline
 62
7
  6
CONTINUOUS
 70
0
 71
3
 72
9
 73
5
 74
0
 42
0.0000001
 43
0.0000001
 44
0.0000000001
 40
0.0
 40
0.0
 40
0.0
 40
0.0
 40
0.4889892008
 40
1.0
 40
1.0
 40
1.0
 40
1.0
 10
31.8313498126
 20
36.943720647
 30
0.0
 10
31.9104401668
 20
36.8968942197
 30
0.0
 10
32.0927503863
 20
36.8326914457
 30
0.0
 10
32.2849259966
 20
36.8398778498
 30
0.0
 10
32.3791586665
 20
36.8584855437
 30
0.0
  0
SPLINE
  5
524
100
AcDbEntity
  8
BEZUGSACHSEN
100
AcDbSpline
 62
7
  6
CONTINUOUS
 70
0
 71
3
 72
13
 73
9
 74
0
 42
0.0000001
 43
0.0000001
 44
0.0000000001
 40
0.0
 40
0.0
 40
0.0
 40
0.0
 40
0.110352626
 40
0.2245914317
 40
0.3451696538
 40
0.4724661439
 40
0.7381216507
 40
1.0
 40
1.0
 40
1.0
 40
1.0
 10
50.4506711186
 20
59.4144096073
 30
0.0
 10
50.5197706768
 20
59.3734466357
 30
0.0
 10
50.6759972785
 20
59.3139858318
 30
0.0
 10
50.9310669227
 20
59.3054717635
 30
0.0
 10
51.1890174654
 20
59.3749543899
 30
0.0
 10
51.5152073974
 20
59.5646596376
 30
0.0
 10
51.8292206033
 20
59.9453006011
 30
0.0
 10
51.929682157
 20
60.3324312629
 30
0.0
 10
51.929682157
 20
60.5230598946
 30
0.0
  0
SPLINE
  5
525
100
AcDbEntity
  8
BEZUGSACHSEN
100
AcDbSpline
 62
7
  6
CONTINUOUS
 70
0
 71
3
 72
9
 73
5
 74
0
 42
0.0000001
 43
0.0000001
 44
0.0000000001
 40
0.0
 40
0.0
 40
0.0
 40
0.0
 40
0.4890145701
 40
1.0
 40
1.0
 40
1.0
 40
1.0
 10
68.0889655611
 20
62.8445372217
 30
0.0
 10
68.3097141949
 20
62.7137014744
 30
0.0
 10
68.8187010177
 20
62.5344648396
 30
0.0
 10
69.3551929598
 20
62.5544568045
 30
0.0
 10
69.6182510293
 20
62.6064016771
 30
0.0
  0
ENDSEC
  0
SECTION
  2
OBJECTS
  0
DICTIONARY
  5
C
100
AcDbDictionary
280
0
281
1
  3
ACAD_GROUP
350
D
  3
ACAD_MLINESTYLE
350
17
  3
ACAD_LAYOUT
350
1A
  3
ACAD_PLOTSETTINGS
350
19
  3
ACAD_PLOTSTYLENAME
350
E
  3
ACAD_TABLESTYLE
350
       526
  0
DICTIONARY
  5
D
102
{ACAD_REACTORS
330
C
102
}
100
AcDbDictionary
280
0
281
1
  0
ACDBDICTIONARYWDFLT
  5
E
102
{ACAD_REACTORS
330
C
102
}
100
AcDbDictionary
281
1
  3
Normal
350
F
100
AcDbDictionaryWithDefault
340
F
  0
DICTIONARY
  5
17
102
{ACAD_REACTORS
330
C
102
}
100
AcDbDictionary
280
0
281
1
  3
Standard
350
18
  0
DICTIONARY
  5
526
330
C
100
AcDbDictionary
281
1
  3
Standard
350
       529
  3
Standard1
350
       52A
  0
DICTIONARY
  5
19
102
{ACAD_REACTORS
330
C
102
}
100
AcDbDictionary
281
1
  0
DICTIONARY
  5
1A
102
{ACAD_REACTORS
330
C
102
}
100
AcDbDictionary
281
1
  3
Model
350
527
  3
Layout1
350
528
  0
ACDBPLACEHOLDER
  5
F
102
{ACAD_REACTORS
330
E
102
}
  0
MLINESTYLE
  5
18
102
{ACAD_REACTORS
330
17
102
}
100
AcDbMlineStyle
  2
STANDARD
 70
0
  3

 62
256
 51
90.0
 52
90.0
 71
2
 49
0.5
 62
256
  6
BYLAYER
 49
-0.5
 62
256
  6
BYLAYER
  0
LAYOUT
  5
527
102
{ACAD_REACTORS
330
1A
102
}
100
AcDbPlotSettings
  1

  2
none_device
  4
ISO_A3_(420.00_x_297.00_MM)
  6

 40
0.0
 41
0.0
 42
0.0
 43
0.0
 44
420.0
 45
297.0
 46
0.0
 47
0.0
 48
0.0
 49
0.0
140
0.0
141
0.0
142
1.0
143
1.0
 70
1024
 72
1
 73
0
 74
0
  7

 75
0
147
1.0
148
0.0
149
0.0
100
AcDbLayout
  1
Model
 70
0
 71
0
 10
0.0
 20
0.0
 11
420.0
 21
297.0
 12
0.0
 22
0.0
 32
0.0
 14
0.0
 24
0.0
 34
0.0
 15
0.0
 25
0.0
 35
0.0
146
0.0
 13
0.0
 23
0.0
 33
0.0
 16
1.0
 26
0.0
 36
0.0
 17
0.0
 27
1.0
 37
0.0
 76
0
330
214
345
0
346
0
  0
LAYOUT
  5
528
102
{ACAD_REACTORS
330
1A
102
}
100
AcDbPlotSettings
  1

  2
none_device
  4
ISO_A3_(420.00_x_297.00_MM)
  6

 40
0.0
 41
0.0
 42
0.0
 43
0.0
 44
420.0
 45
297.0
 46
0.0
 47
0.0
 48
0.0
 49
0.0
140
0.0
141
0.0
142
1.0
143
1.0
 70
0
 72
1
 73
0
 74
0
  7

 75
0
147
1.0
148
0.0
149
0.0
100
AcDbLayout
  1
Layout1
 70
0
 71
1
 10
0.0
 20
0.0
 11
420.0
 21
297.0
 12
0.0
 22
0.0
 32
0.0
 14
0.0
 24
0.0
 34
0.0
 15
0.0
 25
0.0
 35
0.0
146
0.0
 13
0.0
 23
0.0
 33
0.0
 16
1.0
 26
0.0
 36
0.0
 17
0.0
 27
1.0
 37
0.0
 76
0
330
215
345
0
346
0
  0
TABLESTYLE
  5
529
102
{ACAD_REACTORS
330
526
330
41B
102
}
330
526
100
AcDbTableStyle
  3
Standard
 70
0
 71
0
 40
0.06
 41
0.06
280
1
281
1
  7
Standard
140
0.18
170
1
 62
0
 63
7
283
0
  7
Standard
140
0.18
170
1
 62
0
 63
7
283
0
  7
Standard
140
0.18
170
1
 62
0
 63
7
283
0
  0
TABLESTYLE
  5
52A
102
{ACAD_REACTORS
330
526
330
41A
102
}
330
526
100
AcDbTableStyle
  3
Standard1
 70
1
 71
0
 40
0.06
 41
0.06
280
1
281
1
  7
Standard
140
0.18
170
1
 62
0
 63
7
283
0
  7
Standard
140
0.18
170
1
 62
0
 63
7
283
0
  7
Standard
140
0.18
170
1
 62
0
 63
7
283
0
  0
ENDSEC
  0
EOF
