999
DXF file: m-ak3-flxx-m-733-820-01.dxf
999
Pro/ENGINEER 2014000 by Parametric Technology Corporation
  0
SECTION
  2
HEADER
  9
$ACADVER
  1
AC1021
  9
$DWGCODEPAGE
  3
ANSI_1252
  9
$EXTMAX
 10
420.0
 20
297.0
 30
0.0
  9
$EXTMIN
 10
0.0
 20
0.0
 30
0.0
  9
$LIMMIN
 10
0.0
 20
0.0
  9
$LIMMAX
 10
420.0
 20
297.0
  9
$VIEWCTR
 10
210.0
 20
148.5
  9
$VIEWSIZE
 40
297.0
  9
$CLAYER
  8
0
  9
$LTSCALE
 40
23.1
  9
$CELTYPE
  6
BYLAYER
  9
$DIMSCALE
 40
1.0
  9
$DIMASZ
 40
3.5
  9
$DIMEXO
 40
0.0
  9
$DIMDLI
 40
15.96
  9
$DIMEXE
 40
1.5
  9
$DIMCEN
 40
3.78
  9
$DIMLFAC
 40
1.0
  9
$DIMBLK
  1
_FILLED
  9
$DIMTXT
 40
2.5
  9
$DIMTOL
 70
1
  9
$DIMLIM
 70
0
  9
$DIMTFAC
 40
1.0
  9
$DIMTP
 40
0.005
  9
$DIMTM
 40
0.005
  9
$DIMGAP
 40
0.625
  9
$DIMDSEP
 70
46
  9
$PDMODE
 70
3
  9
$PDSIZE
 40
0.3125
  9
$HANDSEED
  5
764
  9
$TILEMODE
 70
1
  9
$MEASUREMENT
 70
1
  9
$INSUNITS
 70
4
  0
ENDSEC
  0
SECTION
  2
CLASSES
  0
CLASS
  1
ACDBDICTIONARYWDFLT
  2
AcDbDictionaryWithDefault
  3
AutoCAD 2000
 90
0
 91
1
280
0
281
0
  0
CLASS
  1
ACDBPLACEHOLDER
  2
AcDbPlaceHolder
  3
AutoCAD 2000
 90
0
 91
1
280
0
281
0
  0
CLASS
  1
LAYOUT
  2
AcDbLayout
  3
AutoCAD 2000
 90
0
 91
0
280
0
281
0
  0
CLASS
  1
TABLESTYLE
  2
AcDbTableStyle
  3
ObjectDBX Classes
 90
2047
 91
1
280
0
281
0
  0
CLASS
  1
ACAD_TABLE
  2
AcDbTable
  3
ObjectDBX Classes
 90
1025
 91
1
280
0
281
1
  0
ENDSEC
  0
SECTION
  2
TABLES
  0
TABLE
  2
VPORT
  5
8
100
AcDbSymbolTable
 70
2
  0
VPORT
  5
1F4
100
AcDbSymbolTableRecord
100
AcDbViewportTableRecord
  2
*ACTIVE
 70
0
 10
0.0
 20
0.0
 11
1.0
 21
1.0
 12
210.0
 22
148.5
 13
0.0
 23
0.0
 14
1.0
 24
1.0
 15
0.0
 25
0.0
 16
0.0
 26
0.0
 36
1.0
 17
0.0
 27
0.0
 37
0.0
 40
297.0
 41
1.4141414141
 42
50.0
 43
0.0
 44
0.0
 50
0.0
 51
0.0
 71
0
 72
100
 73
1
 74
1
 75
0
 76
0
 77
0
 78
0
  0
ENDTAB
  0
TABLE
  2
LTYPE
  5
5
100
AcDbSymbolTable
 70
6
  0
LTYPE
  5
14
100
AcDbSymbolTableRecord
100
AcDbLinetypeTableRecord
  2
BYBLOCK
 70
0
  3

 72
65
 73
0
 40
0.0
  0
LTYPE
  5
15
100
AcDbSymbolTableRecord
100
AcDbLinetypeTableRecord
  2
BYLAYER
 70
0
  3

 72
65
 73
0
 40
0.0
  0
LTYPE
  5
16
100
AcDbSymbolTableRecord
100
AcDbLinetypeTableRecord
  2
CONTINUOUS
 70
64
  3
Solid line
 72
65
 73
0
 40
0.0
  0
LTYPE
  5
1F5
100
AcDbSymbolTableRecord
100
AcDbLinetypeTableRecord
  2
CENTER
 70
64
  3
____ _ ____ _ ____ _ ____ _ ____ _ ____ _ ____
 72
65
 73
4
 40
0.6
 49
0.375
 74
0
 49
-0.075
 74
0
 49
0.075
 74
0
 49
-0.075
 74
0
  0
LTYPE
  5
1F6
100
AcDbSymbolTableRecord
100
AcDbLinetypeTableRecord
  2
HIDDEN
 70
64
  3
- - - - - - - - - - - - - - - - - - - -
 72
65
 73
2
 40
0.2
 49
0.1
 74
0
 49
-0.1
 74
0
  0
LTYPE
  5
1F7
100
AcDbSymbolTableRecord
100
AcDbLinetypeTableRecord
  2
PHANTOM
 70
64
  3
_____ _ _ _____ _ _ _____ _ _ _____
 72
65
 73
6
 40
0.8
 49
0.45
 74
0
 49
-0.05
 74
0
 49
0.1
 74
0
 49
-0.05
 74
0
 49
0.1
 74
0
 49
-0.05
 74
0
  0
LTYPE
  5
1F8
100
AcDbSymbolTableRecord
100
AcDbLinetypeTableRecord
  2
DOT
 70
64
  3
. . . . . . . . . . . . . . . . . . . .
 72
65
 73
2
 40
0.2
 49
0.1
 74
0
 49
-0.1
 74
0
  0
LTYPE
  5
1F9
100
AcDbSymbolTableRecord
100
AcDbLinetypeTableRecord
  2
DASHED
 70
64
  3
- - - - - - - - - - - - - - - - - - - -
 72
65
 73
2
 40
0.2
 49
0.1
 74
0
 49
-0.1
 74
0
  0
ENDTAB
  0
TABLE
  2
LAYER
  5
2
100
AcDbSymbolTable
 70
36
  0
LAYER
  5
10
100
AcDbSymbolTableRecord
100
AcDbLayerTableRecord
  2
0
 70
0
 62
7
  6
CONTINUOUS
370
-3
390
F
  0
LAYER
  5
1FA
100
AcDbSymbolTableRecord
100
AcDbLayerTableRecord
  2
DEFAULT_1
 70
0
 62
7
  6
CENTER
370
-3
390
F
  0
LAYER
  5
1FB
100
AcDbSymbolTableRecord
100
AcDbLayerTableRecord
  2
DEFAULT_2
 70
0
 62
8
  6
HIDDEN
370
-3
390
F
  0
LAYER
  5
1FC
100
AcDbSymbolTableRecord
100
AcDbLayerTableRecord
  2
DEFAULT_3
 70
0
 62
7
  6
PHANTOM
370
-3
390
F
  0
LAYER
  5
1FD
100
AcDbSymbolTableRecord
100
AcDbLayerTableRecord
  2
AUSFORMSCHRAEGEN
 70
0
 62
7
  6
CONTINUOUS
370
-3
390
F
  0
LAYER
  5
1FE
100
AcDbSymbolTableRecord
100
AcDbLayerTableRecord
  2
BESCHRIFTUNGEN
 70
0
 62
7
  6
CONTINUOUS
370
-3
390
F
  0
LAYER
  5
1FF
100
AcDbSymbolTableRecord
100
AcDbLayerTableRecord
  2
BEZUGSACHSEN
 70
0
 62
7
  6
CONTINUOUS
370
-3
390
F
  0
LAYER
  5
200
100
AcDbSymbolTableRecord
100
AcDbLayerTableRecord
  2
BEZUGSEBENEN
 70
0
 62
7
  6
CONTINUOUS
370
-3
390
F
  0
LAYER
  5
201
100
AcDbSymbolTableRecord
100
AcDbLayerTableRecord
  2
BG_STARTBEZUEGE
 70
0
 62
7
  6
CONTINUOUS
370
-3
390
F
  0
LAYER
  5
202
100
AcDbSymbolTableRecord
100
AcDbLayerTableRecord
  2
BOHRUNGEN
 70
0
 62
7
  6
CONTINUOUS
370
-3
390
F
  0
LAYER
  5
203
100
AcDbSymbolTableRecord
100
AcDbLayerTableRecord
  2
FASEN
 70
0
 62
7
  6
CONTINUOUS
370
-3
390
F
  0
LAYER
  5
204
100
AcDbSymbolTableRecord
100
AcDbLayerTableRecord
  2
FLAECHEN
 70
0
 62
7
  6
CONTINUOUS
370
-3
390
F
  0
LAYER
  5
205
100
AcDbSymbolTableRecord
100
AcDbLayerTableRecord
  2
FLANSCHVARIANTE_1
 70
0
 62
7
  6
CONTINUOUS
370
-3
390
F
  0
LAYER
  5
206
100
AcDbSymbolTableRecord
100
AcDbLayerTableRecord
  2
FLANSCHVARIANTE_2
 70
0
 62
7
  6
CONTINUOUS
370
-3
390
F
  0
LAYER
  5
207
100
AcDbSymbolTableRecord
100
AcDbLayerTableRecord
  2
FLANSCHVARIANTE_FL13
 70
0
 62
7
  6
CONTINUOUS
370
-3
390
F
  0
LAYER
  5
208
100
AcDbSymbolTableRecord
100
AcDbLayerTableRecord
  2
FLANSCH_VAR_03
 70
0
 62
7
  6
CONTINUOUS
370
-3
390
F
  0
LAYER
  5
209
100
AcDbSymbolTableRecord
100
AcDbLayerTableRecord
  2
FLANSCH_VAR_04
 70
0
 62
7
  6
CONTINUOUS
370
-3
390
F
  0
LAYER
  5
20A
100
AcDbSymbolTableRecord
100
AcDbLayerTableRecord
  2
FLANSCH_VAR_KFL
 70
0
 62
7
  6
CONTINUOUS
370
-3
390
F
  0
LAYER
  5
20B
100
AcDbSymbolTableRecord
100
AcDbLayerTableRecord
  2
FORM_U_LAGE
 70
0
 62
7
  6
CONTINUOUS
370
-3
390
F
  0
LAYER
  5
20C
100
AcDbSymbolTableRecord
100
AcDbLayerTableRecord
  2
GEOMTOL
 70
0
 62
7
  6
CONTINUOUS
370
-3
390
F
  0
LAYER
  5
20D
100
AcDbSymbolTableRecord
100
AcDbLayerTableRecord
  2
GEWINDE
 70
0
 62
7
  6
CONTINUOUS
370
-3
390
F
  0
LAYER
  5
20E
100
AcDbSymbolTableRecord
100
AcDbLayerTableRecord
  2
HILFEN
 70
0
 62
7
  6
CONTINUOUS
370
-3
390
F
  0
LAYER
  5
20F
100
AcDbSymbolTableRecord
100
AcDbLayerTableRecord
  2
KURVEN
 70
0
 62
7
  6
CONTINUOUS
370
-3
390
F
  0
LAYER
  5
210
100
AcDbSymbolTableRecord
100
AcDbLayerTableRecord
  2
LINIEN-AUSBLENDEN
 70
0
 62
7
  6
CONTINUOUS
370
-3
390
F
  0
LAYER
  5
211
100
AcDbSymbolTableRecord
100
AcDbLayerTableRecord
  2
MITTELLINIE-SKIZZIERT
 70
0
 62
7
  6
CONTINUOUS
370
-3
390
F
  0
LAYER
  5
212
100
AcDbSymbolTableRecord
100
AcDbLayerTableRecord
  2
MOLD-STRUKTUR
 70
0
 62
7
  6
CONTINUOUS
370
-3
390
F
  0
LAYER
  5
213
100
AcDbSymbolTableRecord
100
AcDbLayerTableRecord
  2
PLATZHALTERKONTUREN
 70
0
 62
7
  6
CONTINUOUS
370
-3
390
F
  0
LAYER
  5
214
100
AcDbSymbolTableRecord
100
AcDbLayerTableRecord
  2
RUNDUNGEN
 70
0
 62
7
  6
CONTINUOUS
370
-3
390
F
  0
LAYER
  5
215
100
AcDbSymbolTableRecord
100
AcDbLayerTableRecord
  2
SCHNITT-DTM
 70
0
 62
7
  6
CONTINUOUS
370
-3
390
F
  0
LAYER
  5
216
100
AcDbSymbolTableRecord
100
AcDbLayerTableRecord
  2
TEIL_STARTBEZUEGE
 70
0
 62
7
  6
CONTINUOUS
370
-3
390
F
  0
LAYER
  5
217
100
AcDbSymbolTableRecord
100
AcDbLayerTableRecord
  2
VEREINFACHT_VAR-04
 70
0
 62
7
  6
CONTINUOUS
370
-3
390
F
  0
LAYER
  5
218
100
AcDbSymbolTableRecord
100
AcDbLayerTableRecord
  2
WECHSELEINSAETZE
 70
0
 62
7
  6
CONTINUOUS
370
-3
390
F
  0
LAYER
  5
219
100
AcDbSymbolTableRecord
100
AcDbLayerTableRecord
  2
WECHSELSTEMPEL
 70
0
 62
7
  6
CONTINUOUS
370
-3
390
F
  0
LAYER
  5
21A
100
AcDbSymbolTableRecord
100
AcDbLayerTableRecord
  2
XSEC_DATUMS
 70
0
 62
7
  6
CONTINUOUS
370
-3
390
F
  0
LAYER
  5
21B
100
AcDbSymbolTableRecord
100
AcDbLayerTableRecord
  2
ZEICHNUNGSBEMASSUNGEN
 70
0
 62
7
  6
CONTINUOUS
370
-3
390
F
  0
ENDTAB
  0
TABLE
  2
STYLE
  5
3
100
AcDbSymbolTable
 70
1
  0
STYLE
  5
11
100
AcDbSymbolTableRecord
100
AcDbTextStyleTableRecord
  2
STANDARD
 70
0
 40
0.0
 41
0.7
 50
0.0
 71
0
 42
0.2
  3
txt
  4

  0
STYLE
  5
21C
100
AcDbSymbolTableRecord
100
AcDbTextStyleTableRecord
  2
TEXTSTYLE_1
 70
0
 40
0.0
 41
0.8
 50
0.0
 71
0
 42
0.2
  3
gdt
  4

  0
STYLE
  5
21D
100
AcDbSymbolTableRecord
100
AcDbTextStyleTableRecord
  2
TEXTSTYLE_2
 70
0
 40
0.0
 41
0.7
 50
0.0
 71
0
 42
0.2
  3
txt
  4

  0
STYLE
  5
21E
100
AcDbSymbolTableRecord
100
AcDbTextStyleTableRecord
  2
TEXTSTYLE_3
 70
0
 40
0.0
 41
0.8
 50
0.0
 71
0
 42
0.2
  3
txt
  4

  0
ENDTAB
  0
TABLE
  2
VIEW
  5
6
100
AcDbSymbolTable
 70
0
  0
ENDTAB
  0
TABLE
  2
UCS
  5
7
100
AcDbSymbolTable
 70
0
  0
ENDTAB
  0
TABLE
  2
APPID
  5
9
100
AcDbSymbolTable
 70
1
  0
APPID
  5
21F
100
AcDbSymbolTableRecord
100
AcDbRegAppTableRecord
  2
ACAD
 70
0
  0
ENDTAB
  0
TABLE
  2
BLOCK_RECORD
  5
1
100
AcDbSymbolTable
 70
0
  0
BLOCK_RECORD
  5
220
100
AcDbSymbolTableRecord
100
AcDbBlockTableRecord
  2
*Model_Space
  0
BLOCK_RECORD
  5
221
100
AcDbSymbolTableRecord
100
AcDbBlockTableRecord
  2
*Paper_Space
  0
BLOCK_RECORD
  5
222
100
AcDbSymbolTableRecord
100
AcDbBlockTableRecord
  2
_FILLED
  0
BLOCK_RECORD
  5
223
100
AcDbSymbolTableRecord
100
AcDbBlockTableRecord
  2
_DOTBLANK
  0
BLOCK_RECORD
  5
224
100
AcDbSymbolTableRecord
100
AcDbBlockTableRecord
  2
*D0
  0
BLOCK_RECORD
  5
225
100
AcDbSymbolTableRecord
100
AcDbBlockTableRecord
  2
*D1
  0
BLOCK_RECORD
  5
226
100
AcDbSymbolTableRecord
100
AcDbBlockTableRecord
  2
*D2
  0
BLOCK_RECORD
  5
227
100
AcDbSymbolTableRecord
100
AcDbBlockTableRecord
  2
*D3
  0
BLOCK_RECORD
  5
228
100
AcDbSymbolTableRecord
100
AcDbBlockTableRecord
  2
*D4
  0
BLOCK_RECORD
  5
229
100
AcDbSymbolTableRecord
100
AcDbBlockTableRecord
  2
*D5
  0
BLOCK_RECORD
  5
22A
100
AcDbSymbolTableRecord
100
AcDbBlockTableRecord
  2
*D6
  0
BLOCK_RECORD
  5
22B
100
AcDbSymbolTableRecord
100
AcDbBlockTableRecord
  2
*D7
  0
BLOCK_RECORD
  5
22C
100
AcDbSymbolTableRecord
100
AcDbBlockTableRecord
  2
*D8
  0
BLOCK_RECORD
  5
22D
100
AcDbSymbolTableRecord
100
AcDbBlockTableRecord
  2
SYMBOL_27_BL0
  0
BLOCK_RECORD
  5
22E
100
AcDbSymbolTableRecord
100
AcDbBlockTableRecord
  2
*T1
  0
ENDTAB
  0
TABLE
  2
DIMSTYLE
  5
A
100
AcDbSymbolTable
 70
1
100
AcDbDimStyleTable
 71
0
  0
DIMSTYLE
105
22F
100
AcDbSymbolTableRecord
100
AcDbDimStyleTableRecord
  2
STANDARD
 70
0
  3

  4

 40
1.0
 41
3.5
 42
0.0
 43
0.38
 44
1.5
 45
0.0
 46
0.0
 47
0.005
 48
0.005
140
2.5
141
0.09
142
0.0
143
25.4
144
1.0
145
0.0
146
1.0
147
0.625
 71
1.0
 72
0.0
 73
0
 74
0
 75
0
 76
0
 77
1
 78
8
170
0
171
2
172
0
173
0
174
0
175
0
176
0
177
0
178
5
270
2
271
3
272
3
273
2
274
2
275
0
280
0
281
0
282
0
283
1
284
8
285
0
286
0
287
3
288
0
340
11
278
46
341
222
342
222
343
222
344
222
  0
DIMSTYLE
105
230
100
AcDbSymbolTableRecord
100
AcDbDimStyleTableRecord
  2
DIMSTYLE_1
 70
0
  3

  4

 40
1.0
 41
3.5
 42
0.0
 43
0.38
 44
1.5
 45
0.0
 46
0.0
 47
0.2
 48
0.2
140
2.5
141
0.09
142
0.0
143
25.4
144
1.0
145
0.0
146
1.0
147
0.625
 71
0.0
 72
0.0
 73
0
 74
0
 75
0
 76
0
 77
1
 78
8
170
0
171
2
172
0
173
0
174
0
175
0
176
0
177
0
178
5
270
2
271
3
272
3
273
2
274
2
275
0
280
0
281
0
282
0
283
1
284
8
285
0
286
0
287
3
288
0
340
11
278
46
341
222
342
222
343
222
344
222
  0
DIMSTYLE
105
231
100
AcDbSymbolTableRecord
100
AcDbDimStyleTableRecord
  2
DIMSTYLE_2
 70
0
  3

  4

 40
1.0
 41
3.5
 42
0.0
 43
0.38
 44
1.5
 45
0.0
 46
0.0
 47
0.3
 48
0.3
140
2.5
141
0.09
142
0.0
143
25.4
144
1.0
145
0.0
146
1.0
147
0.625
 71
0.0
 72
0.0
 73
0
 74
0
 75
0
 76
0
 77
1
 78
8
170
0
171
2
172
0
173
0
174
0
175
0
176
0
177
0
178
5
270
2
271
3
272
3
273
2
274
2
275
0
280
0
281
0
282
0
283
1
284
8
285
0
286
0
287
3
288
0
340
11
278
46
341
222
342
222
343
222
344
222
  0
DIMSTYLE
105
232
100
AcDbSymbolTableRecord
100
AcDbDimStyleTableRecord
  2
DIMSTYLE_3
 70
0
  3

  4

 40
1.0
 41
3.5
 42
0.0
 43
0.38
 44
1.5
 45
0.0
 46
0.0
 47
0.5
 48
0.5
140
2.5
141
0.09
142
0.0
143
25.4
144
1.0
145
0.0
146
1.0
147
0.625
 71
0.0
 72
0.0
 73
0
 74
0
 75
0
 76
0
 77
1
 78
8
170
0
171
2
172
0
173
0
174
0
175
0
176
0
177
0
178
5
270
2
271
3
272
3
273
2
274
2
275
0
280
0
281
0
282
0
283
1
284
8
285
0
286
0
287
3
288
0
340
11
278
46
341
222
342
222
343
222
344
222
  0
DIMSTYLE
105
233
100
AcDbSymbolTableRecord
100
AcDbDimStyleTableRecord
  2
DIMSTYLE_4
 70
0
  3
<>
  4

 40
1.0
 41
3.5
 42
0.0
 43
0.38
 44
1.5
 45
0.0
 46
0.0
 47
0.2
 48
0.2
140
2.5
141
0.09
142
0.0
143
25.4
144
1.0
145
0.0
146
1.0
147
0.625
 71
0.0
 72
0.0
 73
0
 74
0
 75
0
 76
0
 77
1
 78
8
170
0
171
2
172
0
173
0
174
0
175
0
176
0
177
0
178
5
270
2
271
3
272
3
273
2
274
2
275
0
280
0
281
0
282
0
283
1
284
8
285
0
286
0
287
3
288
0
340
11
278
46
341
222
342
222
343
222
344
222
  0
ENDTAB
  0
ENDSEC
  0
SECTION
  2
BLOCKS
  0
BLOCK
  5
20
100
AcDbEntity
  8
0
100
AcDbBlockBegin
  2
*Model_Space
 70
0
 10
0.0
 20
0.0
 30
0.0
  3
*Model_Space
  1

  0
ENDBLK
  5
21
100
AcDbEntity
  8
0
100
AcDbBlockEnd
  0
BLOCK
  5
1C
100
AcDbEntity
  8
0
100
AcDbBlockBegin
  2
*Paper_Space
 70
0
 10
0.0
 20
0.0
 30
0.0
  3
*Paper_Space
  1

  0
ENDBLK
  5
1D
100
AcDbEntity
  8
0
100
AcDbBlockEnd
  0
BLOCK
  5
234
100
AcDbEntity
  8
0
100
AcDbBlockBegin
 62
5
  6
CONTINUOUS
  2
SYMBOL_27_BL0
 70
64
 10
306.4999994719
 20
15.0062199685
  3
SYMBOL_27_BL0
  1

  0
LINE
  5
235
100
AcDbEntity
  8
0
100
AcDbLine
 62
5
  6
CONTINUOUS
 10
286.440646698
 20
20.2542610645
 11
286.440646698
 21
10.2542610645
  0
LINE
  5
236
100
AcDbEntity
  8
0
100
AcDbLine
 62
5
  6
CONTINUOUS
 10
286.840646698
 20
10.6542610645
 11
286.840646698
 21
19.8542610645
  0
LINE
  5
237
100
AcDbEntity
  8
0
100
AcDbLine
 62
5
  6
CONTINUOUS
 10
290.648646698
 20
19.5622610645
 11
290.648646698
 21
11.0675590952
  0
LINE
  5
238
100
AcDbEntity
  8
0
100
AcDbLine
 62
5
  6
CONTINUOUS
 10
291.512646698
 20
11.0675590952
 11
291.512646698
 21
19.5622610645
  0
LINE
  5
239
100
AcDbEntity
  8
0
100
AcDbLine
 62
5
  6
CONTINUOUS
 10
295.240646698
 20
19.8542610645
 11
295.240646698
 21
10.6542610645
  0
LINE
  5
23A
100
AcDbEntity
  8
0
100
AcDbLine
 62
5
  6
CONTINUOUS
 10
295.640646698
 20
10.2542610645
 11
295.640646698
 21
20.2542610645
  0
LINE
  5
23B
100
AcDbEntity
  8
0
100
AcDbLine
 62
5
  6
CONTINUOUS
 10
302.9965359
 20
14.5421961959
 11
302.9647356199
 21
14.7373161602
  0
LINE
  5
23C
100
AcDbEntity
  8
0
100
AcDbLine
 62
5
  6
CONTINUOUS
 10
302.0499077253
 20
14.7373161602
 11
302.0499077253
 21
12.4903864011
  0
LINE
  5
23D
100
AcDbEntity
  8
0
100
AcDbLine
 62
5
  6
CONTINUOUS
 10
302.0499077253
 20
12.0885990558
 11
302.0499077253
 21
9.8721429157
  0
LINE
  5
23E
100
AcDbEntity
  8
0
100
AcDbLine
 62
5
  6
CONTINUOUS
 10
303.028646698
 20
12.8492977944
 11
303.028646698
 21
13.2484337354
  0
LINE
  5
23F
100
AcDbEntity
  8
0
100
AcDbLine
 62
5
  6
CONTINUOUS
 10
303.0470105273
 20
9.8721429157
 11
303.0470105273
 21
11.3525988614
  0
LINE
  5
240
100
AcDbEntity
  8
0
100
AcDbLine
 62
5
  6
CONTINUOUS
 10
304.652646698
 20
13.1798332195
 11
304.652646698
 21
12.9622610645
  0
LINE
  5
241
100
AcDbEntity
  8
0
100
AcDbLine
 62
5
  6
CONTINUOUS
 10
309.260646698
 20
19.5622610645
 11
309.260646698
 21
13.2199311408
  0
LINE
  5
242
100
AcDbEntity
  8
0
100
AcDbLine
 62
5
  6
CONTINUOUS
 10
309.260646698
 20
12.7015387273
 11
309.260646698
 21
11.0902610645
  0
LINE
  5
243
100
AcDbEntity
  8
0
100
AcDbLine
 62
5
  6
CONTINUOUS
 10
310.168646698
 20
11.0902610645
 11
310.168646698
 21
19.5622610645
  0
LINE
  5
244
100
AcDbEntity
  8
0
100
AcDbLine
 62
5
  6
CONTINUOUS
 10
313.7366466753
 20
19.5986610645
 11
313.7366466753
 21
11.1062610645
  0
LINE
  5
245
100
AcDbEntity
  8
0
100
AcDbLine
 62
5
  6
CONTINUOUS
 10
314.6867871328
 20
11.1062610645
 11
314.6867871328
 21
11.7070477572
  0
LINE
  5
246
100
AcDbEntity
  8
0
100
AcDbLine
 62
5
  6
CONTINUOUS
 10
314.7212124261
 20
14.0459392102
 11
314.7212124261
 21
19.5986610645
  0
LINE
  5
247
100
AcDbEntity
  8
0
100
AcDbLine
 62
5
  6
CONTINUOUS
 10
302.0499077253
 20
9.8721429157
 11
303.0470105273
 21
9.8721429157
  0
LINE
  5
248
100
AcDbEntity
  8
0
100
AcDbLine
 62
5
  6
CONTINUOUS
 10
286.440646698
 20
10.2542610645
 11
295.640646698
 21
10.2542610645
  0
LINE
  5
249
100
AcDbEntity
  8
0
100
AcDbLine
 62
5
  6
CONTINUOUS
 10
295.240646698
 20
10.6542610645
 11
286.840646698
 21
10.6542610645
  0
LINE
  5
24A
100
AcDbEntity
  8
0
100
AcDbLine
 62
5
  6
CONTINUOUS
 10
324.0963142131
 20
10.8343018114
 11
323.1556764588
 21
10.8343018114
  0
LINE
  5
24B
100
AcDbEntity
  8
0
100
AcDbLine
 62
5
  6
CONTINUOUS
 10
290.648646698
 20
11.0675590952
 11
291.512646698
 21
11.0675590952
  0
LINE
  5
24C
100
AcDbEntity
  8
0
100
AcDbLine
 62
5
  6
CONTINUOUS
 10
309.260646698
 20
11.0902610645
 11
310.168646698
 21
11.0902610645
  0
LINE
  5
24D
100
AcDbEntity
  8
0
100
AcDbLine
 62
5
  6
CONTINUOUS
 10
321.0206466937
 20
11.0942610645
 11
321.9328178269
 21
11.0942610645
  0
LINE
  5
24E
100
AcDbEntity
  8
0
100
AcDbLine
 62
5
  6
CONTINUOUS
 10
313.7366466753
 20
11.1062610645
 11
314.6867871328
 21
11.1062610645
  0
LINE
  5
24F
100
AcDbEntity
  8
0
100
AcDbLine
 62
5
  6
CONTINUOUS
 10
320.9523182833
 20
12.1520665426
 11
319.9133957865
 21
12.1520665426
  0
LINE
  5
250
100
AcDbEntity
  8
0
100
AcDbLine
 62
5
  6
CONTINUOUS
 10
290.3753378219
 20
12.1787009595
 11
289.4278292437
 21
12.1787009595
  0
LINE
  5
251
100
AcDbEntity
  8
0
100
AcDbLine
 62
5
  6
CONTINUOUS
 10
309.2452425009
 20
12.1814029288
 11
308.2063200042
 21
12.1814029288
  0
LINE
  5
252
100
AcDbEntity
  8
0
100
AcDbLine
 62
5
  6
CONTINUOUS
 10
311.2742255119
 20
12.3026086242
 11
310.304646698
 21
12.3026086242
  0
LINE
  5
253
100
AcDbEntity
  8
0
100
AcDbLine
 62
5
  6
CONTINUOUS
 10
299.7062255119
 20
12.3066086242
 11
298.736646698
 21
12.3066086242
  0
LINE
  5
254
100
AcDbEntity
  8
0
100
AcDbLine
 62
5
  6
CONTINUOUS
 10
292.5843072746
 20
12.3079066549
 11
291.636798769
 21
12.3079066549
  0
LINE
  5
255
100
AcDbEntity
  8
0
100
AcDbLine
 62
5
  6
CONTINUOUS
 10
318.3586448516
 20
12.6722023411
 11
320.9959094548
 21
12.6722023411
  0
LINE
  5
256
100
AcDbEntity
  8
0
100
AcDbLine
 62
5
  6
CONTINUOUS
 10
288.0098795385
 20
12.698836758
 11
290.4150934429
 21
12.698836758
  0
LINE
  5
257
100
AcDbEntity
  8
0
100
AcDbLine
 62
5
  6
CONTINUOUS
 10
306.6515690693
 20
12.7015387273
 11
309.260646698
 21
12.7015387273
  0
LINE
  5
258
100
AcDbEntity
  8
0
100
AcDbLine
 62
5
  6
CONTINUOUS
 10
319.9569869581
 20
13.3248567791
 11
318.3659100735
 21
13.3248567791
  0
LINE
  5
259
100
AcDbEntity
  8
0
100
AcDbLine
 62
5
  6
CONTINUOUS
 10
289.4675848646
 20
13.351491196
 11
288.0165054996
 21
13.351491196
  0
LINE
  5
25A
100
AcDbEntity
  8
0
100
AcDbLine
 62
5
  6
CONTINUOUS
 10
308.2499111757
 20
13.3541931653
 11
306.6588342911
 21
13.3541931653
  0
LINE
  5
25B
100
AcDbEntity
  8
0
100
AcDbLine
 62
5
  6
CONTINUOUS
 10
312.5523065775
 20
13.6311084003
 11
313.521885317
 21
13.6311084003
  0
LINE
  5
25C
100
AcDbEntity
  8
0
100
AcDbLine
 62
5
  6
CONTINUOUS
 10
300.9843065775
 20
13.6351084003
 11
301.953885317
 21
13.6351084003
  0
LINE
  5
25D
100
AcDbEntity
  8
0
100
AcDbLine
 62
5
  6
CONTINUOUS
 10
293.8332956633
 20
13.636406431
 11
294.7808040962
 21
13.636406431
  0
LINE
  5
25E
100
AcDbEntity
  8
0
100
AcDbLine
 62
5
  6
CONTINUOUS
 10
321.8722189715
 20
14.5228762394
 11
321.0206466937
 21
14.5228762394
  0
LINE
  5
25F
100
AcDbEntity
  8
0
100
AcDbLine
 62
5
  6
CONTINUOUS
 10
326.5593522458
 20
14.5897397828
 11
325.7901119005
 21
14.5897397828
  0
LINE
  5
260
100
AcDbEntity
  8
0
100
AcDbLine
 62
5
  6
CONTINUOUS
 10
302.9647356199
 20
14.7373161602
 11
302.0499077253
 21
14.7373161602
  0
LINE
  5
261
100
AcDbEntity
  8
0
100
AcDbLine
 62
5
  6
CONTINUOUS
 10
323.0044592177
 20
13.8358179653
 11
323.1522381034
 21
13.8132740137
  0
LINE
  5
262
100
AcDbEntity
  8
0
100
AcDbLine
 62
5
  6
CONTINUOUS
 10
301.0927909235
 20
13.264056035
 11
300.2588175792
 21
13.4528950892
  0
LINE
  5
263
100
AcDbEntity
  8
0
100
AcDbLine
 62
5
  6
CONTINUOUS
 10
312.6607909235
 20
13.260056035
 11
311.8268175792
 21
13.4488950892
  0
LINE
  5
264
100
AcDbEntity
  8
0
100
AcDbLine
 62
5
  6
CONTINUOUS
 10
293.9393106041
 20
13.2653540657
 11
293.1243208108
 21
13.4541931198
  0
LINE
  5
265
100
AcDbEntity
  8
0
100
AcDbLine
 62
5
  6
CONTINUOUS
 10
322.0093449831
 20
14.1552961801
 11
321.8722189715
 21
14.5228762394
  0
LINE
  5
266
100
AcDbEntity
  8
0
100
AcDbLine
 62
5
  6
CONTINUOUS
 10
321.0206466937
 20
14.5228762394
 11
321.0206466937
 21
11.0942610645
  0
LINE
  5
267
100
AcDbEntity
  8
0
100
AcDbLine
 62
5
  6
CONTINUOUS
 10
321.9328178269
 20
11.0942610645
 11
321.9328178269
 21
12.4502923219
  0
LINE
  5
268
100
AcDbEntity
  8
0
100
AcDbLine
 62
5
  6
CONTINUOUS
 10
323.1522381034
 20
13.8132740137
 11
323.1522381034
 21
14.5674427603
  0
LINE
  5
269
100
AcDbEntity
  8
0
100
AcDbLine
 62
5
  6
CONTINUOUS
 10
325.7901119005
 20
14.5897397828
 11
325.7901119005
 21
14.1481104636
  0
LINE
  5
26A
100
AcDbEntity
  8
0
100
AcDbLine
 62
5
  6
CONTINUOUS
 10
326.5593522458
 20
11.103866091
 11
326.5593522458
 21
14.5897397828
  0
LINE
  5
26B
100
AcDbEntity
  8
0
100
AcDbLine
 62
5
  6
CONTINUOUS
 10
321.9328178269
 20
12.4502923219
 11
321.9793443315
 21
12.8715747715
  0
LINE
  5
26C
100
AcDbEntity
  8
0
100
AcDbLine
 62
5
  6
CONTINUOUS
 10
310.168646698
 20
19.5622610645
 11
309.260646698
 21
19.5622610645
  0
LINE
  5
26D
100
AcDbEntity
  8
0
100
AcDbLine
 62
5
  6
CONTINUOUS
 10
291.512646698
 20
19.5622610645
 11
290.648646698
 21
19.5622610645
  0
LINE
  5
26E
100
AcDbEntity
  8
0
100
AcDbLine
 62
5
  6
CONTINUOUS
 10
314.7212124261
 20
19.5986610645
 11
313.7366466753
 21
19.5986610645
  0
LINE
  5
26F
100
AcDbEntity
  8
0
100
AcDbLine
 62
5
  6
CONTINUOUS
 10
286.840646698
 20
19.8542610645
 11
295.240646698
 21
19.8542610645
  0
LINE
  5
270
100
AcDbEntity
  8
0
100
AcDbLine
 62
5
  6
CONTINUOUS
 10
295.640646698
 20
20.2542610645
 11
286.440646698
 21
20.2542610645
  0
ARC
  5
271
100
AcDbEntity
  8
0
100
AcDbCircle
 62
5
  6
CONTINUOUS
 10
324.7941740634
 20
18.4755213547
 40
8.013993536
100
AcDbArc
 50
268.9290579739
 51
271.0709420261
  0
ARC
  5
272
100
AcDbEntity
  8
0
100
AcDbCircle
 62
5
  6
CONTINUOUS
 10
328.9141373095
 20
11.5111069654
 40
3.3193039142
100
AcDbArc
 50
179.9741546701
 51
183.2978387268
  0
ARC
  5
273
100
AcDbEntity
  8
0
100
AcDbCircle
 62
5
  6
CONTINUOUS
 10
324.7353522458
 20
12.8297397828
 40
3.084
100
AcDbArc
 50
262.5863261985
 51
287.7362518
  0
ARC
  5
274
100
AcDbEntity
  8
0
100
AcDbCircle
 62
5
  6
CONTINUOUS
 10
312.0603296207
 20
10.6285034257
 40
2.6991893064
100
AcDbArc
 50
69.711904135
 51
77.1464457876
  0
ARC
  5
275
100
AcDbEntity
  8
0
100
AcDbCircle
 62
5
  6
CONTINUOUS
 10
300.4923296207
 20
10.6325034257
 40
2.6991893064
100
AcDbArc
 50
69.711904135
 51
77.1464457876
  0
ARC
  5
276
100
AcDbEntity
  8
0
100
AcDbCircle
 62
5
  6
CONTINUOUS
 10
293.3496672406
 20
10.7406338756
 40
2.5926610528
100
AcDbArc
 50
69.2757911335
 51
76.854313548
  0
ARC
  5
277
100
AcDbEntity
  8
0
100
AcDbCircle
 62
5
  6
CONTINUOUS
 10
303.7137497483
 20
12.9424607136
 40
1.9675366406
100
AcDbArc
 50
309.7462536266
 51
348.1342686422
  0
ARC
  5
278
100
AcDbEntity
  8
0
100
AcDbCircle
 62
5
  6
CONTINUOUS
 10
303.7137497483
 20
12.9424607136
 40
1.9675366406
100
AcDbArc
 50
11.311960254
 51
46.3381254223
  0
ARC
  5
279
100
AcDbEntity
  8
0
100
AcDbCircle
 62
5
  6
CONTINUOUS
 10
302.888646698
 20
12.9622610645
 40
1.764
100
AcDbArc
 50
343.6739161688
 51
360.0
  0
ARC
  5
27A
100
AcDbEntity
  8
0
100
AcDbCircle
 62
5
  6
CONTINUOUS
 10
304.0368734378
 20
12.8063513336
 40
1.6875637879
100
AcDbArc
 50
262.225530142
 51
297.7740136114
  0
ARC
  5
27B
100
AcDbEntity
  8
0
100
AcDbCircle
 62
5
  6
CONTINUOUS
 10
324.5433522458
 20
11.3541788725
 40
1.596
100
AcDbArc
 50
236.3397201072
 51
262.5863261985
  0
ARC
  5
27C
100
AcDbEntity
  8
0
100
AcDbCircle
 62
5
  6
CONTINUOUS
 10
323.2843606909
 20
12.7274485454
 40
1.3129509007
100
AcDbArc
 50
148.1557474017
 51
173.6977844408
  0
ARC
  5
27D
100
AcDbEntity
  8
0
100
AcDbCircle
 62
5
  6
CONTINUOUS
 10
325.2873522458
 20
11.103866091
 40
1.272
100
AcDbArc
 50
287.7362518
 51
360.0
  0
ARC
  5
27E
100
AcDbEntity
  8
0
100
AcDbCircle
 62
5
  6
CONTINUOUS
 10
304.164646698
 20
12.8492977944
 40
1.136
100
AcDbArc
 50
180.0
 51
207.1129411294
  0
ARC
  5
27F
100
AcDbEntity
  8
0
100
AcDbCircle
 62
5
  6
CONTINUOUS
 10
322.92021504
 20
12.7879570786
 40
1.0512418938
100
AcDbArc
 50
85.40351539
 51
100.4696754519
  0
ARC
  5
280
100
AcDbEntity
  8
0
100
AcDbCircle
 62
5
  6
CONTINUOUS
 10
303.640646698
 20
13.1798332195
 40
1.012
100
AcDbArc
 50
0.0
 51
31.788330617
  0
ARC
  5
281
100
AcDbEntity
  8
0
100
AcDbCircle
 62
5
  6
CONTINUOUS
 10
324.8722613687
 20
12.9102610645
 40
1.004
100
AcDbArc
 50
136.0170368696
 51
224.1103501111
  0
ARC
  5
282
100
AcDbEntity
  8
0
100
AcDbCircle
 62
5
  6
CONTINUOUS
 10
324.6374972143
 20
12.9102610645
 40
1.004
100
AcDbArc
 50
325.2838374326
 51
10.5325754549
  0
ARC
  5
283
100
AcDbEntity
  8
0
100
AcDbCircle
 62
5
  6
CONTINUOUS
 10
324.655733837
 20
11.2657301325
 40
0.946163226
100
AcDbArc
 50
324.7130554607
 51
3.2978387268
  0
ARC
  5
284
100
AcDbEntity
  8
0
100
AcDbCircle
 62
5
  6
CONTINUOUS
 10
324.768646698
 20
13.0102610645
 40
0.86
100
AcDbArc
 50
5.5735187429
 51
136.0170368696
  0
ARC
  5
285
100
AcDbEntity
  8
0
100
AcDbCircle
 62
5
  6
CONTINUOUS
 10
303.860646698
 20
13.2484337354
 40
0.832
100
AcDbArc
 50
105.4660099534
 51
180.0
  0
ARC
  5
286
100
AcDbEntity
  8
0
100
AcDbCircle
 62
5
  6
CONTINUOUS
 10
324.760646698
 20
12.7542610645
 40
0.816
100
AcDbArc
 50
221.6998787553
 51
329.3664120252
  0
ARC
  5
287
100
AcDbEntity
  8
0
100
AcDbCircle
 62
5
  6
CONTINUOUS
 10
322.8764597343
 20
13.0247389062
 40
0.8104511949
100
AcDbArc
 50
100.4696754519
 51
150.7957950668
  0
ARC
  5
288
100
AcDbEntity
  8
0
100
AcDbCircle
 62
5
  6
CONTINUOUS
 10
303.840646698
 20
12.6834062636
 40
0.772
100
AcDbArc
 50
207.1129411294
 51
343.6739161688
  0
ARC
  5
289
100
AcDbEntity
  8
0
100
AcDbCircle
 62
5
  6
CONTINUOUS
 10
303.844646698
 20
13.3062610645
 40
0.772
100
AcDbArc
 50
31.788330617
 51
105.4660099534
  0
ARC
  5
28A
100
AcDbEntity
  8
0
100
AcDbCircle
 62
5
  6
CONTINUOUS
 10
324.9326142898
 20
11.0697825476
 40
0.6069608659
100
AcDbArc
 50
271.0709420261
 51
324.7130554606
  0
ARC
  5
28B
100
AcDbEntity
  8
0
100
AcDbCircle
 62
5
  6
CONTINUOUS
 10
324.655733837
 20
11.0697825476
 40
0.6069608659
100
AcDbArc
 50
202.8280540764
 51
268.9290579739
  0
ARC
  5
28C
100
AcDbEntity
  8
0
100
AcDbCircle
 62
5
  6
CONTINUOUS
 10
304.5779099997
 20
11.7790550858
 40
0.5265047274
100
AcDbArc
 50
297.7740136114
 51
318.4231605891
  0
ARC
  5
28D
100
AcDbEntity
  8
0
100
AcDbCircle
 62
5
  6
CONTINUOUS
 10
322.9745433318
 20
14.2713265744
 40
0.345340741
100
AcDbArc
 50
59.0326782368
 51
85.0304008414
  0
SPLINE
  5
28E
100
AcDbEntity
  8
0
100
AcDbSpline
 62
5
  6
CONTINUOUS
 70
0
 71
3
 72
8
 73
4
 74
0
 42
0.0000001
 43
0.0000001
 44
0.0000000001
 40
0.0
 40
0.0
 40
0.0
 40
0.0
 40
1.0
 40
1.0
 40
1.0
 40
1.0
 10
291.636798769
 20
12.3079066549
 30
0.0
 10
291.6898062393
 20
11.4796650122
 30
0.0
 10
292.2530106029
 20
11.0688571259
 30
0.0
 10
293.3297248039
 20
11.0688571259
 30
0.0
  0
SPLINE
  5
28F
100
AcDbEntity
  8
0
100
AcDbSpline
 62
5
  6
CONTINUOUS
 70
0
 71
3
 72
8
 73
4
 74
0
 42
0.0000001
 43
0.0000001
 44
0.0000000001
 40
0.0
 40
0.0
 40
0.0
 40
0.0
 40
1.0
 40
1.0
 40
1.0
 40
1.0
 10
293.3297248039
 20
11.0688571259
 30
0.0
 10
293.8465475855
 20
11.0688571259
 30
0.0
 10
294.2341647444
 20
11.1814979959
 30
0.0
 10
294.4958890696
 20
11.4067796582
 30
0.0
  0
SPLINE
  5
290
100
AcDbEntity
  8
0
100
AcDbSpline
 62
5
  6
CONTINUOUS
 70
0
 71
3
 72
8
 73
4
 74
0
 42
0.0000001
 43
0.0000001
 44
0.0000000001
 40
0.0
 40
0.0
 40
0.0
 40
0.0
 40
1.0
 40
1.0
 40
1.0
 40
1.0
 10
294.4958890696
 20
11.4067796582
 30
0.0
 10
294.7576135597
 20
11.6320614622
 30
0.0
 10
294.8901321993
 20
11.930228474
 30
0.0
 10
294.8901321993
 20
12.3012807666
 30
0.0
  0
SPLINE
  5
291
100
AcDbEntity
  8
0
100
AcDbSpline
 62
5
  6
CONTINUOUS
 70
0
 71
3
 72
8
 73
4
 74
0
 42
0.0000001
 43
0.0000001
 44
0.0000000001
 40
0.0
 40
0.0
 40
0.0
 40
0.0
 40
1.0
 40
1.0
 40
1.0
 40
1.0
 10
294.8901321993
 20
12.3012807666
 30
0.0
 10
294.8901321993
 20
12.4702420829
 30
0.0
 10
294.8570023212
 20
12.6193255161
 30
0.0
 10
294.790194059
 20
12.744925157
 30
0.0
  0
SPLINE
  5
292
100
AcDbEntity
  8
0
100
AcDbSpline
 62
5
  6
CONTINUOUS
 70
0
 71
3
 72
8
 73
4
 74
0
 42
0.0000001
 43
0.0000001
 44
0.0000000001
 40
0.0
 40
0.0
 40
0.0
 40
0.0
 40
1.0
 40
1.0
 40
1.0
 40
1.0
 10
294.790194059
 20
12.744925157
 30
0.0
 10
294.6913540945
 20
12.9307444499
 30
0.0
 10
294.519079834
 20
13.0698889778
 30
0.0
 10
294.2671323633
 20
13.1655357464
 30
0.0
  0
SPLINE
  5
293
100
AcDbEntity
  8
0
100
AcDbSpline
 62
5
  6
CONTINUOUS
 70
0
 71
3
 72
8
 73
4
 74
0
 42
0.0000001
 43
0.0000001
 44
0.0000000001
 40
0.0
 40
0.0
 40
0.0
 40
0.0
 40
1.0
 40
1.0
 40
1.0
 40
1.0
 10
293.1243208108
 20
13.4541931198
 30
0.0
 10
293.0083669648
 20
13.4740709303
 30
0.0
 10
292.9122909293
 20
13.5072006629
 30
0.0
 10
292.8345562602
 20
13.5507320449
 30
0.0
  0
SPLINE
  5
294
100
AcDbEntity
  8
0
100
AcDbSpline
 62
5
  6
CONTINUOUS
 70
0
 71
3
 72
8
 73
4
 74
0
 42
0.0000001
 43
0.0000001
 44
0.0000000001
 40
0.0
 40
0.0
 40
0.0
 40
0.0
 40
1.0
 40
1.0
 40
1.0
 40
1.0
 10
292.8345562602
 20
13.5507320449
 30
0.0
 10
292.7466425571
 20
13.5999636816
 30
0.0
 10
292.7035740647
 20
13.679474778
 30
0.0
 10
292.7035740647
 20
13.792115898
 30
0.0
  0
SPLINE
  5
295
100
AcDbEntity
  8
0
100
AcDbSpline
 62
5
  6
CONTINUOUS
 70
0
 71
3
 72
8
 73
4
 74
0
 42
0.0000001
 43
0.0000001
 44
0.0000000001
 40
0.0
 40
0.0
 40
0.0
 40
0.0
 40
1.0
 40
1.0
 40
1.0
 40
1.0
 10
292.7035740647
 20
13.792115898
 30
0.0
 10
292.7035740647
 20
13.8915046595
 30
0.0
 10
292.749955574
 20
13.9677028845
 30
0.0
 10
292.8467566536
 20
14.0261173342
 30
0.0
  0
SPLINE
  5
296
100
AcDbEntity
  8
0
100
AcDbSpline
 62
5
  6
CONTINUOUS
 70
0
 71
3
 72
8
 73
4
 74
0
 42
0.0000001
 43
0.0000001
 44
0.0000000001
 40
0.0
 40
0.0
 40
0.0
 40
0.0
 40
1.0
 40
1.0
 40
1.0
 40
1.0
 10
292.8467566536
 20
14.0261173342
 30
0.0
 10
292.942107645
 20
14.0836567305
 30
0.0
 10
293.0646873793
 20
14.1134735916
 30
0.0
 10
293.210457941
 20
14.1134735916
 30
0.0
  0
SPLINE
  5
297
100
AcDbEntity
  8
0
100
AcDbSpline
 62
5
  6
CONTINUOUS
 70
0
 71
3
 72
8
 73
4
 74
0
 42
0.0000001
 43
0.0000001
 44
0.0000000001
 40
0.0
 40
0.0
 40
0.0
 40
0.0
 40
1.0
 40
1.0
 40
1.0
 40
1.0
 10
293.210457941
 20
14.1134735916
 30
0.0
 10
293.5682583842
 20
14.1134735916
 30
0.0
 10
293.7736623773
 20
13.9544511078
 30
0.0
 10
293.8332956633
 20
13.636406431
 30
0.0
  0
SPLINE
  5
298
100
AcDbEntity
  8
0
100
AcDbSpline
 62
5
  6
CONTINUOUS
 70
0
 71
3
 72
8
 73
4
 74
0
 42
0.0000001
 43
0.0000001
 44
0.0000000001
 40
0.0
 40
0.0
 40
0.0
 40
0.0
 40
1.0
 40
1.0
 40
1.0
 40
1.0
 10
294.7808040962
 20
13.636406431
 30
0.0
 10
294.7277966985
 20
14.4381443022
 30
0.0
 10
294.2043478832
 20
14.8390132378
 30
0.0
 10
293.210457941
 20
14.8390132378
 30
0.0
  0
SPLINE
  5
299
100
AcDbEntity
  8
0
100
AcDbSpline
 62
5
  6
CONTINUOUS
 70
0
 71
3
 72
8
 73
4
 74
0
 42
0.0000001
 43
0.0000001
 44
0.0000000001
 40
0.0
 40
0.0
 40
0.0
 40
0.0
 40
1.0
 40
1.0
 40
1.0
 40
1.0
 10
293.210457941
 20
14.8390132378
 30
0.0
 10
292.7598944793
 20
14.8390132378
 30
0.0
 10
292.405407053
 20
14.7329984425
 30
0.0
 10
292.1463355053
 20
14.5217808584
 30
0.0
  0
SPLINE
  5
29A
100
AcDbEntity
  8
0
100
AcDbSpline
 62
5
  6
CONTINUOUS
 70
0
 71
3
 72
8
 73
4
 74
0
 42
0.0000001
 43
0.0000001
 44
0.0000000001
 40
0.0
 40
0.0
 40
0.0
 40
0.0
 40
1.0
 40
1.0
 40
1.0
 40
1.0
 10
292.1463355053
 20
14.5217808584
 30
0.0
 10
291.8852712909
 20
14.3089386795
 30
0.0
 10
291.7560655591
 20
14.0240235899
 30
0.0
 10
291.7560655591
 20
13.6662230013
 30
0.0
  0
SPLINE
  5
29B
100
AcDbEntity
  8
0
100
AcDbSpline
 62
5
  6
CONTINUOUS
 70
0
 71
3
 72
8
 73
4
 74
0
 42
0.0000001
 43
0.0000001
 44
0.0000000001
 40
0.0
 40
0.0
 40
0.0
 40
0.0
 40
1.0
 40
1.0
 40
1.0
 40
1.0
 10
291.7560655591
 20
13.6662230013
 30
0.0
 10
291.7560655591
 20
13.2786059879
 30
0.0
 10
291.8918972156
 20
13.0168815802
 30
0.0
 10
292.1631689035
 20
12.8769804308
 30
0.0
  0
SPLINE
  5
29C
100
AcDbEntity
  8
0
100
AcDbSpline
 62
5
  6
CONTINUOUS
 70
0
 71
3
 72
8
 73
4
 74
0
 42
0.0000001
 43
0.0000001
 44
0.0000000001
 40
0.0
 40
0.0
 40
0.0
 40
0.0
 40
1.0
 40
1.0
 40
1.0
 40
1.0
 10
292.1631689035
 20
12.8769804308
 30
0.0
 10
292.4186589024
 20
12.7452182673
 30
0.0
 10
292.7565814624
 20
12.6458293603
 30
0.0
 10
293.1771805974
 20
12.5753841191
 30
0.0
  0
SPLINE
  5
29D
100
AcDbEntity
  8
0
100
AcDbSpline
 62
5
  6
CONTINUOUS
 70
0
 71
3
 72
8
 73
4
 74
0
 42
0.0000001
 43
0.0000001
 44
0.0000000001
 40
0.0
 40
0.0
 40
0.0
 40
0.0
 40
1.0
 40
1.0
 40
1.0
 40
1.0
 10
293.1771805974
 20
12.5753841191
 30
0.0
 10
293.4291137109
 20
12.5331883858
 30
0.0
 10
293.6278918157
 20
12.4768679713
 30
0.0
 10
293.7660640969
 20
12.4086790276
 30
0.0
  0
SPLINE
  5
29E
100
AcDbEntity
  8
0
100
AcDbSpline
 62
5
  6
CONTINUOUS
 70
0
 71
3
 72
8
 73
4
 74
0
 42
0.0000001
 43
0.0000001
 44
0.0000000001
 40
0.0
 40
0.0
 40
0.0
 40
0.0
 40
1.0
 40
1.0
 40
1.0
 40
1.0
 10
293.7660640969
 20
12.4086790276
 30
0.0
 10
293.8829901895
 20
12.35097522
 30
0.0
 10
293.942623621
 20
12.2582122014
 30
0.0
 10
293.942623621
 20
12.1256934892
 30
0.0
  0
SPLINE
  5
29F
100
AcDbEntity
  8
0
100
AcDbSpline
 62
5
  6
CONTINUOUS
 70
0
 71
3
 72
8
 73
4
 74
0
 42
0.0000001
 43
0.0000001
 44
0.0000000001
 40
0.0
 40
0.0
 40
0.0
 40
0.0
 40
1.0
 40
1.0
 40
1.0
 40
1.0
 10
293.942623621
 20
12.1256934892
 30
0.0
 10
293.942623621
 20
12.0263045095
 30
0.0
 10
293.8829901895
 20
11.9467933403
 30
0.0
 10
293.7699969175
 20
11.8878402913
 30
0.0
  0
SPLINE
  5
2A0
100
AcDbEntity
  8
0
100
AcDbSpline
 62
5
  6
CONTINUOUS
 70
0
 71
3
 72
8
 73
4
 74
0
 42
0.0000001
 43
0.0000001
 44
0.0000000001
 40
0.0
 40
0.0
 40
0.0
 40
0.0
 40
1.0
 40
1.0
 40
1.0
 40
1.0
 10
293.7699969175
 20
11.8878402913
 30
0.0
 10
293.6543955145
 20
11.8275264774
 30
0.0
 10
293.5119379697
 20
11.7977098344
 30
0.0
 10
293.3429765806
 20
11.7977098344
 30
0.0
  0
SPLINE
  5
2A1
100
AcDbEntity
  8
0
100
AcDbSpline
 62
5
  6
CONTINUOUS
 70
0
 71
3
 72
8
 73
4
 74
0
 42
0.0000001
 43
0.0000001
 44
0.0000000001
 40
0.0
 40
0.0
 40
0.0
 40
0.0
 40
1.0
 40
1.0
 40
1.0
 40
1.0
 10
293.3429765806
 20
11.7977098344
 30
0.0
 10
293.1673894486
 20
11.7977098344
 30
0.0
 10
293.0050540933
 20
11.8275264774
 30
0.0
 10
292.8557035037
 20
11.8931750974
 30
0.0
  0
SPLINE
  5
2A2
100
AcDbEntity
  8
0
100
AcDbSpline
 62
5
  6
CONTINUOUS
 70
0
 71
3
 72
8
 73
4
 74
0
 42
0.0000001
 43
0.0000001
 44
0.0000000001
 40
0.0
 40
0.0
 40
0.0
 40
0.0
 40
1.0
 40
1.0
 40
1.0
 40
1.0
 10
292.8557035037
 20
11.8931750974
 30
0.0
 10
292.7035740647
 20
11.9600451897
 30
0.0
 10
292.6141239903
 20
12.0958768462
 30
0.0
 10
292.5843072746
 20
12.3079066549
 30
0.0
  0
SPLINE
  5
2A3
100
AcDbEntity
  8
0
100
AcDbSpline
 62
5
  6
CONTINUOUS
 70
0
 71
3
 72
8
 73
4
 74
0
 42
0.0000001
 43
0.0000001
 44
0.0000000001
 40
0.0
 40
0.0
 40
0.0
 40
0.0
 40
1.0
 40
1.0
 40
1.0
 40
1.0
 10
288.0165054996
 20
13.351491196
 30
0.0
 10
288.0893907804
 20
13.8020546578
 30
0.0
 10
288.337863266
 20
14.027336316
 30
0.0
 10
288.7619230289
 20
14.027336316
 30
0.0
  0
SPLINE
  5
2A4
100
AcDbEntity
  8
0
100
AcDbSpline
 62
5
  6
CONTINUOUS
 70
0
 71
3
 72
8
 73
4
 74
0
 42
0.0000001
 43
0.0000001
 44
0.0000000001
 40
0.0
 40
0.0
 40
0.0
 40
0.0
 40
1.0
 40
1.0
 40
1.0
 40
1.0
 10
288.7619230289
 20
14.027336316
 30
0.0
 10
289.1859827919
 20
14.027336316
 30
0.0
 10
289.4212035007
 20
13.8020546578
 30
0.0
 10
289.4675848646
 20
13.351491196
 30
0.0
  0
SPLINE
  5
2A5
100
AcDbEntity
  8
0
100
AcDbSpline
 62
5
  6
CONTINUOUS
 70
0
 71
3
 72
8
 73
4
 74
0
 42
0.0000001
 43
0.0000001
 44
0.0000000001
 40
0.0
 40
0.0
 40
0.0
 40
0.0
 40
1.0
 40
1.0
 40
1.0
 40
1.0
 10
287.0623710693
 20
12.8943018459
 30
0.0
 10
287.0623710693
 20
12.35097522
 30
0.0
 10
287.2147675557
 20
11.9103506635
 30
0.0
 10
287.5195604736
 20
11.5724280832
 30
0.0
  0
SPLINE
  5
2A6
100
AcDbEntity
  8
0
100
AcDbSpline
 62
5
  6
CONTINUOUS
 70
0
 71
3
 72
8
 73
4
 74
0
 42
0.0000001
 43
0.0000001
 44
0.0000000001
 40
0.0
 40
0.0
 40
0.0
 40
0.0
 40
1.0
 40
1.0
 40
1.0
 40
1.0
 10
287.5195604736
 20
11.5724280832
 30
0.0
 10
287.8243534286
 20
11.2345054618
 30
0.0
 10
288.2384742136
 20
11.0688571259
 30
0.0
 10
288.7685489173
 20
11.0688571259
 30
0.0
  0
SPLINE
  5
2A7
100
AcDbEntity
  8
0
100
AcDbSpline
 62
5
  6
CONTINUOUS
 70
0
 71
3
 72
8
 73
4
 74
0
 42
0.0000001
 43
0.0000001
 44
0.0000000001
 40
0.0
 40
0.0
 40
0.0
 40
0.0
 40
1.0
 40
1.0
 40
1.0
 40
1.0
 10
288.7685489173
 20
11.0688571259
 30
0.0
 10
289.1097845669
 20
11.0688571259
 30
0.0
 10
289.4112644501
 20
11.1450553623
 30
0.0
 10
289.6689682234
 20
11.2887747816
 30
0.0
  0
SPLINE
  5
2A8
100
AcDbEntity
  8
0
100
AcDbSpline
 62
5
  6
CONTINUOUS
 70
0
 71
3
 72
8
 73
4
 74
0
 42
0.0000001
 43
0.0000001
 44
0.0000000001
 40
0.0
 40
0.0
 40
0.0
 40
0.0
 40
1.0
 40
1.0
 40
1.0
 40
1.0
 10
289.6689682234
 20
11.2887747816
 30
0.0
 10
289.9280872316
 20
11.4332834666
 30
0.0
 10
290.1633079405
 20
11.7314504783
 30
0.0
 10
290.3753378219
 20
12.1787009595
 30
0.0
  0
SPLINE
  5
2A9
100
AcDbEntity
  8
0
100
AcDbSpline
 62
5
  6
CONTINUOUS
 70
0
 71
3
 72
8
 73
4
 74
0
 42
0.0000001
 43
0.0000001
 44
0.0000000001
 40
0.0
 40
0.0
 40
0.0
 40
0.0
 40
1.0
 40
1.0
 40
1.0
 40
1.0
 10
289.4278292437
 20
12.1787009595
 30
0.0
 10
289.3052496547
 20
12.04618232
 30
0.0
 10
289.2025475855
 20
11.9633581339
 30
0.0
 10
289.1197234621
 20
11.930228499
 30
0.0
  0
SPLINE
  5
2AA
100
AcDbEntity
  8
0
100
AcDbSpline
 62
5
  6
CONTINUOUS
 70
0
 71
3
 72
8
 73
4
 74
0
 42
0.0000001
 43
0.0000001
 44
0.0000000001
 40
0.0
 40
0.0
 40
0.0
 40
0.0
 40
1.0
 40
1.0
 40
1.0
 40
1.0
 10
289.1197234621
 20
11.930228499
 30
0.0
 10
289.0368992133
 20
11.8970988141
 30
0.0
 10
288.9308842725
 20
11.8805339478
 30
0.0
 10
288.8016786499
 20
11.8805339478
 30
0.0
  0
SPLINE
  5
2AB
100
AcDbEntity
  8
0
100
AcDbSpline
 62
5
  6
CONTINUOUS
 70
0
 71
3
 72
8
 73
4
 74
0
 42
0.0000001
 43
0.0000001
 44
0.0000000001
 40
0.0
 40
0.0
 40
0.0
 40
0.0
 40
1.0
 40
1.0
 40
1.0
 40
1.0
 10
288.8016786499
 20
11.8805339478
 30
0.0
 10
288.3113595671
 20
11.8805339478
 30
0.0
 10
288.0463221426
 20
12.1521972607
 30
0.0
 10
288.0098795385
 20
12.698836758
 30
0.0
  0
SPLINE
  5
2AC
100
AcDbEntity
  8
0
100
AcDbSpline
 62
5
  6
CONTINUOUS
 70
0
 71
3
 72
8
 73
4
 74
0
 42
0.0000001
 43
0.0000001
 44
0.0000000001
 40
0.0
 40
0.0
 40
0.0
 40
0.0
 40
1.0
 40
1.0
 40
1.0
 40
1.0
 10
290.4150934429
 20
12.698836758
 30
0.0
 10
290.4084674091
 20
13.3051096867
 30
0.0
 10
290.335582201
 20
13.7457342432
 30
0.0
 10
290.1891243119
 20
14.0203428036
 30
0.0
  0
SPLINE
  5
2AD
100
AcDbEntity
  8
0
100
AcDbSpline
 62
5
  6
CONTINUOUS
 70
0
 71
3
 72
8
 73
4
 74
0
 42
0.0000001
 43
0.0000001
 44
0.0000000001
 40
0.0
 40
0.0
 40
0.0
 40
0.0
 40
1.0
 40
1.0
 40
1.0
 40
1.0
 10
290.1891243119
 20
14.0203428036
 30
0.0
 10
290.0440410776
 20
14.292373886
 30
0.0
 10
289.8485759897
 20
14.4977777336
 30
0.0
 10
289.6034165211
 20
14.6336093901
 30
0.0
  0
SPLINE
  5
2AE
100
AcDbEntity
  8
0
100
AcDbSpline
 62
5
  6
CONTINUOUS
 70
0
 71
3
 72
8
 73
4
 74
0
 42
0.0000001
 43
0.0000001
 44
0.0000000001
 40
0.0
 40
0.0
 40
0.0
 40
0.0
 40
1.0
 40
1.0
 40
1.0
 40
1.0
 10
289.6034165211
 20
14.6336093901
 30
0.0
 10
289.3582570524
 20
14.7694410466
 30
0.0
 10
289.0733418174
 20
14.8390132378
 30
0.0
 10
288.7486711068
 20
14.8390132378
 30
0.0
  0
SPLINE
  5
2AF
100
AcDbEntity
  8
0
100
AcDbSpline
 62
5
  6
CONTINUOUS
 70
0
 71
3
 72
8
 73
4
 74
0
 42
0.0000001
 43
0.0000001
 44
0.0000000001
 40
0.0
 40
0.0
 40
0.0
 40
0.0
 40
1.0
 40
1.0
 40
1.0
 40
1.0
 10
288.7486711068
 20
14.8390132378
 30
0.0
 10
288.1954057212
 20
14.8390132378
 30
0.0
 10
287.7746589024
 20
14.6634259604
 30
0.0
 10
287.489743862
 20
14.3122516565
 30
0.0
  0
SPLINE
  5
2B0
100
AcDbEntity
  8
0
100
AcDbSpline
 62
5
  6
CONTINUOUS
 70
0
 71
3
 72
8
 73
4
 74
0
 42
0.0000001
 43
0.0000001
 44
0.0000000001
 40
0.0
 40
0.0
 40
0.0
 40
0.0
 40
1.0
 40
1.0
 40
1.0
 40
1.0
 10
287.489743862
 20
14.3122516565
 30
0.0
 10
287.2048286505
 20
13.9610771416
 30
0.0
 10
287.0623710693
 20
13.4906358694
 30
0.0
 10
287.0623710693
 20
12.8943018459
 30
0.0
  0
SPLINE
  5
2B1
100
AcDbEntity
  8
0
100
AcDbSpline
 62
5
  6
CONTINUOUS
 70
0
 71
3
 72
8
 73
4
 74
0
 42
0.0000001
 43
0.0000001
 44
0.0000000001
 40
0.0
 40
0.0
 40
0.0
 40
0.0
 40
1.0
 40
1.0
 40
1.0
 40
1.0
 10
323.1556764588
 20
10.8343018114
 30
0.0
 10
323.209149424
 20
10.5420003539
 30
0.0
 10
323.3054007927
 20
10.3259514808
 30
0.0
 10
323.4434383104
 20
10.1885457171
 30
0.0
  0
SPLINE
  5
2B2
100
AcDbEntity
  8
0
100
AcDbSpline
 62
5
  6
CONTINUOUS
 70
0
 71
3
 72
8
 73
4
 74
0
 42
0.0000001
 43
0.0000001
 44
0.0000000001
 40
0.0
 40
0.0
 40
0.0
 40
0.0
 40
1.0
 40
1.0
 40
1.0
 40
1.0
 10
323.4434383104
 20
10.1885457171
 30
0.0
 10
323.5057170349
 20
10.1265520226
 30
0.0
 10
323.577442345
 20
10.0723361426
 30
0.0
 10
323.6587412443
 20
10.0257665208
 30
0.0
  0
SPLINE
  5
2B3
100
AcDbEntity
  8
0
100
AcDbSpline
 62
5
  6
CONTINUOUS
 70
0
 71
3
 72
8
 73
4
 74
0
 42
0.0000001
 43
0.0000001
 44
0.0000000001
 40
0.0
 40
0.0
 40
0.0
 40
0.0
 40
1.0
 40
1.0
 40
1.0
 40
1.0
 10
325.7901119005
 20
14.1481104636
 30
0.0
 10
325.6189982866
 20
14.364159267
 30
0.0
 10
325.4443197536
 20
14.5103099608
 30
0.0
 10
325.2583033909
 20
14.5820448327
 30
0.0
  0
SPLINE
  5
2B4
100
AcDbEntity
  8
0
100
AcDbSpline
 62
5
  6
CONTINUOUS
 70
0
 71
3
 72
8
 73
4
 74
0
 42
0.0000001
 43
0.0000001
 44
0.0000000001
 40
0.0
 40
0.0
 40
0.0
 40
0.0
 40
1.0
 40
1.0
 40
1.0
 40
1.0
 10
325.2583033909
 20
14.5820448327
 30
0.0
 10
325.0735739553
 20
14.6532834172
 30
0.0
 10
324.8703765388
 20
14.6914097094
 30
0.0
 10
324.6493549962
 20
14.6914097094
 30
0.0
  0
SPLINE
  5
2B5
100
AcDbEntity
  8
0
100
AcDbSpline
 62
5
  6
CONTINUOUS
 70
0
 71
3
 72
8
 73
4
 74
0
 42
0.0000001
 43
0.0000001
 44
0.0000000001
 40
0.0
 40
0.0
 40
0.0
 40
0.0
 40
1.0
 40
1.0
 40
1.0
 40
1.0
 10
324.6493549962
 20
14.6914097094
 30
0.0
 10
324.1716630327
 20
14.6914097094
 30
0.0
 10
323.7830927171
 20
14.529373107
 30
0.0
 10
323.4765142233
 20
14.2084769105
 30
0.0
  0
SPLINE
  5
2B6
100
AcDbEntity
  8
0
100
AcDbSpline
 62
5
  6
CONTINUOUS
 70
0
 71
3
 72
8
 73
4
 74
0
 42
0.0000001
 43
0.0000001
 44
0.0000000001
 40
0.0
 40
0.0
 40
0.0
 40
0.0
 40
1.0
 40
1.0
 40
1.0
 40
1.0
 10
323.4765142233
 20
14.2084769105
 30
0.0
 10
323.1699359005
 20
13.887580893
 30
0.0
 10
323.0166467062
 20
13.4332427633
 30
0.0
 10
323.0166467062
 20
12.8422855127
 30
0.0
  0
SPLINE
  5
2B7
100
AcDbEntity
  8
0
100
AcDbSpline
 62
5
  6
CONTINUOUS
 70
0
 71
3
 72
8
 73
4
 74
0
 42
0.0000001
 43
0.0000001
 44
0.0000000001
 40
0.0
 40
0.0
 40
0.0
 40
0.0
 40
1.0
 40
1.0
 40
1.0
 40
1.0
 10
323.0166467062
 20
12.8422855127
 30
0.0
 10
323.0166467062
 20
12.3212264412
 30
0.0
 10
323.1663710597
 20
11.911369009
 30
0.0
 10
323.4719821755
 20
11.6151001442
 30
0.0
  0
SPLINE
  5
2B8
100
AcDbEntity
  8
0
100
AcDbSpline
 62
5
  6
CONTINUOUS
 70
0
 71
3
 72
8
 73
4
 74
0
 42
0.0000001
 43
0.0000001
 44
0.0000000001
 40
0.0
 40
0.0
 40
0.0
 40
0.0
 40
1.0
 40
1.0
 40
1.0
 40
1.0
 10
323.4719821755
 20
11.6151001442
 30
0.0
 10
323.7759629571
 20
11.3204117758
 30
0.0
 10
324.1645333509
 20
11.1742610645
 30
0.0
 10
324.6422251579
 20
11.1742610645
 30
0.0
  0
SPLINE
  5
2B9
100
AcDbEntity
  8
0
100
AcDbSpline
 62
5
  6
CONTINUOUS
 70
0
 71
3
 72
8
 73
4
 74
0
 42
0.0000001
 43
0.0000001
 44
0.0000000001
 40
0.0
 40
0.0
 40
0.0
 40
0.0
 40
1.0
 40
1.0
 40
1.0
 40
1.0
 10
324.6422251579
 20
11.1742610645
 30
0.0
 10
325.0119868296
 20
11.1742610645
 30
0.0
 10
325.3302019963
 20
11.2858319244
 30
0.0
 10
325.594833733
 20
11.5126042573
 30
0.0
  0
SPLINE
  5
2BA
100
AcDbEntity
  8
0
100
AcDbSpline
 62
5
  6
CONTINUOUS
 70
0
 71
3
 72
8
 73
4
 74
0
 42
0.0000001
 43
0.0000001
 44
0.0000000001
 40
0.0
 40
0.0
 40
0.0
 40
0.0
 40
1.0
 40
1.0
 40
1.0
 40
1.0
 10
323.0044592177
 20
14.6153691113
 30
0.0
 10
322.9311028117
 20
14.6217477466
 30
0.0
 10
322.8768830116
 20
14.6249372042
 30
0.0
 10
322.8386100798
 20
14.6249372042
 30
0.0
  0
SPLINE
  5
2BB
100
AcDbEntity
  8
0
100
AcDbSpline
 62
5
  6
CONTINUOUS
 70
0
 71
3
 72
8
 73
4
 74
0
 42
0.0000001
 43
0.0000001
 44
0.0000000001
 40
0.0
 40
0.0
 40
0.0
 40
0.0
 40
1.0
 40
1.0
 40
1.0
 40
1.0
 10
322.8386100798
 20
14.6249372042
 30
0.0
 10
322.5231383754
 20
14.6249372042
 30
0.0
 10
322.2470624875
 20
14.4673543993
 30
0.0
 10
322.0093449831
 20
14.1552961801
 30
0.0
  0
SPLINE
  5
2BC
100
AcDbEntity
  8
0
100
AcDbSpline
 62
5
  6
CONTINUOUS
 70
0
 71
3
 72
8
 73
4
 74
0
 42
0.0000001
 43
0.0000001
 44
0.0000000001
 40
0.0
 40
0.0
 40
0.0
 40
0.0
 40
1.0
 40
1.0
 40
1.0
 40
1.0
 10
319.1832441414
 20
14.000701899
 30
0.0
 10
319.6482164253
 20
14.000701899
 30
0.0
 10
319.9061308039
 20
13.7754202409
 30
0.0
 10
319.9569869581
 20
13.3248567791
 30
0.0
  0
SPLINE
  5
2BD
100
AcDbEntity
  8
0
100
AcDbSpline
 62
5
  6
CONTINUOUS
 70
0
 71
3
 72
8
 73
4
 74
0
 42
0.0000001
 43
0.0000001
 44
0.0000000001
 40
0.0
 40
0.0
 40
0.0
 40
0.0
 40
1.0
 40
1.0
 40
1.0
 40
1.0
 10
318.3659100735
 20
13.3248567791
 30
0.0
 10
318.4458271947
 20
13.7754202409
 30
0.0
 10
318.7182718575
 20
14.000701899
 30
0.0
 10
319.1832441414
 20
14.000701899
 30
0.0
  0
SPLINE
  5
2BE
100
AcDbEntity
  8
0
100
AcDbSpline
 62
5
  6
CONTINUOUS
 70
0
 71
3
 72
8
 73
4
 74
0
 42
0.0000001
 43
0.0000001
 44
0.0000000001
 40
0.0
 40
0.0
 40
0.0
 40
0.0
 40
1.0
 40
1.0
 40
1.0
 40
1.0
 10
316.3495329051
 20
12.854004119
 30
0.0
 10
316.3495329051
 20
12.1471963325
 30
0.0
 10
316.070687063
 20
11.7937923334
 30
0.0
 10
315.5198811627
 20
11.7937923334
 30
0.0
  0
SPLINE
  5
2BF
100
AcDbEntity
  8
0
100
AcDbSpline
 62
5
  6
CONTINUOUS
 70
0
 71
3
 72
8
 73
4
 74
0
 42
0.0000001
 43
0.0000001
 44
0.0000000001
 40
0.0
 40
0.0
 40
0.0
 40
0.0
 40
1.0
 40
1.0
 40
1.0
 40
1.0
 10
315.5198811627
 20
11.7937923334
 30
0.0
 10
315.3615244513
 20
11.7937923334
 30
0.0
 10
315.2272654149
 20
11.8259199569
 30
0.0
 10
315.1165637651
 20
11.892603689
 30
0.0
  0
SPLINE
  5
2C0
100
AcDbEntity
  8
0
100
AcDbSpline
 62
5
  6
CONTINUOUS
 70
0
 71
3
 72
8
 73
4
 74
0
 42
0.0000001
 43
0.0000001
 44
0.0000000001
 40
0.0
 40
0.0
 40
0.0
 40
0.0
 40
1.0
 40
1.0
 40
1.0
 40
1.0
 10
315.1165637651
 20
11.892603689
 30
0.0
 10
314.8485862829
 20
12.0540262033
 30
0.0
 10
314.7143273976
 20
12.3656642143
 30
0.0
 10
314.7143273976
 20
12.8347275309
 30
0.0
  0
SPLINE
  5
2C1
100
AcDbEntity
  8
0
100
AcDbSpline
 62
5
  6
CONTINUOUS
 70
0
 71
3
 72
8
 73
4
 74
0
 42
0.0000001
 43
0.0000001
 44
0.0000000001
 40
0.0
 40
0.0
 40
0.0
 40
0.0
 40
1.0
 40
1.0
 40
1.0
 40
1.0
 10
314.7143273976
 20
12.8347275309
 30
0.0
 10
314.7143273976
 20
13.2106208593
 30
0.0
 10
314.8176035795
 20
13.4933440586
 30
0.0
 10
315.0310078137
 20
13.6829294804
 30
0.0
  0
SPLINE
  5
2C2
100
AcDbEntity
  8
0
100
AcDbSpline
 62
5
  6
CONTINUOUS
 70
0
 71
3
 72
8
 73
4
 74
0
 42
0.0000001
 43
0.0000001
 44
0.0000000001
 40
0.0
 40
0.0
 40
0.0
 40
0.0
 40
1.0
 40
1.0
 40
1.0
 40
1.0
 10
315.0310078137
 20
13.6829294804
 30
0.0
 10
315.1756274751
 20
13.8114076224
 30
0.0
 10
315.3477542433
 20
13.8756627283
 30
0.0
 10
315.5508640173
 20
13.8756627283
 30
0.0
  0
SPLINE
  5
2C3
100
AcDbEntity
  8
0
100
AcDbSpline
 62
5
  6
CONTINUOUS
 70
0
 71
3
 72
8
 73
4
 74
0
 42
0.0000001
 43
0.0000001
 44
0.0000000001
 40
0.0
 40
0.0
 40
0.0
 40
0.0
 40
1.0
 40
1.0
 40
1.0
 40
1.0
 10
315.5508640173
 20
13.8756627283
 30
0.0
 10
315.7918416742
 20
13.8756627283
 30
0.0
 10
315.9880664197
 20
13.7857054108
 30
0.0
 10
316.1326529395
 20
13.6122162388
 30
0.0
  0
SPLINE
  5
2C4
100
AcDbEntity
  8
0
100
AcDbSpline
 62
5
  6
CONTINUOUS
 70
0
 71
3
 72
8
 73
4
 74
0
 42
0.0000001
 43
0.0000001
 44
0.0000000001
 40
0.0
 40
0.0
 40
0.0
 40
0.0
 40
1.0
 40
1.0
 40
1.0
 40
1.0
 10
316.1326529395
 20
13.6122162388
 30
0.0
 10
316.2772394267
 20
13.4387271057
 30
0.0
 10
316.3495329051
 20
13.1849187888
 30
0.0
 10
316.3495329051
 20
12.854004119
 30
0.0
  0
SPLINE
  5
2C5
100
AcDbEntity
  8
0
100
AcDbSpline
 62
5
  6
CONTINUOUS
 70
0
 71
3
 72
8
 73
4
 74
0
 42
0.0000001
 43
0.0000001
 44
0.0000000001
 40
0.0
 40
0.0
 40
0.0
 40
0.0
 40
1.0
 40
1.0
 40
1.0
 40
1.0
 10
314.6867871328
 20
11.7070477572
 30
0.0
 10
314.8520288727
 20
11.2379843524
 30
0.0
 10
315.2134953581
 20
11.0066654089
 30
0.0
 10
315.7711864379
 20
11.0066654089
 30
0.0
  0
SPLINE
  5
2C6
100
AcDbEntity
  8
0
100
AcDbSpline
 62
5
  6
CONTINUOUS
 70
0
 71
3
 72
8
 73
4
 74
0
 42
0.0000001
 43
0.0000001
 44
0.0000000001
 40
0.0
 40
0.0
 40
0.0
 40
0.0
 40
1.0
 40
1.0
 40
1.0
 40
1.0
 10
315.7711864379
 20
11.0066654089
 30
0.0
 10
316.2359289539
 20
11.0066654089
 30
0.0
 10
316.6111654962
 20
11.1769418511
 30
0.0
 10
316.9003386976
 20
11.517494802
 30
0.0
  0
SPLINE
  5
2C7
100
AcDbEntity
  8
0
100
AcDbSpline
 62
5
  6
CONTINUOUS
 70
0
 71
3
 72
8
 73
4
 74
0
 42
0.0000001
 43
0.0000001
 44
0.0000000001
 40
0.0
 40
0.0
 40
0.0
 40
0.0
 40
1.0
 40
1.0
 40
1.0
 40
1.0
 10
316.9003386976
 20
11.517494802
 30
0.0
 10
317.1523505827
 20
11.814283684
 30
0.0
 10
317.2945494453
 20
12.2013557114
 30
0.0
 10
317.3269351566
 20
12.6765843566
 30
0.0
  0
SPLINE
  5
2C8
100
AcDbEntity
  8
0
100
AcDbSpline
 62
5
  6
CONTINUOUS
 70
0
 71
3
 72
8
 73
4
 74
0
 42
0.0000001
 43
0.0000001
 44
0.0000000001
 40
0.0
 40
0.0
 40
0.0
 40
0.0
 40
1.0
 40
1.0
 40
1.0
 40
1.0
 10
317.3269351566
 20
12.6765843566
 30
0.0
 10
317.362213857
 20
12.220112638
 30
0.0
 10
317.5269090477
 20
11.843182429
 30
0.0
 10
317.8210206877
 20
11.5457936663
 30
0.0
  0
SPLINE
  5
2C9
100
AcDbEntity
  8
0
100
AcDbSpline
 62
5
  6
CONTINUOUS
 70
0
 71
3
 72
8
 73
4
 74
0
 42
0.0000001
 43
0.0000001
 44
0.0000000001
 40
0.0
 40
0.0
 40
0.0
 40
0.0
 40
1.0
 40
1.0
 40
1.0
 40
1.0
 10
317.8210206877
 20
11.5457936663
 30
0.0
 10
318.1552195173
 20
11.2078710448
 30
0.0
 10
318.6092939286
 20
11.042222709
 30
0.0
 10
319.1905092835
 20
11.042222709
 30
0.0
  0
SPLINE
  5
2CA
100
AcDbEntity
  8
0
100
AcDbSpline
 62
5
  6
CONTINUOUS
 70
0
 71
3
 72
8
 73
4
 74
0
 42
0.0000001
 43
0.0000001
 44
0.0000000001
 40
0.0
 40
0.0
 40
0.0
 40
0.0
 40
1.0
 40
1.0
 40
1.0
 40
1.0
 10
319.1905092835
 20
11.042222709
 30
0.0
 10
319.564666733
 20
11.042222709
 30
0.0
 10
319.8952328515
 20
11.1184209454
 30
0.0
 10
320.1777994201
 20
11.2621403647
 30
0.0
  0
SPLINE
  5
2CB
100
AcDbEntity
  8
0
100
AcDbSpline
 62
5
  6
CONTINUOUS
 70
0
 71
3
 72
8
 73
4
 74
0
 42
0.0000001
 43
0.0000001
 44
0.0000000001
 40
0.0
 40
0.0
 40
0.0
 40
0.0
 40
1.0
 40
1.0
 40
1.0
 40
1.0
 10
320.1777994201
 20
11.2621403647
 30
0.0
 10
320.4619177628
 20
11.4066490496
 30
0.0
 10
320.7198321413
 20
11.7048160614
 30
0.0
 10
320.9523182833
 20
12.1520665426
 30
0.0
  0
SPLINE
  5
2CC
100
AcDbEntity
  8
0
100
AcDbSpline
 62
5
  6
CONTINUOUS
 70
0
 71
3
 72
8
 73
4
 74
0
 42
0.0000001
 43
0.0000001
 44
0.0000000001
 40
0.0
 40
0.0
 40
0.0
 40
0.0
 40
1.0
 40
1.0
 40
1.0
 40
1.0
 10
319.9133957865
 20
12.1520665426
 30
0.0
 10
319.77898994
 20
12.0195479031
 30
0.0
 10
319.6663793603
 20
11.936723717
 30
0.0
 10
319.5755645149
 20
11.9035940822
 30
0.0
  0
SPLINE
  5
2CD
100
AcDbEntity
  8
0
100
AcDbSpline
 62
5
  6
CONTINUOUS
 70
0
 71
3
 72
8
 73
4
 74
0
 42
0.0000001
 43
0.0000001
 44
0.0000000001
 40
0.0
 40
0.0
 40
0.0
 40
0.0
 40
1.0
 40
1.0
 40
1.0
 40
1.0
 10
319.5755645149
 20
11.9035940822
 30
0.0
 10
319.484749532
 20
11.8704643972
 30
0.0
 10
319.368506461
 20
11.8538995309
 30
0.0
 10
319.2268353129
 20
11.8538995309
 30
0.0
  0
SPLINE
  5
2CE
100
AcDbEntity
  8
0
100
AcDbSpline
 62
5
  6
CONTINUOUS
 70
0
 71
3
 72
8
 73
4
 74
0
 42
0.0000001
 43
0.0000001
 44
0.0000000001
 40
0.0
 40
0.0
 40
0.0
 40
0.0
 40
1.0
 40
1.0
 40
1.0
 40
1.0
 10
319.2268353129
 20
11.8538995309
 30
0.0
 10
318.6892111296
 20
11.8538995309
 30
0.0
 10
318.3986033724
 20
12.1255628438
 30
0.0
 10
318.3586448516
 20
12.6722023411
 30
0.0
  0
SPLINE
  5
2CF
100
AcDbEntity
  8
0
100
AcDbSpline
 62
5
  6
CONTINUOUS
 70
0
 71
3
 72
8
 73
4
 74
0
 42
0.0000001
 43
0.0000001
 44
0.0000000001
 40
0.0
 40
0.0
 40
0.0
 40
0.0
 40
1.0
 40
1.0
 40
1.0
 40
1.0
 10
320.9959094548
 20
12.6722023411
 30
0.0
 10
320.9886441533
 20
13.2784752698
 30
0.0
 10
320.9087271117
 20
13.7190998263
 30
0.0
 10
320.7481392297
 20
13.9937083867
 30
0.0
  0
SPLINE
  5
2D0
100
AcDbEntity
  8
0
100
AcDbSpline
 62
5
  6
CONTINUOUS
 70
0
 71
3
 72
8
 73
4
 74
0
 42
0.0000001
 43
0.0000001
 44
0.0000000001
 40
0.0
 40
0.0
 40
0.0
 40
0.0
 40
1.0
 40
1.0
 40
1.0
 40
1.0
 10
320.7481392297
 20
13.9937083867
 30
0.0
 10
320.5890586267
 20
14.265739469
 30
0.0
 10
320.3747354197
 20
14.4711433168
 30
0.0
 10
320.1059234077
 20
14.6069749732
 30
0.0
  0
SPLINE
  5
2D1
100
AcDbEntity
  8
0
100
AcDbSpline
 62
5
  6
CONTINUOUS
 70
0
 71
3
 72
8
 73
4
 74
0
 42
0.0000001
 43
0.0000001
 44
0.0000000001
 40
0.0
 40
0.0
 40
0.0
 40
0.0
 40
1.0
 40
1.0
 40
1.0
 40
1.0
 10
320.1059234077
 20
14.6069749732
 30
0.0
 10
319.8371113957
 20
14.7428066297
 30
0.0
 10
319.5247080528
 20
14.8123788209
 30
0.0
 10
319.1687136977
 20
14.8123788209
 30
0.0
  0
SPLINE
  5
2D2
100
AcDbEntity
  8
0
100
AcDbSpline
 62
5
  6
CONTINUOUS
 70
0
 71
3
 72
8
 73
4
 74
0
 42
0.0000001
 43
0.0000001
 44
0.0000000001
 40
0.0
 40
0.0
 40
0.0
 40
0.0
 40
1.0
 40
1.0
 40
1.0
 40
1.0
 10
319.1687136977
 20
14.8123788209
 30
0.0
 10
318.5620702657
 20
14.8123788209
 30
0.0
 10
318.1007305528
 20
14.6367915435
 30
0.0
 10
317.7883274233
 20
14.2856172396
 30
0.0
  0
SPLINE
  5
2D3
100
AcDbEntity
  8
0
100
AcDbSpline
 62
5
  6
CONTINUOUS
 70
0
 71
3
 72
8
 73
4
 74
0
 42
0.0000001
 43
0.0000001
 44
0.0000000001
 40
0.0
 40
0.0
 40
0.0
 40
0.0
 40
1.0
 40
1.0
 40
1.0
 40
1.0
 10
317.7883274233
 20
14.2856172396
 30
0.0
 10
317.5159845347
 20
13.979474902
 30
0.0
 10
317.3623514319
 20
13.5826924976
 30
0.0
 10
317.3274280793
 20
13.0908801504
 30
0.0
  0
SPLINE
  5
2D4
100
AcDbEntity
  8
0
100
AcDbSpline
 62
5
  6
CONTINUOUS
 70
0
 71
3
 72
8
 73
4
 74
0
 42
0.0000001
 43
0.0000001
 44
0.0000000001
 40
0.0
 40
0.0
 40
0.0
 40
0.0
 40
1.0
 40
1.0
 40
1.0
 40
1.0
 10
317.3274280793
 20
13.0908801504
 30
0.0
 10
317.2973195635
 20
13.5270048729
 30
0.0
 10
317.1652841256
 20
13.8857069868
 30
0.0
 10
316.9313216771
 20
14.1712370124
 30
0.0
  0
SPLINE
  5
2D5
100
AcDbEntity
  8
0
100
AcDbSpline
 62
5
  6
CONTINUOUS
 70
0
 71
3
 72
8
 73
4
 74
0
 42
0.0000001
 43
0.0000001
 44
0.0000000001
 40
0.0
 40
0.0
 40
0.0
 40
0.0
 40
1.0
 40
1.0
 40
1.0
 40
1.0
 10
316.9313216771
 20
14.1712370124
 30
0.0
 10
316.6628037382
 20
14.4989388914
 30
0.0
 10
316.287567196
 20
14.6627897498
 30
0.0
 10
315.8056118822
 20
14.6627897498
 30
0.0
  0
SPLINE
  5
2D6
100
AcDbEntity
  8
0
100
AcDbSpline
 62
5
  6
CONTINUOUS
 70
0
 71
3
 72
8
 73
4
 74
0
 42
0.0000001
 43
0.0000001
 44
0.0000000001
 40
0.0
 40
0.0
 40
0.0
 40
0.0
 40
1.0
 40
1.0
 40
1.0
 40
1.0
 10
315.8056118822
 20
14.6627897498
 30
0.0
 10
315.5852894616
 20
14.6627897498
 30
0.0
 10
315.3856222775
 20
14.6210237618
 30
0.0
 10
315.2062726577
 20
14.5381314137
 30
0.0
  0
SPLINE
  5
2D7
100
AcDbEntity
  8
0
100
AcDbSpline
 62
5
  6
CONTINUOUS
 70
0
 71
3
 72
8
 73
4
 74
0
 42
0.0000001
 43
0.0000001
 44
0.0000000001
 40
0.0
 40
0.0
 40
0.0
 40
0.0
 40
1.0
 40
1.0
 40
1.0
 40
1.0
 10
315.2062726577
 20
14.5381314137
 30
0.0
 10
315.0241557921
 20
14.4539600916
 30
0.0
 10
314.8623564909
 20
14.2901092331
 30
0.0
 10
314.7212124261
 20
14.0459392102
 30
0.0
  0
SPLINE
  5
2D8
100
AcDbEntity
  8
0
100
AcDbSpline
 62
5
  6
CONTINUOUS
 70
0
 71
3
 72
8
 73
4
 74
0
 42
0.0000001
 43
0.0000001
 44
0.0000000001
 40
0.0
 40
0.0
 40
0.0
 40
0.0
 40
1.0
 40
1.0
 40
1.0
 40
1.0
 10
310.304646698
 20
12.3026086242
 30
0.0
 10
310.3588888709
 20
11.4743669815
 30
0.0
 10
310.9352119494
 20
11.0635590952
 30
0.0
 10
312.037006046
 20
11.0635590952
 30
0.0
  0
SPLINE
  5
2D9
100
AcDbEntity
  8
0
100
AcDbSpline
 62
5
  6
CONTINUOUS
 70
0
 71
3
 72
8
 73
4
 74
0
 42
0.0000001
 43
0.0000001
 44
0.0000000001
 40
0.0
 40
0.0
 40
0.0
 40
0.0
 40
1.0
 40
1.0
 40
1.0
 40
1.0
 10
312.037006046
 20
11.0635590952
 30
0.0
 10
312.5658671766
 20
11.0635590952
 30
0.0
 10
312.962513099
 20
11.1761999652
 30
0.0
 10
313.2303337669
 20
11.4014816274
 30
0.0
  0
SPLINE
  5
2DA
100
AcDbEntity
  8
0
100
AcDbSpline
 62
5
  6
CONTINUOUS
 70
0
 71
3
 72
8
 73
4
 74
0
 42
0.0000001
 43
0.0000001
 44
0.0000000001
 40
0.0
 40
0.0
 40
0.0
 40
0.0
 40
1.0
 40
1.0
 40
1.0
 40
1.0
 10
313.2303337669
 20
11.4014816274
 30
0.0
 10
313.4981546035
 20
11.6267634316
 30
0.0
 10
313.6337599987
 20
11.9249304433
 30
0.0
 10
313.6337599987
 20
12.2959827359
 30
0.0
  0
SPLINE
  5
2DB
100
AcDbEntity
  8
0
100
AcDbSpline
 62
5
  6
CONTINUOUS
 70
0
 71
3
 72
8
 73
4
 74
0
 42
0.0000001
 43
0.0000001
 44
0.0000000001
 40
0.0
 40
0.0
 40
0.0
 40
0.0
 40
1.0
 40
1.0
 40
1.0
 40
1.0
 10
313.6337599987
 20
12.2959827359
 30
0.0
 10
313.6337599987
 20
12.4649440522
 30
0.0
 10
313.5998584267
 20
12.6140274854
 30
0.0
 10
313.5314940001
 20
12.7396271264
 30
0.0
  0
SPLINE
  5
2DC
100
AcDbEntity
  8
0
100
AcDbSpline
 62
5
  6
CONTINUOUS
 70
0
 71
3
 72
8
 73
4
 74
0
 42
0.0000001
 43
0.0000001
 44
0.0000000001
 40
0.0
 40
0.0
 40
0.0
 40
0.0
 40
1.0
 40
1.0
 40
1.0
 40
1.0
 10
313.5314940001
 20
12.7396271264
 30
0.0
 10
313.4303517571
 20
12.9254464192
 30
0.0
 10
313.2540647136
 20
13.0645909472
 30
0.0
 10
312.9962486325
 20
13.1602377157
 30
0.0
  0
SPLINE
  5
2DD
100
AcDbEntity
  8
0
100
AcDbSpline
 62
5
  6
CONTINUOUS
 70
0
 71
3
 72
8
 73
4
 74
0
 42
0.0000001
 43
0.0000001
 44
0.0000000001
 40
0.0
 40
0.0
 40
0.0
 40
0.0
 40
1.0
 40
1.0
 40
1.0
 40
1.0
 10
311.8268175792
 20
13.4488950892
 30
0.0
 10
311.7081628212
 20
13.4687728996
 30
0.0
 10
311.6098488873
 20
13.5019026322
 30
0.0
 10
311.5303035452
 20
13.5454340142
 30
0.0
  0
SPLINE
  5
2DE
100
AcDbEntity
  8
0
100
AcDbSpline
 62
5
  6
CONTINUOUS
 70
0
 71
3
 72
8
 73
4
 74
0
 42
0.0000001
 43
0.0000001
 44
0.0000000001
 40
0.0
 40
0.0
 40
0.0
 40
0.0
 40
1.0
 40
1.0
 40
1.0
 40
1.0
 10
311.5303035452
 20
13.5454340142
 30
0.0
 10
311.4403420689
 20
13.5946656508
 30
0.0
 10
311.3962703825
 20
13.6741767473
 30
0.0
 10
311.3962703825
 20
13.7868178673
 30
0.0
  0
SPLINE
  5
2DF
100
AcDbEntity
  8
0
100
AcDbSpline
 62
5
  6
CONTINUOUS
 70
0
 71
3
 72
8
 73
4
 74
0
 42
0.0000001
 43
0.0000001
 44
0.0000000001
 40
0.0
 40
0.0
 40
0.0
 40
0.0
 40
1.0
 40
1.0
 40
1.0
 40
1.0
 10
311.3962703825
 20
13.7868178673
 30
0.0
 10
311.3962703825
 20
13.8862066288
 30
0.0
 10
311.4437322559
 20
13.9624048538
 30
0.0
 10
311.5427881223
 20
14.0208193034
 30
0.0
  0
SPLINE
  5
2E0
100
AcDbEntity
  8
0
100
AcDbSpline
 62
5
  6
CONTINUOUS
 70
0
 71
3
 72
8
 73
4
 74
0
 42
0.0000001
 43
0.0000001
 44
0.0000000001
 40
0.0
 40
0.0
 40
0.0
 40
0.0
 40
1.0
 40
1.0
 40
1.0
 40
1.0
 10
311.5427881223
 20
14.0208193034
 30
0.0
 10
311.6403601236
 20
14.0783586998
 30
0.0
 10
311.7657951067
 20
14.108175561
 30
0.0
 10
311.914961101
 20
14.108175561
 30
0.0
  0
SPLINE
  5
2E1
100
AcDbEntity
  8
0
100
AcDbSpline
 62
5
  6
CONTINUOUS
 70
0
 71
3
 72
8
 73
4
 74
0
 42
0.0000001
 43
0.0000001
 44
0.0000000001
 40
0.0
 40
0.0
 40
0.0
 40
0.0
 40
1.0
 40
1.0
 40
1.0
 40
1.0
 10
311.914961101
 20
14.108175561
 30
0.0
 10
312.2810957871
 20
14.108175561
 30
0.0
 10
312.4912842539
 20
13.9491530771
 30
0.0
 10
312.5523065775
 20
13.6311084003
 30
0.0
  0
SPLINE
  5
2E2
100
AcDbEntity
  8
0
100
AcDbSpline
 62
5
  6
CONTINUOUS
 70
0
 71
3
 72
8
 73
4
 74
0
 42
0.0000001
 43
0.0000001
 44
0.0000000001
 40
0.0
 40
0.0
 40
0.0
 40
0.0
 40
1.0
 40
1.0
 40
1.0
 40
1.0
 10
313.521885317
 20
13.6311084003
 30
0.0
 10
313.4676432185
 20
14.4328462715
 30
0.0
 10
312.9320017139
 20
14.8337152071
 30
0.0
 10
311.914961101
 20
14.8337152071
 30
0.0
  0
SPLINE
  5
2E3
100
AcDbEntity
  8
0
100
AcDbSpline
 62
5
  6
CONTINUOUS
 70
0
 71
3
 72
8
 73
4
 74
0
 42
0.0000001
 43
0.0000001
 44
0.0000000001
 40
0.0
 40
0.0
 40
0.0
 40
0.0
 40
1.0
 40
1.0
 40
1.0
 40
1.0
 10
311.914961101
 20
14.8337152071
 30
0.0
 10
311.453902668
 20
14.8337152071
 30
0.0
 10
311.0911581688
 20
14.7277004118
 30
0.0
 10
310.8260520696
 20
14.5164828277
 30
0.0
  0
SPLINE
  5
2E4
100
AcDbEntity
  8
0
100
AcDbSpline
 62
5
  6
CONTINUOUS
 70
0
 71
3
 72
8
 73
4
 74
0
 42
0.0000001
 43
0.0000001
 44
0.0000000001
 40
0.0
 40
0.0
 40
0.0
 40
0.0
 40
1.0
 40
1.0
 40
1.0
 40
1.0
 10
310.8260520696
 20
14.5164828277
 30
0.0
 10
310.5589068884
 20
14.3036406488
 30
0.0
 10
310.4266915685
 20
14.0187255592
 30
0.0
 10
310.4266915685
 20
13.6609249706
 30
0.0
  0
SPLINE
  5
2E5
100
AcDbEntity
  8
0
100
AcDbSpline
 62
5
  6
CONTINUOUS
 70
0
 71
3
 72
8
 73
4
 74
0
 42
0.0000001
 43
0.0000001
 44
0.0000000001
 40
0.0
 40
0.0
 40
0.0
 40
0.0
 40
1.0
 40
1.0
 40
1.0
 40
1.0
 10
310.4266915685
 20
13.6609249706
 30
0.0
 10
310.4266915685
 20
13.2733079572
 30
0.0
 10
310.5656871507
 20
13.0115835495
 30
0.0
 10
310.8432775679
 20
12.8716824001
 30
0.0
  0
SPLINE
  5
2E6
100
AcDbEntity
  8
0
100
AcDbSpline
 62
5
  6
CONTINUOUS
 70
0
 71
3
 72
8
 73
4
 74
0
 42
0.0000001
 43
0.0000001
 44
0.0000000001
 40
0.0
 40
0.0
 40
0.0
 40
0.0
 40
1.0
 40
1.0
 40
1.0
 40
1.0
 10
310.8432775679
 20
12.8716824001
 30
0.0
 10
311.1047186935
 20
12.7399202366
 30
0.0
 10
311.450512481
 20
12.6405313296
 30
0.0
 10
311.8809086285
 20
12.5700860884
 30
0.0
  0
SPLINE
  5
2E7
100
AcDbEntity
  8
0
100
AcDbSpline
 62
5
  6
CONTINUOUS
 70
0
 71
3
 72
8
 73
4
 74
0
 42
0.0000001
 43
0.0000001
 44
0.0000000001
 40
0.0
 40
0.0
 40
0.0
 40
0.0
 40
1.0
 40
1.0
 40
1.0
 40
1.0
 10
311.8809086285
 20
12.5700860884
 30
0.0
 10
312.138710018
 20
12.5278903551
 30
0.0
 10
312.3421182596
 20
12.4715699406
 30
0.0
 10
312.4835089868
 20
12.403380997
 30
0.0
  0
SPLINE
  5
2E8
100
AcDbEntity
  8
0
100
AcDbSpline
 62
5
  6
CONTINUOUS
 70
0
 71
3
 72
8
 73
4
 74
0
 42
0.0000001
 43
0.0000001
 44
0.0000000001
 40
0.0
 40
0.0
 40
0.0
 40
0.0
 40
1.0
 40
1.0
 40
1.0
 40
1.0
 10
312.4835089868
 20
12.403380997
 30
0.0
 10
312.6031586379
 20
12.3456771894
 30
0.0
 10
312.6641811105
 20
12.2529141707
 30
0.0
 10
312.6641811105
 20
12.1203954584
 30
0.0
  0
SPLINE
  5
2E9
100
AcDbEntity
  8
0
100
AcDbSpline
 62
5
  6
CONTINUOUS
 70
0
 71
3
 72
8
 73
4
 74
0
 42
0.0000001
 43
0.0000001
 44
0.0000000001
 40
0.0
 40
0.0
 40
0.0
 40
0.0
 40
1.0
 40
1.0
 40
1.0
 40
1.0
 10
312.6641811105
 20
12.1203954584
 30
0.0
 10
312.6641811105
 20
12.0210064788
 30
0.0
 10
312.6031586379
 20
11.9414953096
 30
0.0
 10
312.4875334146
 20
11.8825422606
 30
0.0
  0
SPLINE
  5
2EA
100
AcDbEntity
  8
0
100
AcDbSpline
 62
5
  6
CONTINUOUS
 70
0
 71
3
 72
8
 73
4
 74
0
 42
0.0000001
 43
0.0000001
 44
0.0000000001
 40
0.0
 40
0.0
 40
0.0
 40
0.0
 40
1.0
 40
1.0
 40
1.0
 40
1.0
 10
312.4875334146
 20
11.8825422606
 30
0.0
 10
312.3692393089
 20
11.8222284467
 30
0.0
 10
312.2234635016
 20
11.7924118037
 30
0.0
 10
312.0505664962
 20
11.7924118037
 30
0.0
  0
SPLINE
  5
2EB
100
AcDbEntity
  8
0
100
AcDbSpline
 62
5
  6
CONTINUOUS
 70
0
 71
3
 72
8
 73
4
 74
0
 42
0.0000001
 43
0.0000001
 44
0.0000000001
 40
0.0
 40
0.0
 40
0.0
 40
0.0
 40
1.0
 40
1.0
 40
1.0
 40
1.0
 10
312.0505664962
 20
11.7924118037
 30
0.0
 10
311.8708894145
 20
11.7924118037
 30
0.0
 10
311.7047727831
 20
11.8222284467
 30
0.0
 10
311.5519433713
 20
11.8878770667
 30
0.0
  0
SPLINE
  5
2EC
100
AcDbEntity
  8
0
100
AcDbSpline
 62
5
  6
CONTINUOUS
 70
0
 71
3
 72
8
 73
4
 74
0
 42
0.0000001
 43
0.0000001
 44
0.0000000001
 40
0.0
 40
0.0
 40
0.0
 40
0.0
 40
1.0
 40
1.0
 40
1.0
 40
1.0
 10
311.5519433713
 20
11.8878770667
 30
0.0
 10
311.3962703825
 20
11.954747159
 30
0.0
 10
311.3047367481
 20
12.0905788154
 30
0.0
 10
311.2742255119
 20
12.3026086242
 30
0.0
  0
SPLINE
  5
2ED
100
AcDbEntity
  8
0
100
AcDbSpline
 62
5
  6
CONTINUOUS
 70
0
 71
3
 72
8
 73
4
 74
0
 42
0.0000001
 43
0.0000001
 44
0.0000000001
 40
0.0
 40
0.0
 40
0.0
 40
0.0
 40
1.0
 40
1.0
 40
1.0
 40
1.0
 10
306.6588342911
 20
13.3541931653
 30
0.0
 10
306.7387514124
 20
13.8047566271
 30
0.0
 10
307.0111960751
 20
14.0300382852
 30
0.0
 10
307.4761683591
 20
14.0300382852
 30
0.0
  0
SPLINE
  5
2EE
100
AcDbEntity
  8
0
100
AcDbSpline
 62
5
  6
CONTINUOUS
 70
0
 71
3
 72
8
 73
4
 74
0
 42
0.0000001
 43
0.0000001
 44
0.0000000001
 40
0.0
 40
0.0
 40
0.0
 40
0.0
 40
1.0
 40
1.0
 40
1.0
 40
1.0
 10
307.4761683591
 20
14.0300382852
 30
0.0
 10
307.941140643
 20
14.0300382852
 30
0.0
 10
308.1990550215
 20
13.8047566271
 30
0.0
 10
308.2499111757
 20
13.3541931653
 30
0.0
  0
SPLINE
  5
2EF
100
AcDbEntity
  8
0
100
AcDbSpline
 62
5
  6
CONTINUOUS
 70
0
 71
3
 72
8
 73
4
 74
0
 42
0.0000001
 43
0.0000001
 44
0.0000000001
 40
0.0
 40
0.0
 40
0.0
 40
0.0
 40
1.0
 40
1.0
 40
1.0
 40
1.0
 10
300.346961101
 20
14.8377152071
 30
0.0
 10
299.885902668
 20
14.8377152071
 30
0.0
 10
299.5231581688
 20
14.7317004118
 30
0.0
 10
299.2580520696
 20
14.5204828277
 30
0.0
  0
SPLINE
  5
2F0
100
AcDbEntity
  8
0
100
AcDbSpline
 62
5
  6
CONTINUOUS
 70
0
 71
3
 72
8
 73
4
 74
0
 42
0.0000001
 43
0.0000001
 44
0.0000000001
 40
0.0
 40
0.0
 40
0.0
 40
0.0
 40
1.0
 40
1.0
 40
1.0
 40
1.0
 10
299.2580520696
 20
14.5204828277
 30
0.0
 10
298.9909068884
 20
14.3076406488
 30
0.0
 10
298.8586915685
 20
14.0227255592
 30
0.0
 10
298.8586915685
 20
13.6649249706
 30
0.0
  0
SPLINE
  5
2F1
100
AcDbEntity
  8
0
100
AcDbSpline
 62
5
  6
CONTINUOUS
 70
0
 71
3
 72
8
 73
4
 74
0
 42
0.0000001
 43
0.0000001
 44
0.0000000001
 40
0.0
 40
0.0
 40
0.0
 40
0.0
 40
1.0
 40
1.0
 40
1.0
 40
1.0
 10
298.8586915685
 20
13.6649249706
 30
0.0
 10
298.8586915685
 20
13.2773079572
 30
0.0
 10
298.9976871507
 20
13.0155835495
 30
0.0
 10
299.2752775679
 20
12.8756824001
 30
0.0
  0
SPLINE
  5
2F2
100
AcDbEntity
  8
0
100
AcDbSpline
 62
5
  6
CONTINUOUS
 70
0
 71
3
 72
8
 73
4
 74
0
 42
0.0000001
 43
0.0000001
 44
0.0000000001
 40
0.0
 40
0.0
 40
0.0
 40
0.0
 40
1.0
 40
1.0
 40
1.0
 40
1.0
 10
299.2752775679
 20
12.8756824001
 30
0.0
 10
299.5367186935
 20
12.7439202366
 30
0.0
 10
299.882512481
 20
12.6445313296
 30
0.0
 10
300.3129086285
 20
12.5740860884
 30
0.0
  0
SPLINE
  5
2F3
100
AcDbEntity
  8
0
100
AcDbSpline
 62
5
  6
CONTINUOUS
 70
0
 71
3
 72
8
 73
4
 74
0
 42
0.0000001
 43
0.0000001
 44
0.0000000001
 40
0.0
 40
0.0
 40
0.0
 40
0.0
 40
1.0
 40
1.0
 40
1.0
 40
1.0
 10
300.3129086285
 20
12.5740860884
 30
0.0
 10
300.570710018
 20
12.5318903551
 30
0.0
 10
300.7741182596
 20
12.4755699406
 30
0.0
 10
300.9155089868
 20
12.407380997
 30
0.0
  0
SPLINE
  5
2F4
100
AcDbEntity
  8
0
100
AcDbSpline
 62
5
  6
CONTINUOUS
 70
0
 71
3
 72
8
 73
4
 74
0
 42
0.0000001
 43
0.0000001
 44
0.0000000001
 40
0.0
 40
0.0
 40
0.0
 40
0.0
 40
1.0
 40
1.0
 40
1.0
 40
1.0
 10
300.9155089868
 20
12.407380997
 30
0.0
 10
301.0351586379
 20
12.3496771894
 30
0.0
 10
301.0961811105
 20
12.2569141707
 30
0.0
 10
301.0961811105
 20
12.1243954584
 30
0.0
  0
SPLINE
  5
2F5
100
AcDbEntity
  8
0
100
AcDbSpline
 62
5
  6
CONTINUOUS
 70
0
 71
3
 72
8
 73
4
 74
0
 42
0.0000001
 43
0.0000001
 44
0.0000000001
 40
0.0
 40
0.0
 40
0.0
 40
0.0
 40
1.0
 40
1.0
 40
1.0
 40
1.0
 10
301.0961811105
 20
12.1243954584
 30
0.0
 10
301.0961811105
 20
12.0250064788
 30
0.0
 10
301.0351586379
 20
11.9454953096
 30
0.0
 10
300.9195334146
 20
11.8865422606
 30
0.0
  0
SPLINE
  5
2F6
100
AcDbEntity
  8
0
100
AcDbSpline
 62
5
  6
CONTINUOUS
 70
0
 71
3
 72
8
 73
4
 74
0
 42
0.0000001
 43
0.0000001
 44
0.0000000001
 40
0.0
 40
0.0
 40
0.0
 40
0.0
 40
1.0
 40
1.0
 40
1.0
 40
1.0
 10
300.9195334146
 20
11.8865422606
 30
0.0
 10
300.8012393089
 20
11.8262284467
 30
0.0
 10
300.6554635016
 20
11.7964118037
 30
0.0
 10
300.4825664962
 20
11.7964118037
 30
0.0
  0
SPLINE
  5
2F7
100
AcDbEntity
  8
0
100
AcDbSpline
 62
5
  6
CONTINUOUS
 70
0
 71
3
 72
8
 73
4
 74
0
 42
0.0000001
 43
0.0000001
 44
0.0000000001
 40
0.0
 40
0.0
 40
0.0
 40
0.0
 40
1.0
 40
1.0
 40
1.0
 40
1.0
 10
300.4825664962
 20
11.7964118037
 30
0.0
 10
300.3028894145
 20
11.7964118037
 30
0.0
 10
300.1367727831
 20
11.8262284467
 30
0.0
 10
299.9839433713
 20
11.8918770667
 30
0.0
  0
SPLINE
  5
2F8
100
AcDbEntity
  8
0
100
AcDbSpline
 62
5
  6
CONTINUOUS
 70
0
 71
3
 72
8
 73
4
 74
0
 42
0.0000001
 43
0.0000001
 44
0.0000000001
 40
0.0
 40
0.0
 40
0.0
 40
0.0
 40
1.0
 40
1.0
 40
1.0
 40
1.0
 10
299.9839433713
 20
11.8918770667
 30
0.0
 10
299.8282703825
 20
11.958747159
 30
0.0
 10
299.7367367481
 20
12.0945788154
 30
0.0
 10
299.7062255119
 20
12.3066086242
 30
0.0
  0
SPLINE
  5
2F9
100
AcDbEntity
  8
0
100
AcDbSpline
 62
5
  6
CONTINUOUS
 70
0
 71
3
 72
8
 73
4
 74
0
 42
0.0000001
 43
0.0000001
 44
0.0000000001
 40
0.0
 40
0.0
 40
0.0
 40
0.0
 40
1.0
 40
1.0
 40
1.0
 40
1.0
 10
298.736646698
 20
12.3066086242
 30
0.0
 10
298.7908888709
 20
11.4783669815
 30
0.0
 10
299.3672119494
 20
11.0675590952
 30
0.0
 10
300.469006046
 20
11.0675590952
 30
0.0
  0
SPLINE
  5
2FA
100
AcDbEntity
  8
0
100
AcDbSpline
 62
5
  6
CONTINUOUS
 70
0
 71
3
 72
8
 73
4
 74
0
 42
0.0000001
 43
0.0000001
 44
0.0000000001
 40
0.0
 40
0.0
 40
0.0
 40
0.0
 40
1.0
 40
1.0
 40
1.0
 40
1.0
 10
300.469006046
 20
11.0675590952
 30
0.0
 10
300.9978671766
 20
11.0675590952
 30
0.0
 10
301.394513099
 20
11.1801999652
 30
0.0
 10
301.6623337669
 20
11.4054816274
 30
0.0
  0
SPLINE
  5
2FB
100
AcDbEntity
  8
0
100
AcDbSpline
 62
5
  6
CONTINUOUS
 70
0
 71
3
 72
8
 73
4
 74
0
 42
0.0000001
 43
0.0000001
 44
0.0000000001
 40
0.0
 40
0.0
 40
0.0
 40
0.0
 40
1.0
 40
1.0
 40
1.0
 40
1.0
 10
301.6623337669
 20
11.4054816274
 30
0.0
 10
301.8772432581
 20
11.5862562023
 30
0.0
 10
302.0070184342
 20
11.8139619992
 30
0.0
 10
302.0499077253
 20
12.0885990558
 30
0.0
  0
SPLINE
  5
2FC
100
AcDbEntity
  8
0
100
AcDbSpline
 62
5
  6
CONTINUOUS
 70
0
 71
3
 72
8
 73
4
 74
0
 42
0.0000001
 43
0.0000001
 44
0.0000000001
 40
0.0
 40
0.0
 40
0.0
 40
0.0
 40
1.0
 40
1.0
 40
1.0
 40
1.0
 10
303.0470105273
 20
11.3525988614
 30
0.0
 10
303.1407403293
 20
11.2875641708
 30
0.0
 10
303.2311583027
 20
11.2416009321
 30
0.0
 10
303.3177741427
 20
11.2147091516
 30
0.0
  0
SPLINE
  5
2FD
100
AcDbEntity
  8
0
100
AcDbSpline
 62
5
  6
CONTINUOUS
 70
0
 71
3
 72
8
 73
4
 74
0
 42
0.0000001
 43
0.0000001
 44
0.0000000001
 40
0.0
 40
0.0
 40
0.0
 40
0.0
 40
1.0
 40
1.0
 40
1.0
 40
1.0
 10
303.3177741427
 20
11.2147091516
 30
0.0
 10
303.4672293091
 20
11.1683075288
 30
0.0
 10
303.6308344836
 20
11.1399729019
 30
0.0
 10
303.808589771
 20
11.1342992693
 30
0.0
  0
SPLINE
  5
2FE
100
AcDbEntity
  8
0
100
AcDbSpline
 62
5
  6
CONTINUOUS
 70
0
 71
3
 72
8
 73
4
 74
0
 42
0.0000001
 43
0.0000001
 44
0.0000000001
 40
0.0
 40
0.0
 40
0.0
 40
0.0
 40
1.0
 40
1.0
 40
1.0
 40
1.0
 10
305.6392443432
 20
12.5378979906
 30
0.0
 10
305.698492677
 20
12.156137428
 30
0.0
 10
305.8567262068
 20
11.8352147962
 30
0.0
 10
306.1139449054
 20
11.5751300525
 30
0.0
  0
SPLINE
  5
2FF
100
AcDbEntity
  8
0
100
AcDbSpline
 62
5
  6
CONTINUOUS
 70
0
 71
3
 72
8
 73
4
 74
0
 42
0.0000001
 43
0.0000001
 44
0.0000000001
 40
0.0
 40
0.0
 40
0.0
 40
0.0
 40
1.0
 40
1.0
 40
1.0
 40
1.0
 10
306.1139449054
 20
11.5751300525
 30
0.0
 10
306.4481437349
 20
11.237207431
 30
0.0
 10
306.9022181462
 20
11.0715590952
 30
0.0
 10
307.4834335011
 20
11.0715590952
 30
0.0
  0
SPLINE
  5
300
100
AcDbEntity
  8
0
100
AcDbSpline
 62
5
  6
CONTINUOUS
 70
0
 71
3
 72
8
 73
4
 74
0
 42
0.0000001
 43
0.0000001
 44
0.0000000001
 40
0.0
 40
0.0
 40
0.0
 40
0.0
 40
1.0
 40
1.0
 40
1.0
 40
1.0
 10
307.4834335011
 20
11.0715590952
 30
0.0
 10
307.8575909507
 20
11.0715590952
 30
0.0
 10
308.1881570692
 20
11.1477573316
 30
0.0
 10
308.4707236377
 20
11.2914767509
 30
0.0
  0
SPLINE
  5
301
100
AcDbEntity
  8
0
100
AcDbSpline
 62
5
  6
CONTINUOUS
 70
0
 71
3
 72
8
 73
4
 74
0
 42
0.0000001
 43
0.0000001
 44
0.0000000001
 40
0.0
 40
0.0
 40
0.0
 40
0.0
 40
1.0
 40
1.0
 40
1.0
 40
1.0
 10
308.4707236377
 20
11.2914767509
 30
0.0
 10
308.7548419804
 20
11.4359854358
 30
0.0
 10
309.0127563589
 20
11.7341524476
 30
0.0
 10
309.2452425009
 20
12.1814029288
 30
0.0
  0
SPLINE
  5
302
100
AcDbEntity
  8
0
100
AcDbSpline
 62
5
  6
CONTINUOUS
 70
0
 71
3
 72
8
 73
4
 74
0
 42
0.0000001
 43
0.0000001
 44
0.0000000001
 40
0.0
 40
0.0
 40
0.0
 40
0.0
 40
1.0
 40
1.0
 40
1.0
 40
1.0
 10
308.2063200042
 20
12.1814029288
 30
0.0
 10
308.0719141577
 20
12.0488842892
 30
0.0
 10
307.959303578
 20
11.9660601032
 30
0.0
 10
307.8684887326
 20
11.9329304684
 30
0.0
  0
SPLINE
  5
303
100
AcDbEntity
  8
0
100
AcDbSpline
 62
5
  6
CONTINUOUS
 70
0
 71
3
 72
8
 73
4
 74
0
 42
0.0000001
 43
0.0000001
 44
0.0000000001
 40
0.0
 40
0.0
 40
0.0
 40
0.0
 40
1.0
 40
1.0
 40
1.0
 40
1.0
 10
307.8684887326
 20
11.9329304684
 30
0.0
 10
307.7776737497
 20
11.8998007834
 30
0.0
 10
307.6614306787
 20
11.8832359171
 30
0.0
 10
307.5197595306
 20
11.8832359171
 30
0.0
  0
SPLINE
  5
304
100
AcDbEntity
  8
0
100
AcDbSpline
 62
5
  6
CONTINUOUS
 70
0
 71
3
 72
8
 73
4
 74
0
 42
0.0000001
 43
0.0000001
 44
0.0000000001
 40
0.0
 40
0.0
 40
0.0
 40
0.0
 40
1.0
 40
1.0
 40
1.0
 40
1.0
 10
307.5197595306
 20
11.8832359171
 30
0.0
 10
306.9821353472
 20
11.8832359171
 30
0.0
 10
306.69152759
 20
12.15489923
 30
0.0
 10
306.6515690693
 20
12.7015387273
 30
0.0
  0
SPLINE
  5
305
100
AcDbEntity
  8
0
100
AcDbSpline
 62
5
  6
CONTINUOUS
 70
0
 71
3
 72
8
 73
4
 74
0
 42
0.0000001
 43
0.0000001
 44
0.0000000001
 40
0.0
 40
0.0
 40
0.0
 40
0.0
 40
1.0
 40
1.0
 40
1.0
 40
1.0
 10
309.260646698
 20
13.2199311408
 30
0.0
 10
309.223943864
 20
13.5662433803
 30
0.0
 10
309.1516216941
 20
13.8339879112
 30
0.0
 10
309.0410634473
 20
14.0230447729
 30
0.0
  0
SPLINE
  5
306
100
AcDbEntity
  8
0
100
AcDbSpline
 62
5
  6
CONTINUOUS
 70
0
 71
3
 72
8
 73
4
 74
0
 42
0.0000001
 43
0.0000001
 44
0.0000000001
 40
0.0
 40
0.0
 40
0.0
 40
0.0
 40
1.0
 40
1.0
 40
1.0
 40
1.0
 10
309.0410634473
 20
14.0230447729
 30
0.0
 10
308.8819828443
 20
14.2950758552
 30
0.0
 10
308.6676596373
 20
14.500479703
 30
0.0
 10
308.3988476254
 20
14.6363113594
 30
0.0
  0
SPLINE
  5
307
100
AcDbEntity
  8
0
100
AcDbSpline
 62
5
  6
CONTINUOUS
 70
0
 71
3
 72
8
 73
4
 74
0
 42
0.0000001
 43
0.0000001
 44
0.0000000001
 40
0.0
 40
0.0
 40
0.0
 40
0.0
 40
1.0
 40
1.0
 40
1.0
 40
1.0
 10
308.3988476254
 20
14.6363113594
 30
0.0
 10
308.1300356134
 20
14.7721430158
 30
0.0
 10
307.8176322704
 20
14.8417152071
 30
0.0
 10
307.4616379154
 20
14.8417152071
 30
0.0
  0
SPLINE
  5
308
100
AcDbEntity
  8
0
100
AcDbSpline
 62
5
  6
CONTINUOUS
 70
0
 71
3
 72
8
 73
4
 74
0
 42
0.0000001
 43
0.0000001
 44
0.0000000001
 40
0.0
 40
0.0
 40
0.0
 40
0.0
 40
1.0
 40
1.0
 40
1.0
 40
1.0
 10
307.4616379154
 20
14.8417152071
 30
0.0
 10
306.8549944833
 20
14.8417152071
 30
0.0
 10
306.3936547705
 20
14.6661279297
 30
0.0
 10
306.0812516409
 20
14.3149536258
 30
0.0
  0
SPLINE
  5
309
100
AcDbEntity
  8
0
100
AcDbSpline
 62
5
  6
CONTINUOUS
 70
0
 71
3
 72
8
 73
4
 74
0
 42
0.0000001
 43
0.0000001
 44
0.0000000001
 40
0.0
 40
0.0
 40
0.0
 40
0.0
 40
1.0
 40
1.0
 40
1.0
 40
1.0
 10
306.0812516409
 20
14.3149536258
 30
0.0
 10
305.8484415613
 20
14.0532503651
 30
0.0
 10
305.7023791882
 20
13.7253114705
 30
0.0
 10
305.6430644992
 20
13.3283946768
 30
0.0
  0
SPLINE
  5
30A
100
AcDbEntity
  8
0
100
AcDbSpline
 62
5
  6
CONTINUOUS
 70
0
 71
3
 72
8
 73
4
 74
0
 42
0.0000001
 43
0.0000001
 44
0.0000000001
 40
0.0
 40
0.0
 40
0.0
 40
0.0
 40
1.0
 40
1.0
 40
1.0
 40
1.0
 10
305.0721393777
 20
14.3658292699
 30
0.0
 10
304.7791495633
 20
14.6819190311
 30
0.0
 10
304.3825415199
 20
14.841593008
 30
0.0
 10
303.8858884263
 20
14.841593008
 30
0.0
  0
SPLINE
  5
30B
100
AcDbEntity
  8
0
100
AcDbSpline
 62
5
  6
CONTINUOUS
 70
0
 71
3
 72
8
 73
4
 74
0
 42
0.0000001
 43
0.0000001
 44
0.0000000001
 40
0.0
 40
0.0
 40
0.0
 40
0.0
 40
1.0
 40
1.0
 40
1.0
 40
1.0
 10
303.8858884263
 20
14.841593008
 30
0.0
 10
303.6679326731
 20
14.841593008
 30
0.0
 10
303.4785612424
 20
14.8090065288
 30
0.0
 10
303.3174861192
 20
14.7444341341
 30
0.0
  0
SPLINE
  5
30C
100
AcDbEntity
  8
0
100
AcDbSpline
 62
5
  6
CONTINUOUS
 70
0
 71
3
 72
8
 73
4
 74
0
 42
0.0000001
 43
0.0000001
 44
0.0000000001
 40
0.0
 40
0.0
 40
0.0
 40
0.0
 40
1.0
 40
1.0
 40
1.0
 40
1.0
 10
303.3174861192
 20
14.7444341341
 30
0.0
 10
303.2165526849
 20
14.7039715634
 30
0.0
 10
303.1101015083
 20
14.636605523
 30
0.0
 10
302.9965359
 20
14.5421961959
 30
0.0
  0
SPLINE
  5
30D
100
AcDbEntity
  8
0
100
AcDbSpline
 62
5
  6
CONTINUOUS
 70
0
 71
3
 72
8
 73
4
 74
0
 42
0.0000001
 43
0.0000001
 44
0.0000000001
 40
0.0
 40
0.0
 40
0.0
 40
0.0
 40
1.0
 40
1.0
 40
1.0
 40
1.0
 10
302.0499077253
 20
12.4903864011
 30
0.0
 10
302.0336606073
 20
12.5828795539
 30
0.0
 10
302.0048975931
 20
12.6675601326
 30
0.0
 10
301.9634940001
 20
12.7436271264
 30
0.0
  0
SPLINE
  5
30E
100
AcDbEntity
  8
0
100
AcDbSpline
 62
5
  6
CONTINUOUS
 70
0
 71
3
 72
8
 73
4
 74
0
 42
0.0000001
 43
0.0000001
 44
0.0000000001
 40
0.0
 40
0.0
 40
0.0
 40
0.0
 40
1.0
 40
1.0
 40
1.0
 40
1.0
 10
301.9634940001
 20
12.7436271264
 30
0.0
 10
301.8623517571
 20
12.9294464192
 30
0.0
 10
301.6860647136
 20
13.0685909472
 30
0.0
 10
301.4282486325
 20
13.1642377157
 30
0.0
  0
SPLINE
  5
30F
100
AcDbEntity
  8
0
100
AcDbSpline
 62
5
  6
CONTINUOUS
 70
0
 71
3
 72
8
 73
4
 74
0
 42
0.0000001
 43
0.0000001
 44
0.0000000001
 40
0.0
 40
0.0
 40
0.0
 40
0.0
 40
1.0
 40
1.0
 40
1.0
 40
1.0
 10
300.2588175792
 20
13.4528950892
 30
0.0
 10
300.1401628212
 20
13.4727728996
 30
0.0
 10
300.0418488873
 20
13.5059026322
 30
0.0
 10
299.9623035452
 20
13.5494340142
 30
0.0
  0
SPLINE
  5
310
100
AcDbEntity
  8
0
100
AcDbSpline
 62
5
  6
CONTINUOUS
 70
0
 71
3
 72
8
 73
4
 74
0
 42
0.0000001
 43
0.0000001
 44
0.0000000001
 40
0.0
 40
0.0
 40
0.0
 40
0.0
 40
1.0
 40
1.0
 40
1.0
 40
1.0
 10
299.9623035452
 20
13.5494340142
 30
0.0
 10
299.8723420689
 20
13.5986656508
 30
0.0
 10
299.8282703825
 20
13.6781767473
 30
0.0
 10
299.8282703825
 20
13.7908178673
 30
0.0
  0
SPLINE
  5
311
100
AcDbEntity
  8
0
100
AcDbSpline
 62
5
  6
CONTINUOUS
 70
0
 71
3
 72
8
 73
4
 74
0
 42
0.0000001
 43
0.0000001
 44
0.0000000001
 40
0.0
 40
0.0
 40
0.0
 40
0.0
 40
1.0
 40
1.0
 40
1.0
 40
1.0
 10
299.8282703825
 20
13.7908178673
 30
0.0
 10
299.8282703825
 20
13.8902066288
 30
0.0
 10
299.8757322559
 20
13.9664048538
 30
0.0
 10
299.9747881223
 20
14.0248193034
 30
0.0
  0
SPLINE
  5
312
100
AcDbEntity
  8
0
100
AcDbSpline
 62
5
  6
CONTINUOUS
 70
0
 71
3
 72
8
 73
4
 74
0
 42
0.0000001
 43
0.0000001
 44
0.0000000001
 40
0.0
 40
0.0
 40
0.0
 40
0.0
 40
1.0
 40
1.0
 40
1.0
 40
1.0
 10
299.9747881223
 20
14.0248193034
 30
0.0
 10
300.0723601236
 20
14.0823586998
 30
0.0
 10
300.1977951067
 20
14.112175561
 30
0.0
 10
300.346961101
 20
14.112175561
 30
0.0
  0
SPLINE
  5
313
100
AcDbEntity
  8
0
100
AcDbSpline
 62
5
  6
CONTINUOUS
 70
0
 71
3
 72
8
 73
4
 74
0
 42
0.0000001
 43
0.0000001
 44
0.0000000001
 40
0.0
 40
0.0
 40
0.0
 40
0.0
 40
1.0
 40
1.0
 40
1.0
 40
1.0
 10
300.346961101
 20
14.112175561
 30
0.0
 10
300.7130957871
 20
14.112175561
 30
0.0
 10
300.9232842539
 20
13.9531530771
 30
0.0
 10
300.9843065775
 20
13.6351084003
 30
0.0
  0
SPLINE
  5
314
100
AcDbEntity
  8
0
100
AcDbSpline
 62
5
  6
CONTINUOUS
 70
0
 71
3
 72
8
 73
4
 74
0
 42
0.0000001
 43
0.0000001
 44
0.0000000001
 40
0.0
 40
0.0
 40
0.0
 40
0.0
 40
1.0
 40
1.0
 40
1.0
 40
1.0
 10
301.953885317
 20
13.6351084003
 30
0.0
 10
301.8996432185
 20
14.4368462715
 30
0.0
 10
301.3640017139
 20
14.8377152071
 30
0.0
 10
300.346961101
 20
14.8377152071
 30
0.0
  0
ENDBLK
  5
315
100
AcDbEntity
  8
0
  6
BYBLOCK
 62
0
100
AcDbBlockEnd
  0
BLOCK
  5
316
100
AcDbEntity
  8
0
100
AcDbBlockBegin
  2
_FILLED
 70
64
 10
0.0
 20
0.0
  3
_FILLED
  1

  0
SOLID
  5
317
100
AcDbEntity
  8
0
  6
BYBLOCK
 62
0
100
AcDbTrace
 10
0.0
 20
0.0
 11
-1.0
 21
0.125
 12
-1.0
 22
-0.125
 13
-1.0
 23
-0.125
  0
ENDBLK
  5
318
100
AcDbEntity
  8
0
  6
BYBLOCK
 62
0
100
AcDbBlockEnd
  0
BLOCK
  5
319
100
AcDbEntity
  8
0
100
AcDbBlockBegin
  2
_DOTBLANK
 70
64
 10
0.0
 20
0.0
  3
_DOTBLANK
  1

  0
CIRCLE
  5
31A
100
AcDbEntity
  8
0
  6
BYBLOCK
 62
0
100
AcDbCircle
 10
0.0
 20
0.0
 40
0.125
  0
LINE
  5
31B
100
AcDbEntity
  8
0
  6
BYBLOCK
 62
0
100
AcDbLine
 10
-1.0
 20
0.0
 11
0.0
 21
0.0
  0
ENDBLK
  5
31C
100
AcDbEntity
  8
0
  6
BYBLOCK
 62
0
100
AcDbBlockEnd
  0
BLOCK
  5
31D
100
AcDbEntity
  8
ZEICHNUNGSBEMASSUNGEN
100
AcDbBlockBegin
 62
2
  6
CONTINUOUS
  2
*D0
 70
65
 10
0.0
 20
0.0
  3
*D0
  1

  0
MTEXT
  5
31E
100
AcDbEntity
  8
ZEICHNUNGSBEMASSUNGEN
100
AcDbMText
 62
5
  6
CONTINUOUS
  7
STANDARD
 71
1
 72
1
 10
235.9156655508
 20
191.9673766592
 30
0.0
 11
0.0
 21
1.0
 31
0.0
 44
0.9
  1
16.7
 40
2.5
 41
10.1785714286
  0
LINE
  5
31F
100
AcDbEntity
  8
ZEICHNUNGSBEMASSUNGEN
100
AcDbLine
 62
2
  6
CONTINUOUS
 10
239.0406655508
 20
188.0279487798
 11
239.0406655508
 21
179.6779487798
  0
LINE
  5
320
100
AcDbEntity
  8
ZEICHNUNGSBEMASSUNGEN
100
AcDbLine
 62
2
  6
CONTINUOUS
 10
239.0406655508
 20
179.6779487798
 11
239.0406655508
 21
198.7530909449
  0
LINE
  5
321
100
AcDbEntity
  8
ZEICHNUNGSBEMASSUNGEN
100
AcDbLine
 62
2
  6
CONTINUOUS
 10
239.0406655508
 20
171.3279487798
 11
239.0406655508
 21
179.6779487798
  0
INSERT
  5
322
100
AcDbEntity
  8
ZEICHNUNGSBEMASSUNGEN
100
AcDbBlockReference
 62
2
  6
CONTINUOUS
  2
_FILLED
 10
239.0406655508
 20
188.0279487798
 41
3.5
 42
3.5
 43
3.5
 50
90.0
  0
INSERT
  5
323
100
AcDbEntity
  8
ZEICHNUNGSBEMASSUNGEN
100
AcDbBlockReference
 62
2
  6
CONTINUOUS
  2
_FILLED
 10
239.0406655508
 20
171.3279487798
 41
3.5
 42
3.5
 43
3.5
 50
270.0
  0
ENDBLK
  5
324
100
AcDbEntity
  8
0
  6
BYBLOCK
 62
0
100
AcDbBlockEnd
  0
BLOCK
  5
325
100
AcDbEntity
  8
ZEICHNUNGSBEMASSUNGEN
100
AcDbBlockBegin
 62
2
  6
CONTINUOUS
  2
*D1
 70
65
 10
0.0
 20
0.0
  3
*D1
  1

  0
MTEXT
  5
326
100
AcDbEntity
  8
ZEICHNUNGSBEMASSUNGEN
100
AcDbMText
 62
5
  6
CONTINUOUS
  7
STANDARD
 71
2
 72
1
 10
277.8717702548
 20
216.9385613979
 30
0.0
 11
0.0
 21
1.0
 31
0.0
 44
0.9
  1
50.7
 40
2.5
 41
10.7142857143
  0
LINE
  5
327
100
AcDbEntity
  8
ZEICHNUNGSBEMASSUNGEN
100
AcDbLine
 62
2
  6
CONTINUOUS
 10
280.9967702548
 20
188.0279487798
 11
280.9967702548
 21
213.3779487798
  0
LINE
  5
328
100
AcDbEntity
  8
ZEICHNUNGSBEMASSUNGEN
100
AcDbLine
 62
2
  6
CONTINUOUS
 10
280.9967702548
 20
238.7279487798
 11
280.9967702548
 21
213.3779487798
  0
INSERT
  5
329
100
AcDbEntity
  8
ZEICHNUNGSBEMASSUNGEN
100
AcDbBlockReference
 62
2
  6
CONTINUOUS
  2
_FILLED
 10
280.9967702548
 20
188.0279487798
 41
3.5
 42
3.5
 43
3.5
 50
270.0
  0
INSERT
  5
32A
100
AcDbEntity
  8
ZEICHNUNGSBEMASSUNGEN
100
AcDbBlockReference
 62
2
  6
CONTINUOUS
  2
_FILLED
 10
280.9967702548
 20
238.7279487798
 41
3.5
 42
3.5
 43
3.5
 50
90.0
  0
ENDBLK
  5
32B
100
AcDbEntity
  8
0
  6
BYBLOCK
 62
0
100
AcDbBlockEnd
  0
BLOCK
  5
32C
100
AcDbEntity
  8
ZEICHNUNGSBEMASSUNGEN
100
AcDbBlockBegin
 62
2
  6
CONTINUOUS
  2
*D2
 70
65
 10
0.0
 20
0.0
  3
*D2
  1

  0
MTEXT
  5
32D
100
AcDbEntity
  8
ZEICHNUNGSBEMASSUNGEN
100
AcDbMText
 62
5
  6
CONTINUOUS
  7
STANDARD
 71
2
 72
1
 10
329.4597122778
 20
218.0895510145
 30
0.0
 11
0.0
 21
1.0
 31
0.0
 44
0.9
  1
79.9
 40
2.5
 41
10.9821428571
  0
LINE
  5
32E
100
AcDbEntity
  8
ZEICHNUNGSBEMASSUNGEN
100
AcDbLine
 62
2
  6
CONTINUOUS
 10
311.7007332402
 20
251.2279487798
 11
334.0847122778
 21
251.2279487798
  0
LINE
  5
32F
100
AcDbEntity
  8
ZEICHNUNGSBEMASSUNGEN
100
AcDbLine
 62
2
  6
CONTINUOUS
 10
311.7007332402
 20
171.3279487798
 11
334.0847122778
 21
171.3279487798
  0
LINE
  5
330
100
AcDbEntity
  8
ZEICHNUNGSBEMASSUNGEN
100
AcDbLine
 62
2
  6
CONTINUOUS
 10
332.5847122778
 20
251.2279487798
 11
332.5847122778
 21
211.2779487798
  0
LINE
  5
331
100
AcDbEntity
  8
ZEICHNUNGSBEMASSUNGEN
100
AcDbLine
 62
2
  6
CONTINUOUS
 10
332.5847122778
 20
171.3279487798
 11
332.5847122778
 21
211.2779487798
  0
INSERT
  5
332
100
AcDbEntity
  8
ZEICHNUNGSBEMASSUNGEN
100
AcDbBlockReference
 62
2
  6
CONTINUOUS
  2
_FILLED
 10
332.5847122778
 20
251.2279487798
 41
3.5
 42
3.5
 43
3.5
 50
90.0
  0
INSERT
  5
333
100
AcDbEntity
  8
ZEICHNUNGSBEMASSUNGEN
100
AcDbBlockReference
 62
2
  6
CONTINUOUS
  2
_FILLED
 10
332.5847122778
 20
171.3279487798
 41
3.5
 42
3.5
 43
3.5
 50
270.0
  0
ENDBLK
  5
334
100
AcDbEntity
  8
0
  6
BYBLOCK
 62
0
100
AcDbBlockEnd
  0
BLOCK
  5
335
100
AcDbEntity
  8
ZEICHNUNGSBEMASSUNGEN
100
AcDbBlockBegin
 62
2
  6
CONTINUOUS
  2
*D3
 70
65
 10
0.0
 20
0.0
  3
*D3
  1

  0
MTEXT
  5
336
100
AcDbEntity
  8
ZEICHNUNGSBEMASSUNGEN
100
AcDbMText
 62
5
  6
CONTINUOUS
  7
STANDARD
 71
2
 72
1
 10
180.6007332402
 20
275.4049619352
 30
0.0
 11
1.0
 21
0.0
 31
0.0
 44
0.9
  1
266.2
 40
2.5
 41
13.9285714286
  0
LINE
  5
337
100
AcDbEntity
  8
ZEICHNUNGSBEMASSUNGEN
100
AcDbLine
 62
2
  6
CONTINUOUS
 10
47.5007332402
 20
249.2279487798
 11
47.5007332402
 21
273.7799619352
  0
LINE
  5
338
100
AcDbEntity
  8
ZEICHNUNGSBEMASSUNGEN
100
AcDbLine
 62
2
  6
CONTINUOUS
 10
313.7007332402
 20
249.2279487798
 11
313.7007332402
 21
273.7799619352
  0
LINE
  5
339
100
AcDbEntity
  8
ZEICHNUNGSBEMASSUNGEN
100
AcDbLine
 62
2
  6
CONTINUOUS
 10
47.5007332402
 20
272.2799619352
 11
180.6007332402
 21
272.2799619352
  0
LINE
  5
33A
100
AcDbEntity
  8
ZEICHNUNGSBEMASSUNGEN
100
AcDbLine
 62
2
  6
CONTINUOUS
 10
313.7007332402
 20
272.2799619352
 11
180.6007332402
 21
272.2799619352
  0
INSERT
  5
33B
100
AcDbEntity
  8
ZEICHNUNGSBEMASSUNGEN
100
AcDbBlockReference
 62
2
  6
CONTINUOUS
  2
_FILLED
 10
47.5007332402
 20
272.2799619352
 41
3.5
 42
3.5
 43
3.5
 50
180.0
  0
INSERT
  5
33C
100
AcDbEntity
  8
ZEICHNUNGSBEMASSUNGEN
100
AcDbBlockReference
 62
2
  6
CONTINUOUS
  2
_FILLED
 10
313.7007332402
 20
272.2799619352
 41
3.5
 42
3.5
 43
3.5
  0
ENDBLK
  5
33D
100
AcDbEntity
  8
0
  6
BYBLOCK
 62
0
100
AcDbBlockEnd
  0
BLOCK
  5
33E
100
AcDbEntity
  8
ZEICHNUNGSBEMASSUNGEN
100
AcDbBlockBegin
 62
2
  6
CONTINUOUS
  2
*D4
 70
65
 10
0.0
 20
0.0
  3
*D4
  1

  0
MTEXT
  5
33F
100
AcDbEntity
  8
ZEICHNUNGSBEMASSUNGEN
100
AcDbMText
 62
5
  6
CONTINUOUS
  7
STANDARD
 71
2
 72
1
 10
401.436701453
 20
212.6529487798
 30
0.0
 11
0.0
 21
1.0
 31
0.0
 44
0.9
  1
 B
 40
2.5
 41
5.8928571429
  0
LINE
  5
340
100
AcDbEntity
  8
ZEICHNUNGSBEMASSUNGEN
100
AcDbLine
 62
2
  6
CONTINUOUS
 10
386.1658519553
 20
253.9779487798
 11
403.936701453
 21
253.9779487798
  0
LINE
  5
341
100
AcDbEntity
  8
ZEICHNUNGSBEMASSUNGEN
100
AcDbLine
 62
2
  6
CONTINUOUS
 10
403.936701453
 20
253.9779487798
 11
406.061701453
 21
253.9779487798
  0
LINE
  5
342
100
AcDbEntity
  8
ZEICHNUNGSBEMASSUNGEN
100
AcDbLine
 62
2
  6
CONTINUOUS
 10
397.0658519553
 20
171.3279487798
 11
403.936701453
 21
171.3279487798
  0
LINE
  5
343
100
AcDbEntity
  8
ZEICHNUNGSBEMASSUNGEN
100
AcDbLine
 62
2
  6
CONTINUOUS
 10
403.936701453
 20
171.3279487798
 11
406.061701453
 21
171.3279487798
  0
LINE
  5
344
100
AcDbEntity
  8
ZEICHNUNGSBEMASSUNGEN
100
AcDbLine
 62
2
  6
CONTINUOUS
 10
404.561701453
 20
253.9779487798
 11
404.561701453
 21
212.6529487798
  0
LINE
  5
345
100
AcDbEntity
  8
ZEICHNUNGSBEMASSUNGEN
100
AcDbLine
 62
2
  6
CONTINUOUS
 10
404.561701453
 20
171.3279487798
 11
404.561701453
 21
212.6529487798
  0
INSERT
  5
346
100
AcDbEntity
  8
ZEICHNUNGSBEMASSUNGEN
100
AcDbBlockReference
 62
2
  6
CONTINUOUS
  2
_FILLED
 10
404.561701453
 20
253.9779487798
 41
3.5
 42
3.5
 43
3.5
 50
90.0
  0
INSERT
  5
347
100
AcDbEntity
  8
ZEICHNUNGSBEMASSUNGEN
100
AcDbBlockReference
 62
2
  6
CONTINUOUS
  2
_FILLED
 10
404.561701453
 20
171.3279487798
 41
3.5
 42
3.5
 43
3.5
 50
270.0
  0
ENDBLK
  5
348
100
AcDbEntity
  8
0
  6
BYBLOCK
 62
0
100
AcDbBlockEnd
  0
BLOCK
  5
349
100
AcDbEntity
  8
ZEICHNUNGSBEMASSUNGEN
100
AcDbBlockBegin
 62
2
  6
CONTINUOUS
  2
*D5
 70
65
 10
0.0
 20
0.0
  3
*D5
  1

  0
MTEXT
  5
34A
100
AcDbEntity
  8
ZEICHNUNGSBEMASSUNGEN
100
AcDbMText
 62
5
  6
CONTINUOUS
  7
STANDARD
 71
2
 72
1
 10
35.9913287106
 20
129.693400838
 30
0.0
 11
0.0
 21
1.0
 31
0.0
 44
0.9
  1
 A
 40
2.5
 41
6.1607142857
  0
LINE
  5
34B
100
AcDbEntity
  8
ZEICHNUNGSBEMASSUNGEN
100
AcDbLine
 62
2
  6
CONTINUOUS
 10
49.5007332402
 20
116.943400838
 11
38.4913287106
 21
116.943400838
  0
LINE
  5
34C
100
AcDbEntity
  8
ZEICHNUNGSBEMASSUNGEN
100
AcDbLine
 62
2
  6
CONTINUOUS
 10
38.4913287106
 20
116.943400838
 11
37.6163287106
 21
116.943400838
  0
LINE
  5
34D
100
AcDbEntity
  8
ZEICHNUNGSBEMASSUNGEN
100
AcDbLine
 62
2
  6
CONTINUOUS
 10
53.6007332402
 20
142.443400838
 11
38.4913287106
 21
142.443400838
  0
LINE
  5
34E
100
AcDbEntity
  8
ZEICHNUNGSBEMASSUNGEN
100
AcDbLine
 62
2
  6
CONTINUOUS
 10
38.4913287106
 20
142.443400838
 11
37.6163287106
 21
142.443400838
  0
LINE
  5
34F
100
AcDbEntity
  8
ZEICHNUNGSBEMASSUNGEN
100
AcDbLine
 62
2
  6
CONTINUOUS
 10
39.1163287106
 20
116.943400838
 11
39.1163287106
 21
129.693400838
  0
LINE
  5
350
100
AcDbEntity
  8
ZEICHNUNGSBEMASSUNGEN
100
AcDbLine
 62
2
  6
CONTINUOUS
 10
39.1163287106
 20
142.443400838
 11
39.1163287106
 21
129.693400838
  0
INSERT
  5
351
100
AcDbEntity
  8
ZEICHNUNGSBEMASSUNGEN
100
AcDbBlockReference
 62
2
  6
CONTINUOUS
  2
_FILLED
 10
39.1163287106
 20
116.943400838
 41
3.5
 42
3.5
 43
3.5
 50
270.0
  0
INSERT
  5
352
100
AcDbEntity
  8
ZEICHNUNGSBEMASSUNGEN
100
AcDbBlockReference
 62
2
  6
CONTINUOUS
  2
_FILLED
 10
39.1163287106
 20
142.443400838
 41
3.5
 42
3.5
 43
3.5
 50
90.0
  0
ENDBLK
  5
353
100
AcDbEntity
  8
0
  6
BYBLOCK
 62
0
100
AcDbBlockEnd
  0
BLOCK
  5
354
100
AcDbEntity
  8
ZEICHNUNGSBEMASSUNGEN
100
AcDbBlockBegin
 62
2
  6
CONTINUOUS
  2
*D6
 70
65
 10
0.0
 20
0.0
  3
*D6
  1

  0
MTEXT
  5
355
100
AcDbEntity
  8
ZEICHNUNGSBEMASSUNGEN
100
AcDbMText
 62
5
  6
CONTINUOUS
  7
STANDARD
 71
2
 72
1
 10
318.1274193966
 20
191.4279487798
 30
0.0
 11
0.0
 21
1.0
 31
0.0
 44
0.9
  1
(40.2)
 40
2.5
 41
14.1964285714
  0
LINE
  5
356
100
AcDbEntity
  8
ZEICHNUNGSBEMASSUNGEN
100
AcDbLine
 62
2
  6
CONTINUOUS
 10
308.0042078212
 20
211.5279487798
 11
322.7524193966
 21
211.5279487798
  0
LINE
  5
357
100
AcDbEntity
  8
ZEICHNUNGSBEMASSUNGEN
100
AcDbLine
 62
2
  6
CONTINUOUS
 10
311.7007332402
 20
171.3279487798
 11
322.7524193966
 21
171.3279487798
  0
LINE
  5
358
100
AcDbEntity
  8
ZEICHNUNGSBEMASSUNGEN
100
AcDbLine
 62
2
  6
CONTINUOUS
 10
321.2524193966
 20
211.5279487798
 11
321.2524193966
 21
191.4279487798
  0
LINE
  5
359
100
AcDbEntity
  8
ZEICHNUNGSBEMASSUNGEN
100
AcDbLine
 62
2
  6
CONTINUOUS
 10
321.2524193966
 20
171.3279487798
 11
321.2524193966
 21
191.4279487798
  0
INSERT
  5
35A
100
AcDbEntity
  8
ZEICHNUNGSBEMASSUNGEN
100
AcDbBlockReference
 62
2
  6
CONTINUOUS
  2
_FILLED
 10
321.2524193966
 20
211.5279487798
 41
3.5
 42
3.5
 43
3.5
 50
90.0
  0
INSERT
  5
35B
100
AcDbEntity
  8
ZEICHNUNGSBEMASSUNGEN
100
AcDbBlockReference
 62
2
  6
CONTINUOUS
  2
_FILLED
 10
321.2524193966
 20
171.3279487798
 41
3.5
 42
3.5
 43
3.5
 50
270.0
  0
ENDBLK
  5
35C
100
AcDbEntity
  8
0
  6
BYBLOCK
 62
0
100
AcDbBlockEnd
  0
BLOCK
  5
35D
100
AcDbEntity
  8
0
100
AcDbBlockBegin
 62
2
  6
CONTINUOUS
  2
*D7
 70
65
 10
0.0
 20
0.0
  3
*D7
  1

  0
MTEXT
  5
35E
100
AcDbEntity
  8
0
100
AcDbMText
 62
5
  6
CONTINUOUS
  7
STANDARD
 71
2
 72
1
 10
180.6007332402
 20
265.7677532491
 30
0.0
 11
1.0
 21
0.0
 31
0.0
 44
0.9
  1
232
 40
2.5
 41
8.5714285714
  0
LINE
  5
35F
100
AcDbEntity
  8
0
100
AcDbLine
 62
2
  6
CONTINUOUS
 10
296.6007332402
 20
238.7279487798
 11
296.6007332402
 21
264.1427532491
  0
LINE
  5
360
100
AcDbEntity
  8
0
100
AcDbLine
 62
2
  6
CONTINUOUS
 10
64.6007332402
 20
238.7279487798
 11
64.6007332402
 21
264.1427532491
  0
LINE
  5
361
100
AcDbEntity
  8
0
100
AcDbLine
 62
2
  6
CONTINUOUS
 10
296.6007332402
 20
262.6427532491
 11
180.6007332402
 21
262.6427532491
  0
LINE
  5
362
100
AcDbEntity
  8
0
100
AcDbLine
 62
2
  6
CONTINUOUS
 10
64.6007332402
 20
262.6427532491
 11
180.6007332402
 21
262.6427532491
  0
INSERT
  5
363
100
AcDbEntity
  8
0
100
AcDbBlockReference
 62
2
  6
CONTINUOUS
  2
_FILLED
 10
296.6007332402
 20
262.6427532491
 41
3.5
 42
3.5
 43
3.5
  0
INSERT
  5
364
100
AcDbEntity
  8
0
100
AcDbBlockReference
 62
2
  6
CONTINUOUS
  2
_FILLED
 10
64.6007332402
 20
262.6427532491
 41
3.5
 42
3.5
 43
3.5
 50
180.0
  0
ENDBLK
  5
365
100
AcDbEntity
  8
0
  6
BYBLOCK
 62
0
100
AcDbBlockEnd
  0
BLOCK
  5
366
100
AcDbEntity
  8
0
100
AcDbBlockBegin
 62
2
  6
CONTINUOUS
  2
*D8
 70
65
 10
0.0
 20
0.0
  3
*D8
  1

  0
MTEXT
  5
367
100
AcDbEntity
  8
0
100
AcDbMText
 62
5
  6
CONTINUOUS
  7
STANDARD
 71
2
 72
1
 10
75.7262269644
 20
203.2674600042
 30
0.0
 11
0.7361530517
 21
0.6768151036
 31
0.0
 44
0.9
  1
R9.5
 40
2.5
 41
10.7142857143
  0
LINE
  5
368
100
AcDbEntity
  8
0
100
AcDbLine
 62
2
  6
CONTINUOUS
 10
67.1072792487
 20
191.0982052959
 11
80.4703922049
 21
203.3841785159
  0
INSERT
  5
369
100
AcDbEntity
  8
0
100
AcDbBlockReference
 62
2
  6
CONTINUOUS
  2
_FILLED
 10
67.1072792487
 20
191.0982052959
 41
3.5
 42
3.5
 43
3.5
 50
222.5952625286
  0
ENDBLK
  5
36A
100
AcDbEntity
  8
0
  6
BYBLOCK
 62
0
100
AcDbBlockEnd
  0
BLOCK
  5
36B
100
AcDbEntity
  8
0
100
AcDbBlockBegin
  2
*T1
 70
1
 10
0.0
 20
0.0
  3
*T1
  1

  0
LINE
  5
36C
100
AcDbEntity
  8
0
100
AcDbLine
 62
2
  6
CONTINUOUS
 10
185.0
 20
0.0
 11
-0.0
 21
0.0
  0
LINE
  5
36D
100
AcDbEntity
  8
0
100
AcDbLine
 62
2
  6
CONTINUOUS
 10
185.0
 20
0.0
 11
185.0
 21
52.5
  0
LINE
  5
36E
100
AcDbEntity
  8
0
100
AcDbLine
 62
2
  6
CONTINUOUS
 10
185.0
 20
4.0
 11
-0.0
 21
4.0
  0
LINE
  5
36F
100
AcDbEntity
  8
0
100
AcDbLine
 62
2
  6
CONTINUOUS
 10
185.0
 20
8.0
 11
172.0
 21
8.0
  0
LINE
  5
370
100
AcDbEntity
  8
0
100
AcDbLine
 62
2
  6
CONTINUOUS
 10
55.0
 20
8.0
 11
-0.0
 21
8.0
  0
LINE
  5
371
100
AcDbEntity
  8
0
100
AcDbLine
 62
2
  6
CONTINUOUS
 10
185.0
 20
16.0
 11
55.0
 21
16.0
  0
LINE
  5
372
100
AcDbEntity
  8
0
100
AcDbLine
 62
2
  6
CONTINUOUS
 10
98.0
 20
20.0
 11
55.0
 21
20.0
  0
LINE
  5
373
100
AcDbEntity
  8
0
100
AcDbLine
 62
2
  6
CONTINUOUS
 10
98.0
 20
24.0
 11
55.0
 21
24.0
  0
LINE
  5
374
100
AcDbEntity
  8
0
100
AcDbLine
 62
2
  6
CONTINUOUS
 10
98.0
 20
28.0
 11
55.0
 21
28.0
  0
LINE
  5
375
100
AcDbEntity
  8
0
100
AcDbLine
 62
2
  6
CONTINUOUS
 10
98.0
 20
32.0
 11
55.0
 21
32.0
  0
LINE
  5
376
100
AcDbEntity
  8
0
100
AcDbLine
 62
2
  6
CONTINUOUS
 10
185.0
 20
36.0
 11
-0.0
 21
36.0
  0
LINE
  5
377
100
AcDbEntity
  8
0
100
AcDbLine
 62
2
  6
CONTINUOUS
 10
185.0
 20
46.0
 11
98.0
 21
46.0
  0
LINE
  5
378
100
AcDbEntity
  8
0
100
AcDbLine
 62
2
  6
CONTINUOUS
 10
185.0
 20
52.5
 11
-0.0
 21
52.5
  0
LINE
  5
379
100
AcDbEntity
  8
0
100
AcDbLine
 62
2
  6
CONTINUOUS
 10
172.0
 20
4.0
 11
172.0
 21
16.0
  0
LINE
  5
37A
100
AcDbEntity
  8
0
100
AcDbLine
 62
2
  6
CONTINUOUS
 10
142.0
 20
46.0
 11
142.0
 21
52.5
  0
LINE
  5
37B
100
AcDbEntity
  8
0
100
AcDbLine
 62
2
  6
CONTINUOUS
 10
98.0
 20
0.0
 11
98.0
 21
52.5
  0
LINE
  5
37C
100
AcDbEntity
  8
0
100
AcDbLine
 62
2
  6
CONTINUOUS
 10
80.0
 20
20.0
 11
80.0
 21
52.5
  0
LINE
  5
37D
100
AcDbEntity
  8
0
100
AcDbLine
 62
2
  6
CONTINUOUS
 10
65.0
 20
16.0
 11
65.0
 21
36.0
  0
LINE
  5
37E
100
AcDbEntity
  8
0
100
AcDbLine
 62
2
  6
CONTINUOUS
 10
55.0
 20
0.0
 11
55.0
 21
52.5
  0
LINE
  5
37F
100
AcDbEntity
  8
0
100
AcDbLine
 62
2
  6
CONTINUOUS
 10
47.0
 20
0.0
 11
47.0
 21
8.0
  0
LINE
  5
380
100
AcDbEntity
  8
0
100
AcDbLine
 62
2
  6
CONTINUOUS
 10
34.0
 20
0.0
 11
34.0
 21
8.0
  0
LINE
  5
381
100
AcDbEntity
  8
0
100
AcDbLine
 62
2
  6
CONTINUOUS
 10
8.0
 20
0.0
 11
8.0
 21
8.0
  0
LINE
  5
382
100
AcDbEntity
  8
0
100
AcDbLine
 62
2
  6
CONTINUOUS
 10
-0.0
 20
0.0
 11
-0.0
 21
52.5
  0
MTEXT
  5
383
100
AcDbEntity
  8
0
100
AcDbMText
 62
5
  6
CONTINUOUS
  7
STANDARD
 71
1
 72
1
 10
99.225
 20
3.0
 30
0.0
 11
1.0
 21
0.0
 31
0.0
 44
0.9
  1
(Ersatz fuer:)
 40
2.0
 41
34.8571428571
  0
MTEXT
  5
384
100
AcDbEntity
  8
0
100
AcDbMText
 62
5
  6
CONTINUOUS
  7
STANDARD
 71
1
 72
1
 10
66.225
 20
2.9
 30
0.0
 11
1.0
 21
0.0
 31
0.0
 44
0.9
  1
.
 40
1.8
 41
2.0571428571
  0
MTEXT
  5
385
100
AcDbEntity
  8
0
100
AcDbMText
 62
5
  6
CONTINUOUS
  7
STANDARD
 71
1
 72
1
 10
56.225
 20
2.9
 30
0.0
 11
1.0
 21
0.0
 31
0.0
 44
0.9
  1
(Urspr.)
 40
1.8
 41
17.7428571429
  0
MTEXT
  5
386
100
AcDbEntity
  8
0
100
AcDbMText
 62
5
  6
CONTINUOUS
  7
STANDARD
 71
1
 72
1
 10
48.225
 20
3.0
 30
0.0
 11
1.0
 21
0.0
 31
0.0
 44
0.9
  1
Name
 40
2.0
 41
12.5714285714
  0
MTEXT
  5
387
100
AcDbEntity
  8
0
100
AcDbMText
 62
5
  6
CONTINUOUS
  7
STANDARD
 71
1
 72
1
 10
35.225
 20
3.0
 30
0.0
 11
1.0
 21
0.0
 31
0.0
 44
0.9
  1
Datum
 40
2.0
 41
15.3333333333
  0
MTEXT
  5
388
100
AcDbEntity
  8
0
100
AcDbMText
 62
5
  6
CONTINUOUS
  7
STANDARD
 71
1
 72
1
 10
9.225
 20
3.0
 30
0.0
 11
1.0
 21
0.0
 31
0.0
 44
0.9
  1
Aenderung
 40
2.0
 41
26.0
  0
MTEXT
  5
389
100
AcDbEntity
  8
0
100
AcDbMText
 62
5
  6
CONTINUOUS
  7
STANDARD
 71
1
 72
1
 10
1.225
 20
3.0
 30
0.0
 11
1.0
 21
0.0
 31
0.0
 44
0.9
  1
Zust.
 40
2.0
 41
13.4285714286
  0
MTEXT
  5
38A
100
AcDbEntity
  8
0
100
AcDbMText
 62
5
  6
CONTINUOUS
  7
STANDARD
 71
1
 72
1
 10
180.225
 20
7.0
 30
0.0
 11
1.0
 21
0.0
 31
0.0
 44
0.9
  1
Bl.
 40
2.0
 41
7.4285714286
  0
MTEXT
  5
38B
100
AcDbEntity
  8
0
100
AcDbMText
 62
5
  6
CONTINUOUS
  7
TEXTSTYLE_2
 71
2
 72
1
 10
175.5
 20
7.0
 30
0.0
 11
1.0
 21
0.0
 31
0.0
 44
0.9
  1
A3
 40
2.0
 41
5.6
  0
MTEXT
  5
38C
100
AcDbEntity
  8
0
100
AcDbMText
 62
7
  6
CONTINUOUS
  7
STANDARD
 71
1
 72
1
 10
99.225
 20
10.25
 30
0.0
 11
1.0
 21
0.0
 31
0.0
 44
0.9
  1
M-733-820-01
 40
3.5
 41
62.5
  0
MTEXT
  5
38D
100
AcDbEntity
  8
0
100
AcDbMText
 62
5
  6
CONTINUOUS
  7
STANDARD
 71
1
 72
1
 10
1.225
 20
6.8
 30
0.0
 11
1.0
 21
0.0
 31
0.0
 44
0.9
  1
0
 40
1.6
 41
2.5142857143
  0
MTEXT
  5
38E
100
AcDbEntity
  8
0
100
AcDbMText
 62
5
  6
CONTINUOUS
  7
STANDARD
 71
1
 72
1
 10
173.225
 20
11.0
 30
0.0
 11
1.0
 21
0.0
 31
0.0
 44
0.9
  1
1
 40
2.0
 41
2.2857142857
  0
MTEXT
  5
38F
100
AcDbEntity
  8
0
100
AcDbMText
 62
5
  6
CONTINUOUS
  7
STANDARD
 71
1
 72
1
 10
173.225
 20
15.0
 30
0.0
 11
1.0
 21
0.0
 31
0.0
 44
0.9
  1
Blatt
 40
2.0
 41
12.5714285714
  0
MTEXT
  5
390
100
AcDbEntity
  8
0
100
AcDbMText
 62
5
  6
CONTINUOUS
  7
STANDARD
 71
1
 72
1
 10
99.225
 20
15.0
 30
0.0
 11
1.0
 21
0.0
 31
0.0
 44
0.9
  1
(Zeichnungsnummer)
 40
2.0
 41
49.8095238095
  0
MTEXT
  5
391
100
AcDbEntity
  8
0
100
AcDbMText
 62
5
  6
CONTINUOUS
  7
STANDARD
 71
1
 72
1
 10
48.225
 20
31.6
 30
0.0
 11
1.0
 21
0.0
 31
0.0
 44
0.9
  1
 \P \P \P \P \P \P \P \P \P \P \P \P \P \P                                                                          M-AK3-FLXX-M-733-820-01
 40
1.6
 41
241.6
  0
MTEXT
  5
392
100
AcDbEntity
  8
0
100
AcDbMText
 62
5
  6
CONTINUOUS
  7
STANDARD
 71
1
 72
1
 10
35.225
 20
31.6
 30
0.0
 11
1.0
 21
0.0
 31
0.0
 44
0.9
  1
 \P \P \P \P \P \P \P \P \P \P \P \P \P \P                                                                 (Dateiname Zeichnung:)
 40
1.6
 41
210.5904761905
  0
MTEXT
  5
393
100
AcDbEntity
  8
0
100
AcDbMText
 62
5
  6
CONTINUOUS
  7
STANDARD
 71
1
 72
1
 10
9.225
 20
31.6
 30
0.0
 11
1.0
 21
0.0
 31
0.0
 44
0.9
  1
 \P \P \P \P \P \P \P \P \P \P \P \P \P \P                                                     BG-KASTEN_FLANSCH-VERRIEGEL
 40
1.6
 41
199.1619047619
  0
MTEXT
  5
394
100
AcDbEntity
  8
0
100
AcDbMText
 62
5
  6
CONTINUOUS
  7
STANDARD
 71
1
 72
1
 10
1.225
 20
31.6
 30
0.0
 11
1.0
 21
0.0
 31
0.0
 44
0.9
  1
 \P \P \P \P \P \P \P \P \P \P \P \P \P \P                                           (Dateiname Modell:)
 40
1.6
 41
148.1142857143
  0
MTEXT
  5
395
100
AcDbEntity
  8
0
100
AcDbMText
 62
7
  6
CONTINUOUS
  7
STANDARD
 71
1
 72
1
 10
99.225
 20
22.25
 30
0.0
 11
1.0
 21
0.0
 31
0.0
 44
0.9
  1
AK III FL 00
 40
3.5
 41
62.0
  0
MTEXT
  5
396
100
AcDbEntity
  8
0
100
AcDbMText
 62
5
  6
CONTINUOUS
  7
STANDARD
 71
1
 72
1
 10
66.225
 20
19.0
 30
0.0
 11
1.0
 21
0.0
 31
0.0
 44
0.9
  1
Freigabe
 40
2.0
 41
21.8095238095
  0
MTEXT
  5
397
100
AcDbEntity
  8
0
100
AcDbMText
 62
5
  6
CONTINUOUS
  7
STANDARD
 71
1
 72
1
 10
56.225
 20
19.0
 30
0.0
 11
1.0
 21
0.0
 31
0.0
 44
0.9
  1
Status
 40
2.0
 41
16.2857142857
  0
MTEXT
  5
398
100
AcDbEntity
  8
0
100
AcDbMText
 62
5
  6
CONTINUOUS
  7
STANDARD
 71
1
 72
1
 10
1.225
 20
34.75
 30
0.0
 11
1.0
 21
0.0
 31
0.0
 44
0.9
  3
Weitergabe sowie Vervielfältigung dieses\PDokuments, Verwertung und Mitteilung \Pseines Inhalts sind verboten, soweit nicht \Pausdrücklich gestattet. Zuwiderhandlungen\Pverpflichten zu Schadenersatz. Alle Rechte\Pfür den Fall der Patent-, Gebrauchsmu
  1
ster- \Poder Geschmacksmustereintragung vorbehalten. 
 40
1.7
 41
106.9380952381
  0
MTEXT
  5
399
100
AcDbEntity
  8
0
100
AcDbMText
 62
5
  6
CONTINUOUS
  7
STANDARD
 71
1
 72
1
 10
56.225
 20
23.0
 30
0.0
 11
1.0
 21
0.0
 31
0.0
 44
0.9
  1
Vers.
 40
2.0
 41
13.9047619048
  0
MTEXT
  5
39A
100
AcDbEntity
  8
0
100
AcDbMText
 62
7
  6
CONTINUOUS
  7
STANDARD
 71
1
 72
1
 10
99.225
 20
30.25
 30
0.0
 11
1.0
 21
0.0
 31
0.0
 44
0.9
  1
Massblatt
 40
3.5
 41
42.5
  0
MTEXT
  5
39B
100
AcDbEntity
  8
0
100
AcDbMText
 62
5
  6
CONTINUOUS
  7
STANDARD
 71
1
 72
1
 10
81.225
 20
27.0
 30
0.0
 11
1.0
 21
0.0
 31
0.0
 44
0.9
  1
VBi
 40
2.0
 41
8.5714285714
  0
MTEXT
  5
39C
100
AcDbEntity
  8
0
100
AcDbMText
 62
5
  6
CONTINUOUS
  7
STANDARD
 71
1
 72
1
 10
66.225
 20
27.0
 30
0.0
 11
1.0
 21
0.0
 31
0.0
 44
0.9
  1
15.06.15
 40
2.0
 41
21.1428571429
  0
MTEXT
  5
39D
100
AcDbEntity
  8
0
100
AcDbMText
 62
5
  6
CONTINUOUS
  7
STANDARD
 71
1
 72
1
 10
56.225
 20
27.0
 30
0.0
 11
1.0
 21
0.0
 31
0.0
 44
0.9
  1
Gepr.
 40
2.0
 41
13.7142857143
  0
MTEXT
  5
39E
100
AcDbEntity
  8
0
100
AcDbMText
 62
5
  6
CONTINUOUS
  7
STANDARD
 71
1
 72
1
 10
81.225
 20
31.0
 30
0.0
 11
1.0
 21
0.0
 31
0.0
 44
0.9
  1
UWi
 40
2.0
 41
10.6666666667
  0
MTEXT
  5
39F
100
AcDbEntity
  8
0
100
AcDbMText
 62
5
  6
CONTINUOUS
  7
STANDARD
 71
1
 72
1
 10
66.225
 20
31.0
 30
0.0
 11
1.0
 21
0.0
 31
0.0
 44
0.9
  1
10.06.15
 40
2.0
 41
21.4285714286
  0
MTEXT
  5
3A0
100
AcDbEntity
  8
0
100
AcDbMText
 62
5
  6
CONTINUOUS
  7
STANDARD
 71
1
 72
1
 10
56.225
 20
31.0
 30
0.0
 11
1.0
 21
0.0
 31
0.0
 44
0.9
  1
Bearb.
 40
2.0
 41
16.5714285714
  0
MTEXT
  5
3A1
100
AcDbEntity
  8
0
100
AcDbMText
 62
5
  6
CONTINUOUS
  7
STANDARD
 71
1
 72
1
 10
99.225
 20
35.0
 30
0.0
 11
1.0
 21
0.0
 31
0.0
 44
0.9
  1
(Benennung)
 40
2.0
 41
29.4285714286
  0
MTEXT
  5
3A2
100
AcDbEntity
  8
0
100
AcDbMText
 62
5
  6
CONTINUOUS
  7
STANDARD
 71
1
 72
1
 10
81.225
 20
35.0
 30
0.0
 11
1.0
 21
0.0
 31
0.0
 44
0.9
  1
Name
 40
2.0
 41
12.5714285714
  0
MTEXT
  5
3A3
100
AcDbEntity
  8
0
100
AcDbMText
 62
5
  6
CONTINUOUS
  7
STANDARD
 71
1
 72
1
 10
66.225
 20
35.0
 30
0.0
 11
1.0
 21
0.0
 31
0.0
 44
0.9
  1
Datum
 40
2.0
 41
15.3333333333
  0
MTEXT
  5
3A4
100
AcDbEntity
  8
0
100
AcDbMText
 62
5
  6
CONTINUOUS
  7
STANDARD
 71
1
 72
1
 10
1.225
 20
56.75
 30
0.0
 11
1.0
 21
0.0
 31
0.0
 44
2.46
  1
NE 122/14  \P \P 
 40
2.5
 41
40.5952380952
  0
MTEXT
  5
3A5
100
AcDbEntity
  8
0
100
AcDbMText
 62
5
  6
CONTINUOUS
  7
STANDARD
 71
1
 72
1
 10
99.225
 20
44.5
 30
0.0
 11
1.0
 21
0.0
 31
0.0
 44
0.9
  1
(Werkstoff,Halbzeug)
 40
2.0
 41
54.2857142857
  0
MTEXT
  5
3A6
100
AcDbEntity
  8
0
100
AcDbMText
 62
3
  6
CONTINUOUS
  7
STANDARD
 71
1
 72
1
 10
119.225
 20
51.0
 30
0.0
 11
1.0
 21
0.0
 31
0.0
 44
0.9
  1
1:1
 40
3.5
 41
10.5
  0
MTEXT
  5
3A7
100
AcDbEntity
  8
0
100
AcDbMText
 62
5
  6
CONTINUOUS
  7
STANDARD
 71
1
 72
1
 10
143.225
 20
51.9
 30
0.0
 11
1.0
 21
0.0
 31
0.0
 44
0.9
  1
(Volumen in cm³)
 40
1.8
 41
39.8057142857
  0
MTEXT
  5
3A8
100
AcDbEntity
  8
0
100
AcDbMText
 62
5
  6
CONTINUOUS
  7
STANDARD
 71
1
 72
1
 10
99.225
 20
52.0
 30
0.0
 11
1.0
 21
0.0
 31
0.0
 44
0.9
  1
Maßstab
 40
2.0
 41
19.9428571429
  0
MTEXT
  5
3A9
100
AcDbEntity
  8
0
100
AcDbMText
 62
5
  6
CONTINUOUS
  7
STANDARD
 71
1
 72
1
 10
81.225
 20
52.0
 30
0.0
 11
1.0
 21
0.0
 31
0.0
 44
0.9
  1
(Oberflaeche)
 40
2.0
 41
33.1428571429
  0
MTEXT
  5
3AA
100
AcDbEntity
  8
0
100
AcDbMText
 62
5
  6
CONTINUOUS
  7
STANDARD
 71
1
 72
1
 10
56.225
 20
52.0
 30
0.0
 11
1.0
 21
0.0
 31
0.0
 44
0.9
  1
(Zul.Abw.)
 40
2.0
 41
26.2857142857
  0
MTEXT
  5
3AB
100
AcDbEntity
  8
0
100
AcDbMText
 62
5
  6
CONTINUOUS
  7
STANDARD
 71
1
 72
1
 10
1.225
 20
52.0
 30
0.0
 11
1.0
 21
0.0
 31
0.0
 44
0.9
  1
(Verwendungsbereich)
 40
2.0
 41
54.8571428571
  0
ENDBLK
  5
3AC
100
AcDbEntity
  8
0
  6
BYBLOCK
 62
0
100
AcDbBlockEnd
  0
ENDSEC
  0
SECTION
  2
ENTITIES
  0
HATCH
  5
3AD
100
AcDbEntity
  8
0
100
AcDbHatch
 62
2
  6
CONTINUOUS
 10
0.0
 20
0.0
 30
0.0
210
0.0
220
0.0
230
1.0
  2
default__1
 70
0
 71
0
 91
1
 92
1
 93
28
 72
1
 10
303.0007332402
 20
131.143400838
 11
300.6007332402
 21
131.143400838
 72
1
 10
300.6007332402
 20
131.143400838
 11
300.6007332402
 21
133.743400838
 72
1
 10
300.6007332402
 20
133.743400838
 11
306.2007332402
 21
133.743400838
 72
1
 10
306.2007332402
 20
133.743400838
 11
306.2007332402
 21
118.943400838
 72
1
 10
306.2007332402
 20
118.943400838
 11
310.2007332402
 21
118.943400838
 72
1
 10
310.2007332402
 20
118.943400838
 11
310.2007332402
 21
124.643400838
 72
1
 10
310.2007332402
 20
124.643400838
 11
312.2007332402
 21
124.643400838
 72
1
 10
312.2007332402
 20
124.643400838
 11
312.2007332402
 21
119.943400838
 72
1
 10
312.2007332402
 20
119.943400838
 11
313.7007332402
 21
119.943400838
 72
1
 10
313.7007332402
 20
119.943400838
 11
313.7007332402
 21
116.943400838
 72
1
 10
313.7007332402
 20
116.943400838
 11
305.5546724416
 21
116.943400838
 72
2
 10
304.6007332402
 20
116.643400838
 40
1.0
 50
17.4576031237
 51
162.5423968763
 73
1
 72
1
 10
303.6467940388
 20
116.943400838
 11
57.5546724416
 21
116.943400838
 72
2
 10
56.6007332402
 20
116.643400838
 40
1.0
 50
17.4576031237
 51
162.5423968763
 73
1
 72
1
 10
55.6467940388
 20
116.943400838
 11
47.5007332402
 21
116.943400838
 72
1
 10
47.5007332402
 20
116.943400838
 11
47.5007332402
 21
119.943400838
 72
1
 10
47.5007332402
 20
119.943400838
 11
49.0007332402
 21
119.943400838
 72
1
 10
49.0007332402
 20
119.943400838
 11
49.0007332402
 21
124.643400838
 72
1
 10
49.0007332402
 20
124.643400838
 11
51.0007332402
 21
124.643400838
 72
1
 10
51.0007332402
 20
124.643400838
 11
51.0007332402
 21
118.943400838
 72
1
 10
51.0007332402
 20
118.943400838
 11
55.0007332402
 21
118.943400838
 72
1
 10
55.0007332402
 20
118.943400838
 11
55.0007332402
 21
133.743400838
 72
1
 10
55.0007332402
 20
133.743400838
 11
60.6007332402
 21
133.743400838
 72
1
 10
60.6007332402
 20
133.743400838
 11
60.6007332402
 21
131.143400838
 72
1
 10
60.6007332402
 20
131.143400838
 11
58.2007332402
 21
131.143400838
 72
1
 10
58.2007332402
 20
131.143400838
 11
58.2007332402
 21
119.943400838
 72
1
 10
58.2007332402
 20
119.943400838
 11
303.0007332402
 21
119.943400838
 72
1
 10
303.0007332402
 20
119.943400838
 11
303.0007332402
 21
131.143400838
 97
0
 75
0
 76
0
 52
325.0
 41
3.0
 77
0
 78
1
 53
325.0
 43
0.0
 44
0.0
 45
1.7207293091
 46
2.4574561329
 79
0
 98
1
 10
0.0
 20
0.0
  0
HATCH
  5
3AE
100
AcDbEntity
  8
0
100
AcDbHatch
 62
2
  6
CONTINUOUS
 10
0.0
 20
0.0
 30
0.0
210
0.0
220
0.0
230
1.0
  2
default__2
 70
0
 71
0
 91
5
 92
1
 93
9
 72
1
 10
182.1007332402
 20
138.3017796118
 11
179.1007332402
 21
138.3017796118
 72
1
 10
179.1007332402
 20
138.3017796118
 11
179.1007332402
 21
139.5059344201
 72
2
 10
180.6007332402
 20
160.443400838
 40
20.9911290787
 50
259.0147264477
 51
265.9022222833
 73
1
 72
1
 10
176.6007332402
 20
139.8369091424
 11
176.6007332402
 21
141.4071853528
 72
2
 10
180.6007332402
 20
160.443400838
 40
19.451927925
 50
258.1333177058
 51
270.0
 73
1
 72
2
 10
180.6007332402
 20
160.443400838
 40
19.451927925
 50
270.0
 51
281.8666822942
 73
1
 72
1
 10
184.6007332402
 20
141.4071853528
 11
184.6007332402
 21
139.8369091424
 72
2
 10
180.6007332402
 20
160.443400838
 40
20.9911290787
 50
274.0977777167
 51
280.9852735523
 73
1
 72
1
 10
182.1007332402
 20
139.5059344201
 11
182.1007332402
 21
138.3017796118
 97
0
 92
1
 93
4
 72
1
 10
305.1007332402
 20
137.643400838
 11
305.1007332402
 21
142.443400838
 72
1
 10
305.1007332402
 20
142.443400838
 11
307.6007332402
 21
142.443400838
 72
1
 10
307.6007332402
 20
142.443400838
 11
307.6007332402
 21
137.643400838
 72
1
 10
307.6007332402
 20
137.643400838
 11
305.1007332402
 21
137.643400838
 97
0
 92
1
 93
6
 72
1
 10
302.7007332402
 20
130.843400838
 11
302.7007332402
 21
127.843400838
 72
1
 10
302.7007332402
 20
127.843400838
 11
297.2007332402
 21
127.843400838
 72
1
 10
297.2007332402
 20
127.843400838
 11
297.2007332402
 21
142.443400838
 72
1
 10
297.2007332402
 20
142.443400838
 11
300.2007332402
 21
142.443400838
 72
1
 10
300.2007332402
 20
142.443400838
 11
300.2007332402
 21
130.843400838
 72
1
 10
300.2007332402
 20
130.843400838
 11
302.7007332402
 21
130.843400838
 97
0
 92
1
 93
4
 72
1
 10
56.1007332402
 20
137.643400838
 11
53.6007332402
 21
137.643400838
 72
1
 10
53.6007332402
 20
137.643400838
 11
53.6007332402
 21
142.443400838
 72
1
 10
53.6007332402
 20
142.443400838
 11
56.1007332402
 21
142.443400838
 72
1
 10
56.1007332402
 20
142.443400838
 11
56.1007332402
 21
137.643400838
 97
0
 92
1
 93
6
 72
1
 10
58.5007332402
 20
130.843400838
 11
61.0007332402
 21
130.843400838
 72
1
 10
61.0007332402
 20
130.843400838
 11
61.0007332402
 21
142.443400838
 72
1
 10
61.0007332402
 20
142.443400838
 11
64.0007332402
 21
142.443400838
 72
1
 10
64.0007332402
 20
142.443400838
 11
64.0007332402
 21
127.843400838
 72
1
 10
64.0007332402
 20
127.843400838
 11
58.5007332402
 21
127.843400838
 72
1
 10
58.5007332402
 20
127.843400838
 11
58.5007332402
 21
130.843400838
 97
0
 75
0
 76
0
 52
45.0
 41
2.0
 77
0
 78
1
 53
45.0
 43
0.0
 44
0.0
 45
-1.4142135624
 46
1.4142135624
 79
0
 98
1
 10
0.0
 20
0.0
  0
DIMENSION
  5
3AF
100
AcDbEntity
  8
ZEICHNUNGSBEMASSUNGEN
100
AcDbDimension
 62
2
  6
CONTINUOUS
  2
*D0
 10
239.0406655508
 20
171.3279487798
 11
239.0406655508
 21
195.360233802
 70
160
 71
1
 42
16.7
  3
DIMSTYLE_1
100
AcDbAlignedDimension
 13
287.1007332402
 23
188.0279487798
 14
311.7007332402
 24
171.3279487798
 50
270.0
100
AcDbRotatedDimension
  0
DIMENSION
  5
3B0
100
AcDbEntity
  8
ZEICHNUNGSBEMASSUNGEN
100
AcDbDimension
 62
2
  6
CONTINUOUS
  2
*D1
 10
280.9967702548
 20
238.7279487798
 11
280.9967702548
 21
216.9385613979
 70
160
 71
2
 42
50.7
  3
DIMSTYLE_2
100
AcDbAlignedDimension
 13
287.1007332402
 23
188.0279487798
 14
296.6007332402
 24
238.7279487798
 50
90.0
100
AcDbRotatedDimension
  0
DIMENSION
  5
3B1
100
AcDbEntity
  8
ZEICHNUNGSBEMASSUNGEN
100
AcDbDimension
 62
2
  6
CONTINUOUS
  2
*D2
 10
332.5847122778
 20
171.3279487798
 11
332.5847122778
 21
218.0895510145
 70
160
 71
2
 42
79.9
  3
DIMSTYLE_2
100
AcDbAlignedDimension
 13
311.7007332402
 23
251.2279487798
 14
311.7007332402
 24
171.3279487798
 50
270.0
100
AcDbRotatedDimension
  0
DIMENSION
  5
3B2
100
AcDbEntity
  8
ZEICHNUNGSBEMASSUNGEN
100
AcDbDimension
 62
2
  6
CONTINUOUS
  2
*D3
 10
313.7007332402
 20
272.2799619352
 11
180.6007332402
 21
272.2799619352
 70
160
 71
2
 42
266.2
  3
DIMSTYLE_3
100
AcDbAlignedDimension
 13
47.5007332402
 23
249.2279487798
 14
313.7007332402
 24
249.2279487798
100
AcDbRotatedDimension
  0
DIMENSION
  5
3B3
100
AcDbEntity
  8
ZEICHNUNGSBEMASSUNGEN
100
AcDbDimension
 62
2
  6
CONTINUOUS
  2
*D4
 10
404.561701453
 20
171.3279487798
 11
404.561701453
 21
212.6529487798
 70
160
 71
2
 42
82.65
  1
 B
  3
DIMSTYLE_2
100
AcDbAlignedDimension
 13
386.1658519553
 23
253.9779487798
 14
397.0658519553
 24
171.3279487798
 50
270.0
100
AcDbRotatedDimension
  0
DIMENSION
  5
3B4
100
AcDbEntity
  8
ZEICHNUNGSBEMASSUNGEN
100
AcDbDimension
 62
2
  6
CONTINUOUS
  2
*D5
 10
39.1163287106
 20
142.443400838
 11
39.1163287106
 21
129.693400838
 70
160
 71
2
 42
25.5
  1
 A
  3
DIMSTYLE_1
100
AcDbAlignedDimension
 13
49.5007332402
 23
116.943400838
 14
53.6007332402
 24
142.443400838
 50
90.0
100
AcDbRotatedDimension
  0
DIMENSION
  5
3B5
100
AcDbEntity
  8
ZEICHNUNGSBEMASSUNGEN
100
AcDbDimension
 62
2
  6
CONTINUOUS
  2
*D6
 10
321.2524193966
 20
171.3279487798
 11
321.2524193966
 21
191.4279487798
 70
160
 71
2
 42
40.2
  1
(<>)
  3
DIMSTYLE_2
100
AcDbAlignedDimension
 13
308.0042078212
 23
211.5279487798
 14
311.7007332402
 24
171.3279487798
 50
270.0
100
AcDbRotatedDimension
  0
DIMENSION
  5
3B6
100
AcDbEntity
  8
0
100
AcDbDimension
 62
2
  6
CONTINUOUS
  2
*D7
 10
64.6007332402
 20
262.6427532491
 11
180.6007332402
 21
262.6427532491
 70
160
 71
2
 42
232.0
  3
DIMSTYLE_3
100
AcDbAlignedDimension
 13
296.6007332402
 23
238.7279487798
 14
64.6007332402
 24
238.7279487798
 50
180.0
100
AcDbRotatedDimension
  0
DIMENSION
  5
3B7
100
AcDbEntity
  8
0
100
AcDbDimension
 62
2
  6
CONTINUOUS
  2
*D8
 10
74.1007332402
 20
197.5279487798
 11
76.5722458438
 21
202.3472686895
 70
164
 71
2
 42
9.5
  1
R<>
  3
DIMSTYLE_4
100
AcDbRadialDimension
 15
67.1072792487
 25
191.0982052959
  0
INSERT
  5
3B8
100
AcDbEntity
  8
0
100
AcDbBlockReference
 62
5
  6
CONTINUOUS
  2
SYMBOL_27_BL0
 10
306.4999994719
 20
15.0062199685
  0
ACAD_TABLE
  5
3B9
100
AcDbEntity
  8
0
 62
2
  6
CONTINUOUS
100
AcDbBlockReference
  2
*T1
 10
229.9999994719
 20
5.0000004236
 30
0.0
100
AcDbTable
342
       763
343
22E
 11
1.0
 21
0.0
 31
0.0
 90
6
 91
13
 92
17
 93
20
 94
0
 95
0
 96
0
 70
1
 41
0.0
141
4.0
141
4.0
141
4.0
141
4.0
141
4.0
141
4.0
141
4.0
141
4.0
141
4.0
141
5.0
141
5.0
141
3.5
141
3.0
142
8.0
142
26.0
142
13.0
142
8.0
142
10.0
142
15.0
142
18.0
142
11.0
142
9.0
142
9.0
142
6.0
142
9.0
142
11.0
142
10.0
142
9.0
142
7.0
142
6.0
171
1
172
0
173
0
174
0
175
1
176
1
 91
41
178
0
145
0.0
301
CELL_VALUE
 90
4
  1
Zust.
304
ACVALUE_END
170
4
140
2.0
 64
5
171
1
172
0
173
0
174
0
175
1
176
1
 91
41
178
0
145
0.0
301
CELL_VALUE
 90
4
  1
Aenderung
304
ACVALUE_END
170
4
140
2.0
 64
5
171
1
172
0
173
0
174
0
175
1
176
1
 91
41
178
0
145
0.0
301
CELL_VALUE
 90
4
  1
Datum
304
ACVALUE_END
170
4
140
2.0
 64
5
171
1
172
0
173
0
174
0
175
1
176
1
 91
41
178
0
145
0.0
301
CELL_VALUE
 90
4
  1
Name
304
ACVALUE_END
170
4
140
2.0
 64
5
171
1
172
0
173
0
174
0
175
1
176
1
 91
41
178
0
145
0.0
301
CELL_VALUE
 90
4
  1
(Urspr.)
304
ACVALUE_END
170
4
140
1.8
 64
5
171
1
172
0
173
0
174
0
175
2
176
1
 91
33
178
0
145
0.0
301
CELL_VALUE
 90
4
  1
.
304
ACVALUE_END
170
4
140
1.8
171
1
172
0
173
1
174
0
175
1
176
1
 91
1
178
0
145
0.0
170
4
171
1
172
0
173
0
174
0
175
1
176
1
 91
41
178
0
145
0.0
301
CELL_VALUE
 90
4
  1
(Ersatz fuer:)
304
ACVALUE_END
170
4
140
2.0
 64
5
171
1
172
0
173
0
174
0
175
1
176
1
 91
33
178
0
145
0.0
301
CELL_VALUE
 90
4
  1
 
304
ACVALUE_END
170
1
140
3.5
171
1
172
0
173
0
174
0
175
8
176
1
 91
33
178
0
145
0.0
301
CELL_VALUE
 90
4
  1
 
304
ACVALUE_END
170
1
140
3.5
171
1
172
0
173
1
174
0
175
1
176
1
 91
1
178
0
145
0.0
170
1
171
1
172
0
173
1
174
0
175
1
176
1
 91
1
178
0
145
0.0
170
1
171
1
172
0
173
1
174
0
175
1
176
1
 91
1
178
0
145
0.0
170
1
171
1
172
0
173
1
174
0
175
1
176
1
 91
1
178
0
145
0.0
170
1
171
1
172
0
173
1
174
0
175
1
176
1
 91
1
178
0
145
0.0
170
1
171
1
172
0
173
1
174
0
175
1
176
1
 91
1
178
0
145
0.0
170
1
171
1
172
0
173
1
174
0
175
1
176
1
 91
1
178
0
145
0.0
170
4
171
1
172
0
173
0
174
0
175
1
176
1
 91
41
178
0
145
0.0
301
CELL_VALUE
 90
4
  1
0
304
ACVALUE_END
170
4
140
1.6
 64
5
171
1
172
0
173
0
174
0
175
1
176
1
 91
33
178
0
145
0.0
301
CELL_VALUE
 90
4
  1
 
304
ACVALUE_END
170
4
140
3.5
171
1
172
0
173
0
174
0
175
1
176
1
 91
33
178
0
145
0.0
301
CELL_VALUE
 90
4
  1
 
304
ACVALUE_END
170
4
140
3.5
171
1
172
0
173
0
174
0
175
1
176
1
 91
33
178
0
145
0.0
301
CELL_VALUE
 90
4
  1
 
304
ACVALUE_END
170
4
140
3.5
171
1
172
0
173
0
174
0
175
3
176
3
 91
33
178
0
145
0.0
301
CELL_VALUE
 90
4
  1
 {\Ftxt.shx;\W6.686451;\H6.000000; } 
304
ACVALUE_END
170
5
140
6.0
171
1
172
0
173
1
174
0
175
1
176
1
 91
1
178
0
145
0.0
170
1
171
1
172
0
173
1
174
0
175
1
176
1
 91
1
178
0
145
0.0
170
5
171
1
172
0
173
0
174
0
175
8
176
2
 91
33
178
0
145
0.0
301
CELL_VALUE
 90
4
  1
M-733-820-01
304
ACVALUE_END
170
1
140
3.5
171
1
172
0
173
1
174
0
175
1
176
1
 91
1
178
0
145
0.0
170
1
171
1
172
0
173
1
174
0
175
1
176
1
 91
1
178
0
145
0.0
170
1
171
1
172
0
173
1
174
0
175
1
176
1
 91
1
178
0
145
0.0
170
1
171
1
172
0
173
1
174
0
175
1
176
1
 91
1
178
0
145
0.0
170
1
171
1
172
0
173
1
174
0
175
1
176
1
 91
1
178
0
145
0.0
170
1
171
1
172
0
173
1
174
0
175
1
176
1
 91
1
178
0
145
0.0
170
1
171
1
172
0
173
1
174
0
175
1
176
1
 91
1
178
0
145
0.0
170
1
171
1
172
0
173
0
174
0
175
1
176
1
 91
41
178
0
145
0.0
301
CELL_VALUE
 90
4
  1
A3
304
ACVALUE_END
170
5
140
2.0
 64
5
171
1
172
0
173
0
174
0
175
1
176
1
 91
41
178
0
145
0.0
301
CELL_VALUE
 90
4
  1
Bl.
304
ACVALUE_END
170
4
140
2.0
 64
5
171
1
172
0
173
0
174
0
175
1
176
1
 91
41
178
0
145
0.0
301
CELL_VALUE
 90
4
  1
 
304
ACVALUE_END
170
4
140
2.0
 64
5
171
1
172
0
173
0
174
0
175
1
176
1
 91
33
178
0
145
0.0
301
CELL_VALUE
 90
4
  1
 
304
ACVALUE_END
170
1
140
3.5
171
1
172
0
173
0
174
0
175
1
176
1
 91
33
178
0
145
0.0
301
CELL_VALUE
 90
4
  1
 
304
ACVALUE_END
170
1
140
3.5
171
1
172
0
173
0
174
0
175
1
176
1
 91
33
178
0
145
0.0
301
CELL_VALUE
 90
4
  1
 
304
ACVALUE_END
170
1
140
3.5
171
1
172
0
173
1
174
0
175
1
176
1
 91
1
178
0
145
0.0
170
1
171
1
172
0
173
1
174
0
175
1
176
1
 91
1
178
0
145
0.0
170
1
171
1
172
0
173
1
174
0
175
1
176
1
 91
1
178
0
145
0.0
170
1
171
1
172
0
173
1
174
0
175
1
176
1
 91
1
178
0
145
0.0
170
1
171
1
172
0
173
1
174
0
175
1
176
1
 91
1
178
0
145
0.0
170
1
171
1
172
0
173
1
174
0
175
1
176
1
 91
1
178
0
145
0.0
170
1
171
1
172
0
173
1
174
0
175
1
176
1
 91
1
178
0
145
0.0
170
1
171
1
172
0
173
1
174
0
175
1
176
1
 91
1
178
0
145
0.0
170
1
171
1
172
0
173
1
174
0
175
1
176
1
 91
1
178
0
145
0.0
170
1
171
1
172
0
173
1
174
0
175
1
176
1
 91
1
178
0
145
0.0
170
1
171
1
172
0
173
1
174
0
175
1
176
1
 91
1
178
0
145
0.0
170
1
171
1
172
0
173
0
174
0
175
1
176
1
 91
41
178
0
145
0.0
301
CELL_VALUE
 90
4
  1
1
304
ACVALUE_END
170
4
140
2.0
 64
5
171
1
172
0
173
0
174
0
175
1
176
1
 91
33
178
0
145
0.0
301
CELL_VALUE
 90
4
  1
 
304
ACVALUE_END
170
1
140
3.5
171
1
172
0
173
0
174
0
175
1
176
1
 91
41
178
0
145
0.0
301
CELL_VALUE
 90
4
  1
 \P \P \P \P \P \P \P \P \P \P \P \P \P \P                                           (Dateiname Modell:)
304
ACVALUE_END
170
4
140
1.6
 64
5
171
1
172
0
173
0
174
0
175
1
176
1
 91
41
178
0
145
0.0
301
CELL_VALUE
 90
4
  1
 \P \P \P \P \P \P \P \P \P \P \P \P \P \P                                                     BG-KASTEN_FLANSCH-VERRIEGEL
304
ACVALUE_END
170
4
140
1.6
 64
5
171
1
172
0
173
0
174
0
175
1
176
1
 91
41
178
0
145
0.0
301
CELL_VALUE
 90
4
  1
 \P \P \P \P \P \P \P \P \P \P \P \P \P \P                                                                 (Dateiname Zeichnung:)
304
ACVALUE_END
170
4
140
1.6
 64
5
171
1
172
0
173
0
174
0
175
1
176
1
 91
41
178
0
145
0.0
301
CELL_VALUE
 90
4
  1
 \P \P \P \P \P \P \P \P \P \P \P \P \P \P                                                                          M-AK3-FLXX-M-733-820-01
304
ACVALUE_END
170
4
140
1.6
 64
5
171
1
172
0
173
1
174
0
175
1
176
1
 91
1
178
0
145
0.0
170
1
171
1
172
0
173
1
174
0
175
1
176
1
 91
1
178
0
145
0.0
170
1
171
1
172
0
173
1
174
0
175
1
176
1
 91
1
178
0
145
0.0
170
1
171
1
172
0
173
0
174
0
175
3
176
1
 91
33
178
0
145
0.0
301
CELL_VALUE
 90
4
  1
(Zeichnungsnummer)
304
ACVALUE_END
170
4
140
2.0
171
1
172
0
173
1
174
0
175
1
176
1
 91
1
178
0
145
0.0
170
1
171
1
172
0
173
1
174
0
175
1
176
1
 91
1
178
0
145
0.0
170
4
171
1
172
0
173
0
174
0
175
5
176
1
 91
33
178
0
145
0.0
301
CELL_VALUE
 90
4
  1
 
304
ACVALUE_END
170
1
140
3.5
171
1
172
0
173
1
174
0
175
1
176
1
 91
1
178
0
145
0.0
170
1
171
1
172
0
173
1
174
0
175
1
176
1
 91
1
178
0
145
0.0
170
1
171
1
172
0
173
1
174
0
175
1
176
1
 91
1
178
0
145
0.0
170
1
171
1
172
0
173
1
174
0
175
1
176
1
 91
1
178
0
145
0.0
170
1
171
1
172
0
173
0
174
0
175
1
176
1
 91
41
178
0
145
0.0
301
CELL_VALUE
 90
4
  1
Blatt
304
ACVALUE_END
170
4
140
2.0
 64
5
171
1
172
0
173
0
174
0
175
1
176
1
 91
33
178
0
145
0.0
301
CELL_VALUE
 90
4
  1
 
304
ACVALUE_END
170
1
140
3.5
171
1
172
0
173
0
174
0
175
1
176
1
 91
41
178
0
145
0.0
301
CELL_VALUE
 90
4
  2
Weitergabe sowie Vervielfältigung dieses\PDokuments, Verwertung und Mitteilung \Pseines Inhalts sind verboten, soweit nicht \Pausdrücklich gestattet. Zuwiderhandlungen\Pverpflichten zu Schadenersatz. Alle Rechte\Pfür den Fall der Patent-, Gebrauchsmu
  1
ster- \Poder Geschmacksmustereintragung vorbehalten. 
304
ACVALUE_END
170
7
140
1.7
 64
5
171
1
172
0
173
0
174
0
175
1
176
1
 91
33
178
0
145
0.0
301
CELL_VALUE
 90
4
  1
 
304
ACVALUE_END
170
1
140
3.5
171
1
172
0
173
0
174
0
175
1
176
1
 91
33
178
0
145
0.0
301
CELL_VALUE
 90
4
  1
 
304
ACVALUE_END
170
1
140
3.5
171
1
172
0
173
0
174
0
175
1
176
1
 91
41
178
0
145
0.0
301
CELL_VALUE
 90
4
  1
 
304
ACVALUE_END
170
4
140
3.5
 64
5
171
1
172
0
173
0
174
0
175
1
176
1
 91
41
178
0
145
0.0
301
CELL_VALUE
 90
4
  1
Status
304
ACVALUE_END
170
4
140
2.0
 64
5
171
1
172
0
173
0
174
0
175
2
176
1
 91
33
178
0
145
0.0
301
CELL_VALUE
 90
4
  1
Freigabe
304
ACVALUE_END
170
4
140
2.0
171
1
172
0
173
1
174
0
175
1
176
1
 91
1
178
0
145
0.0
170
4
171
1
172
0
173
0
174
0
175
10
176
2
 91
33
178
0
145
0.0
301
CELL_VALUE
 90
4
  1
AK III FL 00
304
ACVALUE_END
170
1
140
3.5
171
1
172
0
173
1
174
0
175
1
176
1
 91
1
178
0
145
0.0
170
1
171
1
172
0
173
1
174
0
175
1
176
1
 91
1
178
0
145
0.0
170
1
171
1
172
0
173
1
174
0
175
1
176
1
 91
1
178
0
145
0.0
170
1
171
1
172
0
173
1
174
0
175
1
176
1
 91
1
178
0
145
0.0
170
1
171
1
172
0
173
1
174
0
175
1
176
1
 91
1
178
0
145
0.0
170
1
171
1
172
0
173
1
174
0
175
1
176
1
 91
1
178
0
145
0.0
170
1
171
1
172
0
173
1
174
0
175
1
176
1
 91
1
178
0
145
0.0
170
1
171
1
172
0
173
1
174
0
175
1
176
1
 91
1
178
0
145
0.0
170
1
171
1
172
0
173
1
174
0
175
1
176
1
 91
1
178
0
145
0.0
170
1
171
1
172
0
173
0
174
0
175
1
176
1
 91
33
178
0
145
0.0
301
CELL_VALUE
 90
4
  1
 
304
ACVALUE_END
170
1
140
3.5
171
1
172
0
173
0
174
0
175
1
176
1
 91
33
178
0
145
0.0
301
CELL_VALUE
 90
4
  1
 
304
ACVALUE_END
170
1
140
3.5
171
1
172
0
173
0
174
0
175
1
176
1
 91
33
178
0
145
0.0
301
CELL_VALUE
 90
4
  1
 
304
ACVALUE_END
170
1
140
3.5
171
1
172
0
173
0
174
0
175
1
176
1
 91
33
178
0
145
0.0
301
CELL_VALUE
 90
4
  1
 
304
ACVALUE_END
170
1
140
3.5
171
1
172
0
173
0
174
0
175
1
176
1
 91
41
178
0
145
0.0
301
CELL_VALUE
 90
4
  1
Vers.
304
ACVALUE_END
170
4
140
2.0
 64
5
171
1
172
0
173
0
174
0
175
1
176
1
 91
41
178
0
145
0.0
301
CELL_VALUE
 90
4
  1
 
304
ACVALUE_END
170
5
140
3.5
 64
5
171
1
172
0
173
0
174
0
175
1
176
1
 91
33
178
0
145
0.0
301
CELL_VALUE
 90
4
  1
 
304
ACVALUE_END
170
1
140
3.5
171
1
172
0
173
1
174
0
175
1
176
1
 91
1
178
0
145
0.0
170
1
171
1
172
0
173
1
174
0
175
1
176
1
 91
1
178
0
145
0.0
170
1
171
1
172
0
173
1
174
0
175
1
176
1
 91
1
178
0
145
0.0
170
1
171
1
172
0
173
1
174
0
175
1
176
1
 91
1
178
0
145
0.0
170
1
171
1
172
0
173
1
174
0
175
1
176
1
 91
1
178
0
145
0.0
170
1
171
1
172
0
173
1
174
0
175
1
176
1
 91
1
178
0
145
0.0
170
1
171
1
172
0
173
1
174
0
175
1
176
1
 91
1
178
0
145
0.0
170
1
171
1
172
0
173
1
174
0
175
1
176
1
 91
1
178
0
145
0.0
170
1
171
1
172
0
173
1
174
0
175
1
176
1
 91
1
178
0
145
0.0
170
1
171
1
172
0
173
1
174
0
175
1
176
1
 91
1
178
0
145
0.0
170
1
171
1
172
0
173
0
174
0
175
1
176
1
 91
33
178
0
145
0.0
301
CELL_VALUE
 90
4
  1
 
304
ACVALUE_END
170
1
140
3.5
171
1
172
0
173
0
174
0
175
1
176
1
 91
33
178
0
145
0.0
301
CELL_VALUE
 90
4
  1
 
304
ACVALUE_END
170
1
140
3.5
171
1
172
0
173
0
174
0
175
1
176
1
 91
33
178
0
145
0.0
301
CELL_VALUE
 90
4
  1
 
304
ACVALUE_END
170
1
140
3.5
171
1
172
0
173
0
174
0
175
1
176
1
 91
33
178
0
145
0.0
301
CELL_VALUE
 90
4
  1
 
304
ACVALUE_END
170
1
140
3.5
171
1
172
0
173
0
174
0
175
1
176
1
 91
41
178
0
145
0.0
301
CELL_VALUE
 90
4
  1
Gepr.
304
ACVALUE_END
170
4
140
2.0
 64
5
171
1
172
0
173
0
174
0
175
1
176
1
 91
41
178
0
145
0.0
301
CELL_VALUE
 90
4
  1
15.06.15
304
ACVALUE_END
170
4
140
2.0
 64
5
171
1
172
0
173
0
174
0
175
1
176
1
 91
41
178
0
145
0.0
301
CELL_VALUE
 90
4
  1
VBi
304
ACVALUE_END
170
4
140
2.0
 64
5
171
1
172
0
173
0
174
0
175
10
176
2
 91
33
178
0
145
0.0
301
CELL_VALUE
 90
4
  1
Massblatt
304
ACVALUE_END
170
1
140
3.5
171
1
172
0
173
1
174
0
175
1
176
1
 91
1
178
0
145
0.0
170
1
171
1
172
0
173
1
174
0
175
1
176
1
 91
1
178
0
145
0.0
170
1
171
1
172
0
173
1
174
0
175
1
176
1
 91
1
178
0
145
0.0
170
1
171
1
172
0
173
1
174
0
175
1
176
1
 91
1
178
0
145
0.0
170
1
171
1
172
0
173
1
174
0
175
1
176
1
 91
1
178
0
145
0.0
170
1
171
1
172
0
173
1
174
0
175
1
176
1
 91
1
178
0
145
0.0
170
1
171
1
172
0
173
1
174
0
175
1
176
1
 91
1
178
0
145
0.0
170
1
171
1
172
0
173
1
174
0
175
1
176
1
 91
1
178
0
145
0.0
170
1
171
1
172
0
173
1
174
0
175
1
176
1
 91
1
178
0
145
0.0
170
1
171
1
172
0
173
0
174
0
175
4
176
1
 91
33
178
0
145
0.0
301
CELL_VALUE
 90
4
  1
 
304
ACVALUE_END
170
4
140
2.0
171
1
172
0
173
1
174
0
175
1
176
1
 91
1
178
0
145
0.0
170
1
171
1
172
0
173
1
174
0
175
1
176
1
 91
1
178
0
145
0.0
170
1
171
1
172
0
173
1
174
0
175
1
176
1
 91
1
178
0
145
0.0
170
4
171
1
172
0
173
0
174
0
175
1
176
1
 91
41
178
0
145
0.0
301
CELL_VALUE
 90
4
  1
Bearb.
304
ACVALUE_END
170
4
140
2.0
 64
5
171
1
172
0
173
0
174
0
175
1
176
1
 91
41
178
0
145
0.0
301
CELL_VALUE
 90
4
  1
10.06.15
304
ACVALUE_END
170
4
140
2.0
 64
5
171
1
172
0
173
0
174
0
175
1
176
1
 91
41
178
0
145
0.0
301
CELL_VALUE
 90
4
  1
UWi
304
ACVALUE_END
170
4
140
2.0
 64
5
171
1
172
0
173
1
174
0
175
1
176
1
 91
1
178
0
145
0.0
170
1
171
1
172
0
173
1
174
0
175
1
176
1
 91
1
178
0
145
0.0
170
1
171
1
172
0
173
1
174
0
175
1
176
1
 91
1
178
0
145
0.0
170
1
171
1
172
0
173
1
174
0
175
1
176
1
 91
1
178
0
145
0.0
170
1
171
1
172
0
173
1
174
0
175
1
176
1
 91
1
178
0
145
0.0
170
1
171
1
172
0
173
1
174
0
175
1
176
1
 91
1
178
0
145
0.0
170
1
171
1
172
0
173
1
174
0
175
1
176
1
 91
1
178
0
145
0.0
170
1
171
1
172
0
173
1
174
0
175
1
176
1
 91
1
178
0
145
0.0
170
1
171
1
172
0
173
1
174
0
175
1
176
1
 91
1
178
0
145
0.0
170
1
171
1
172
0
173
1
174
0
175
1
176
1
 91
1
178
0
145
0.0
170
1
171
1
172
0
173
0
174
0
175
1
176
1
 91
41
178
0
145
0.0
301
CELL_VALUE
 90
4
  1
NE 122/14  \P \P 
304
ACVALUE_END
170
7
140
2.5
 64
5
171
1
172
0
173
0
174
0
175
3
176
1
 91
33
178
0
145
0.0
301
CELL_VALUE
 90
4
  1
 
304
ACVALUE_END
170
1
140
3.5
171
1
172
0
173
1
174
0
175
1
176
1
 91
1
178
0
145
0.0
170
1
171
1
172
0
173
1
174
0
175
1
176
1
 91
1
178
0
145
0.0
170
1
171
1
172
0
173
0
174
0
175
1
176
1
 91
33
178
0
145
0.0
301
CELL_VALUE
 90
4
  1
 
304
ACVALUE_END
170
1
140
3.5
171
1
172
0
173
0
174
0
175
1
176
1
 91
41
178
0
145
0.0
301
CELL_VALUE
 90
4
  1
Datum
304
ACVALUE_END
170
4
140
2.0
 64
5
171
1
172
0
173
0
174
0
175
1
176
1
 91
41
178
0
145
0.0
301
CELL_VALUE
 90
4
  1
Name
304
ACVALUE_END
170
4
140
2.0
 64
5
171
1
172
0
173
0
174
0
175
2
176
1
 91
33
178
0
145
0.0
301
CELL_VALUE
 90
4
  1
(Benennung)
304
ACVALUE_END
170
4
140
2.0
171
1
172
0
173
1
174
0
175
1
176
1
 91
1
178
0
145
0.0
170
4
171
1
172
0
173
0
174
0
175
8
176
1
 91
33
178
0
145
0.0
301
CELL_VALUE
 90
4
  1
 
304
ACVALUE_END
170
1
140
3.5
171
1
172
0
173
1
174
0
175
1
176
1
 91
1
178
0
145
0.0
170
1
171
1
172
0
173
1
174
0
175
1
176
1
 91
1
178
0
145
0.0
170
1
171
1
172
0
173
1
174
0
175
1
176
1
 91
1
178
0
145
0.0
170
1
171
1
172
0
173
1
174
0
175
1
176
1
 91
1
178
0
145
0.0
170
1
171
1
172
0
173
1
174
0
175
1
176
1
 91
1
178
0
145
0.0
170
1
171
1
172
0
173
1
174
0
175
1
176
1
 91
1
178
0
145
0.0
170
1
171
1
172
0
173
1
174
0
175
1
176
1
 91
1
178
0
145
0.0
170
1
171
1
172
0
173
0
174
0
175
4
176
3
 91
33
178
0
145
0.0
301
CELL_VALUE
 90
4
  1
 
304
ACVALUE_END
170
1
140
3.5
171
1
172
0
173
1
174
0
175
1
176
1
 91
1
178
0
145
0.0
170
1
171
1
172
0
173
1
174
0
175
1
176
1
 91
1
178
0
145
0.0
170
1
171
1
172
0
173
1
174
0
175
1
176
1
 91
1
178
0
145
0.0
170
1
171
1
172
0
173
0
174
0
175
2
176
3
 91
33
178
0
145
0.0
301
CELL_VALUE
 90
4
  1
 
304
ACVALUE_END
170
5
140
3.5
171
1
172
0
173
1
174
0
175
1
176
1
 91
1
178
0
145
0.0
170
5
171
1
172
0
173
0
174
0
175
1
176
3
 91
33
178
0
145
0.0
301
CELL_VALUE
 90
4
  1
 
304
ACVALUE_END
170
1
140
3.5
171
1
172
0
173
0
174
0
175
3
176
1
 91
33
178
0
145
0.0
301
CELL_VALUE
 90
4
  1
 
304
ACVALUE_END
170
1
140
3.5
171
1
172
0
173
1
174
0
175
1
176
1
 91
1
178
0
145
0.0
170
1
171
1
172
0
173
1
174
0
175
1
176
1
 91
1
178
0
145
0.0
170
1
171
1
172
0
173
0
174
0
175
7
176
2
 91
33
178
0
145
0.0
301
CELL_VALUE
 90
4
  1
 
304
ACVALUE_END
170
1
140
3.5
171
1
172
0
173
1
174
0
175
1
176
1
 91
1
178
0
145
0.0
170
1
171
1
172
0
173
1
174
0
175
1
176
1
 91
1
178
0
145
0.0
170
1
171
1
172
0
173
1
174
0
175
1
176
1
 91
1
178
0
145
0.0
170
1
171
1
172
0
173
1
174
0
175
1
176
1
 91
1
178
0
145
0.0
170
1
171
1
172
0
173
1
174
0
175
1
176
1
 91
1
178
0
145
0.0
170
1
171
1
172
0
173
1
174
0
175
1
176
1
 91
1
178
0
145
0.0
170
4
171
1
172
0
173
1
174
0
175
1
176
1
 91
1
178
0
145
0.0
170
1
171
1
172
0
173
1
174
0
175
1
176
1
 91
1
178
0
145
0.0
170
1
171
1
172
0
173
1
174
0
175
1
176
1
 91
1
178
0
145
0.0
170
1
171
1
172
0
173
1
174
0
175
1
176
1
 91
1
178
0
145
0.0
170
1
171
1
172
0
173
1
174
0
175
1
176
1
 91
1
178
0
145
0.0
170
1
171
1
172
0
173
1
174
0
175
1
176
1
 91
1
178
0
145
0.0
170
1
171
1
172
0
173
1
174
0
175
1
176
1
 91
1
178
0
145
0.0
170
1
171
1
172
0
173
0
174
0
175
3
176
1
 91
33
178
0
145
0.0
301
CELL_VALUE
 90
4
  1
(Werkstoff,Halbzeug)
304
ACVALUE_END
170
4
140
2.0
171
1
172
0
173
1
174
0
175
1
176
1
 91
1
178
0
145
0.0
170
1
171
1
172
0
173
1
174
0
175
1
176
1
 91
1
178
0
145
0.0
170
4
171
1
172
0
173
1
174
0
175
1
176
1
 91
1
178
0
145
0.0
170
1
171
1
172
0
173
1
174
0
175
1
176
1
 91
1
178
0
145
0.0
170
1
171
1
172
0
173
1
174
0
175
1
176
1
 91
1
178
0
145
0.0
170
1
171
1
172
0
173
1
174
0
175
1
176
1
 91
1
178
0
145
0.0
170
1
171
1
172
0
173
1
174
0
175
1
176
1
 91
1
178
0
145
0.0
170
1
171
1
172
0
173
1
174
0
175
1
176
1
 91
1
178
0
145
0.0
170
1
171
1
172
0
173
1
174
0
175
1
176
1
 91
1
178
0
145
0.0
170
1
171
1
172
0
173
1
174
0
175
1
176
1
 91
1
178
0
145
0.0
170
1
171
1
172
0
173
1
174
0
175
1
176
1
 91
1
178
0
145
0.0
170
1
171
1
172
0
173
1
174
0
175
1
176
1
 91
1
178
0
145
0.0
170
1
171
1
172
0
173
1
174
0
175
1
176
1
 91
1
178
0
145
0.0
170
1
171
1
172
0
173
1
174
0
175
1
176
1
 91
1
178
0
145
0.0
170
1
171
1
172
0
173
1
174
0
175
1
176
1
 91
1
178
0
145
0.0
170
1
171
1
172
0
173
1
174
0
175
1
176
1
 91
1
178
0
145
0.0
170
1
171
1
172
0
173
0
174
0
175
2
176
1
 91
33
178
0
145
0.0
301
CELL_VALUE
 90
4
  1
 
304
ACVALUE_END
170
1
140
3.5
171
1
172
0
173
1
174
0
175
1
176
1
 91
1
178
0
145
0.0
170
1
171
1
172
0
173
0
174
0
175
3
176
2
 91
33
178
0
145
0.0
301
CELL_VALUE
 90
4
  1
1:1
304
ACVALUE_END
170
4
140
3.5
171
1
172
0
173
1
174
0
175
1
176
1
 91
1
178
0
145
0.0
170
1
171
1
172
0
173
1
174
0
175
1
176
1
 91
1
178
0
145
0.0
170
4
171
1
172
0
173
0
174
0
175
2
176
1
 91
33
178
0
145
0.0
301
CELL_VALUE
 90
4
  1
 
304
ACVALUE_END
170
1
140
3.5
171
1
172
0
173
1
174
0
175
1
176
1
 91
1
178
0
145
0.0
170
1
171
1
172
0
173
0
174
0
175
1
176
1
 91
33
178
0
145
0.0
301
CELL_VALUE
 90
4
  1
 
304
ACVALUE_END
170
1
140
3.5
171
1
172
0
173
0
174
0
175
2
176
1
 91
33
178
0
145
0.0
301
CELL_VALUE
 90
4
  1
 
304
ACVALUE_END
170
1
140
3.5
171
1
172
0
173
1
174
0
175
1
176
1
 91
1
178
0
145
0.0
170
1
171
1
172
0
173
0
174
0
175
4
176
1
 91
33
178
0
145
0.0
301
CELL_VALUE
 90
4
  1
(Verwendungsbereich)
304
ACVALUE_END
170
4
140
2.0
171
1
172
0
173
1
174
0
175
1
176
1
 91
1
178
0
145
0.0
170
1
171
1
172
0
173
1
174
0
175
1
176
1
 91
1
178
0
145
0.0
170
1
171
1
172
0
173
1
174
0
175
1
176
1
 91
1
178
0
145
0.0
170
4
171
1
172
0
173
0
174
0
175
2
176
1
 91
33
178
0
145
0.0
301
CELL_VALUE
 90
4
  1
(Zul.Abw.)
304
ACVALUE_END
170
4
140
2.0
171
1
172
0
173
1
174
0
175
1
176
1
 91
1
178
0
145
0.0
170
4
171
1
172
0
173
0
174
0
175
1
176
1
 91
41
178
0
145
0.0
301
CELL_VALUE
 90
4
  1
(Oberflaeche)
304
ACVALUE_END
170
4
140
2.0
 64
5
171
1
172
0
173
0
174
0
175
2
176
1
 91
33
178
0
145
0.0
301
CELL_VALUE
 90
4
  1
Maßstab
304
ACVALUE_END
170
4
140
2.0
171
1
172
0
173
1
174
0
175
1
176
1
 91
1
178
0
145
0.0
170
4
171
1
172
0
173
1
174
0
175
1
176
1
 91
1
178
0
145
0.0
170
1
171
1
172
0
173
1
174
0
175
1
176
1
 91
1
178
0
145
0.0
170
1
171
1
172
0
173
1
174
0
175
1
176
1
 91
1
178
0
145
0.0
170
1
171
1
172
0
173
0
174
0
175
2
176
1
 91
33
178
0
145
0.0
301
CELL_VALUE
 90
4
  1
(Volumen in cm³)
304
ACVALUE_END
170
4
140
1.8
171
1
172
0
173
1
174
0
175
1
176
1
 91
1
178
0
145
0.0
170
4
171
1
172
0
173
0
174
0
175
1
176
1
 91
33
178
0
145
0.0
301
CELL_VALUE
 90
4
  1
 
304
ACVALUE_END
170
1
140
3.5
171
1
172
0
173
0
174
0
175
2
176
1
 91
33
178
0
145
0.0
301
CELL_VALUE
 90
4
  1
 
304
ACVALUE_END
170
1
140
3.5
171
1
172
0
173
1
174
0
175
1
176
1
 91
1
178
0
145
0.0
170
1
  0
MTEXT
  5
3BA
100
AcDbEntity
  8
0
100
AcDbMText
 62
5
  6
CONTINUOUS
  7
STANDARD
 71
1
 72
1
 10
332.073808067
 20
152.6043611071
 30
0.0
 11
1.0
 21
0.0
 31
0.0
 44
0.9
  1
Maße A und B ergeben\Psich einbaubedingt
 40
3.5
 41
78.925
  0
LEADER
  5
3BB
100
AcDbEntity
  8
0
100
AcDbLeader
 62
2
  6
CONTINUOUS
  3
STANDARD
 71
1
 72
0
 73
0
 75
0
 40
2.5
 41
31.4880952381
 76
3
 10
296.6007332402
 20
222.3076196868
 30
0.0
 10
328.5777412178
 20
263.2583235974
 30
0.0
 10
333.5777412178
 20
263.2583235974
 30
0.0
340
3BC
1001
ACAD
1000
DSTYLE
1002
{
1070
77
1070
0
1070
341
1005
223
1002
}
  0
MTEXT
  5
3BC
102
{ACAD_REACTORS
330
3BB
102
}
100
AcDbEntity
  8
0
100
AcDbMText
 62
5
  6
CONTINUOUS
  7
STANDARD
 71
1
 72
1
 10
333.5777412178
 20
264.5083235974
 30
0.0
 11
1.0
 21
0.0
 31
0.0
 44
0.9
  1
Max. Einbaubereich
 40
2.5
 41
47.2321428571
  0
MTEXT
  5
3BD
100
AcDbEntity
  8
0
100
AcDbMText
 62
5
  6
CONTINUOUS
  7
STANDARD
 71
3
 72
1
 10
88.8540203437
 20
18.3548156869
 30
0.0
 11
1.0
 21
0.0
 31
0.0
 44
0.9
  1
3:10
 40
2.5
 41
9.1071428571
  0
LEADER
  5
3BE
100
AcDbEntity
  8
0
100
AcDbLeader
 62
2
  6
CONTINUOUS
  3
STANDARD
 71
1
 72
0
 73
0
 75
0
 40
2.5
 41
46.4285714286
 76
3
 10
89.0269604879
 20
71.0610010643
 30
0.0
 10
91.2858038327
 20
93.1263167462
 30
0.0
 10
96.2858038327
 20
93.1263167462
 30
0.0
340
3BF
1001
ACAD
1000
DSTYLE
1002
{
1070
77
1070
0
1070
341
1005
223
1002
}
  0
MTEXT
  5
3BF
102
{ACAD_REACTORS
330
3BE
102
}
100
AcDbEntity
  8
0
100
AcDbMText
 62
5
  6
CONTINUOUS
  7
STANDARD
 71
1
 72
1
 10
96.2858038327
 20
94.3763167462
 30
0.0
 11
1.0
 21
0.0
 31
0.0
 44
0.9
  1
Mittelsteg kann vom Kunden\Pentfernt werden.
 40
2.5
 41
69.6428571429
  0
LINE
  5
3C0
100
AcDbEntity
  8
0
100
AcDbLine
 62
2
  6
CONTINUOUS
 10
0.0
 20
297.0
 11
0.0
 21
0.0
  0
LINE
  5
3C1
100
AcDbEntity
  8
0
100
AcDbLine
 62
7
  6
CONTINUOUS
 10
20.0
 20
292.0
 11
20.0
 21
5.0
  0
LINE
  5
3C2
100
AcDbEntity
  8
0
100
AcDbLine
 62
2
  6
CONTINUOUS
 10
0.0
 20
0.0
 11
420.0
 21
0.0
  0
LINE
  5
3C3
100
AcDbEntity
  8
0
100
AcDbLine
 62
7
  6
CONTINUOUS
 10
20.0
 20
5.0
 11
415.0
 21
5.0
  0
LINE
  5
3C4
100
AcDbEntity
  8
0
100
AcDbLine
 62
2
  6
CONTINUOUS
 10
125.0
 20
5.0
 11
125.0
 21
2.0
  0
LINE
  5
3C5
100
AcDbEntity
  8
0
100
AcDbLine
 62
2
  6
CONTINUOUS
 10
125.0
 20
292.0
 11
125.0
 21
295.0
  0
LINE
  5
3C6
100
AcDbEntity
  8
0
100
AcDbLine
 62
2
  6
CONTINUOUS
 10
3.5
 20
148.5
 11
0.0
 21
147.33
  0
LINE
  5
3C7
100
AcDbEntity
  8
0
100
AcDbLine
 62
2
  6
CONTINUOUS
 10
0.0
 20
149.67
 11
3.5
 21
148.5
  0
LINE
  5
3C8
100
AcDbEntity
  8
0
100
AcDbLine
 62
2
  6
CONTINUOUS
 10
230.0
 20
5.0
 11
230.0
 21
2.0
  0
LINE
  5
3C9
100
AcDbEntity
  8
0
100
AcDbLine
 62
2
  6
CONTINUOUS
 10
230.0
 20
292.0
 11
230.0
 21
295.0
  0
LINE
  5
3CA
100
AcDbEntity
  8
0
100
AcDbLine
 62
7
  6
CONTINUOUS
 10
415.0
 20
292.0
 11
20.0
 21
292.0
  0
LINE
  5
3CB
100
AcDbEntity
  8
0
100
AcDbLine
 62
2
  6
CONTINUOUS
 10
420.0
 20
297.0
 11
0.0
 21
297.0
  0
LINE
  5
3CC
100
AcDbEntity
  8
0
100
AcDbLine
 62
7
  6
CONTINUOUS
 10
415.0
 20
5.0
 11
415.0
 21
292.0
  0
LINE
  5
3CD
100
AcDbEntity
  8
0
100
AcDbLine
 62
2
  6
CONTINUOUS
 10
420.0
 20
0.0
 11
420.0
 21
297.0
  0
LINE
  5
3CE
100
AcDbEntity
  8
0
100
AcDbLine
 62
7
  6
CONTINUOUS
 10
47.5007332402
 20
116.943400838
 11
47.5007332402
 21
119.943400838
  0
LINE
  5
3CF
100
AcDbEntity
  8
0
100
AcDbLine
 62
7
  6
CONTINUOUS
 10
49.0007332402
 20
124.643400838
 11
49.0007332402
 21
119.943400838
  0
LINE
  5
3D0
100
AcDbEntity
  8
0
100
AcDbLine
 62
7
  6
CONTINUOUS
 10
51.0007332402
 20
118.943400838
 11
51.0007332402
 21
124.643400838
  0
LINE
  5
3D1
100
AcDbEntity
  8
0
100
AcDbLine
 62
7
  6
CONTINUOUS
 10
53.6007332402
 20
142.443400838
 11
53.6007332402
 21
137.643400838
  0
LINE
  5
3D2
100
AcDbEntity
  8
0
100
AcDbLine
 62
7
  6
CONTINUOUS
 10
55.0007332402
 20
133.743400838
 11
55.0007332402
 21
118.943400838
  0
LINE
  5
3D3
100
AcDbEntity
  8
0
100
AcDbLine
 62
7
  6
CONTINUOUS
 10
56.1007332402
 20
142.443400838
 11
56.1007332402
 21
137.643400838
  0
LINE
  5
3D4
100
AcDbEntity
  8
0
100
AcDbLine
 62
7
  6
CONTINUOUS
 10
58.2007332402
 20
119.943400838
 11
58.2007332402
 21
131.143400838
  0
LINE
  5
3D5
100
AcDbEntity
  8
0
100
AcDbLine
 62
7
  6
CONTINUOUS
 10
58.5007332402
 20
130.843400838
 11
58.5007332402
 21
127.843400838
  0
LINE
  5
3D6
100
AcDbEntity
  8
0
100
AcDbLine
 62
7
  6
CONTINUOUS
 10
60.6007332402
 20
130.843400838
 11
60.6007332402
 21
133.743400838
  0
LINE
  5
3D7
100
AcDbEntity
  8
0
100
AcDbLine
 62
7
  6
CONTINUOUS
 10
61.0007332402
 20
142.443400838
 11
61.0007332402
 21
130.843400838
  0
LINE
  5
3D8
100
AcDbEntity
  8
0
100
AcDbLine
 62
9
  6
CONTINUOUS
 10
62.7007332402
 20
127.643400838
 11
62.7007332402
 21
119.943400838
  0
LINE
  5
3D9
100
AcDbEntity
  8
0
100
AcDbLine
 62
7
  6
CONTINUOUS
 10
64.0007332402
 20
127.843400838
 11
64.0007332402
 21
142.443400838
  0
LINE
  5
3DA
100
AcDbEntity
  8
0
100
AcDbLine
 62
7
  6
CONTINUOUS
 10
64.3007332402
 20
127.643400838
 11
64.3007332402
 21
128.343400838
  0
LINE
  5
3DB
100
AcDbEntity
  8
RUNDUNGEN
100
AcDbLine
 62
9
  6
CONTINUOUS
 10
74.0007332402
 20
142.443400838
 11
74.0007332402
 21
139.943400838
  0
LINE
  5
3DC
100
AcDbEntity
  8
0
100
AcDbLine
 62
7
  6
CONTINUOUS
 10
87.1007332402
 20
128.243400838
 11
87.1007332402
 21
128.343400838
  0
LINE
  5
3DD
100
AcDbEntity
  8
0
100
AcDbLine
 62
7
  6
CONTINUOUS
 10
87.9507332402
 20
128.343400838
 11
87.9507332402
 21
132.343400838
  0
LINE
  5
3DE
100
AcDbEntity
  8
0
100
AcDbLine
 62
9
  6
CONTINUOUS
 10
89.8598241493
 20
128.343400838
 11
89.8598241493
 21
132.343400838
  0
LINE
  5
3DF
100
AcDbEntity
  8
0
100
AcDbLine
 62
7
  6
CONTINUOUS
 10
90.9507332402
 20
128.343400838
 11
90.9507332402
 21
139.943400838
  0
LINE
  5
3E0
100
AcDbEntity
  8
0
100
AcDbLine
 62
7
  6
CONTINUOUS
 10
92.2507332402
 20
128.343400838
 11
92.2507332402
 21
139.943400838
  0
LINE
  5
3E1
100
AcDbEntity
  8
0
100
AcDbLine
 62
9
  6
CONTINUOUS
 10
93.3416423311
 20
128.343400838
 11
93.3416423311
 21
132.343400838
  0
LINE
  5
3E2
100
AcDbEntity
  8
0
100
AcDbLine
 62
7
  6
CONTINUOUS
 10
95.2507332402
 20
128.343400838
 11
95.2507332402
 21
132.343400838
  0
LINE
  5
3E3
100
AcDbEntity
  8
0
100
AcDbLine
 62
7
  6
CONTINUOUS
 10
96.1007332402
 20
128.243400838
 11
96.1007332402
 21
128.343400838
  0
LINE
  5
3E4
100
AcDbEntity
  8
0
100
AcDbLine
 62
7
  6
CONTINUOUS
 10
120.1007332402
 20
128.243400838
 11
120.1007332402
 21
128.343400838
  0
LINE
  5
3E5
100
AcDbEntity
  8
0
100
AcDbLine
 62
7
  6
CONTINUOUS
 10
120.9507332402
 20
128.343400838
 11
120.9507332402
 21
132.343400838
  0
LINE
  5
3E6
100
AcDbEntity
  8
0
100
AcDbLine
 62
9
  6
CONTINUOUS
 10
122.8598241493
 20
128.343400838
 11
122.8598241493
 21
132.343400838
  0
LINE
  5
3E7
100
AcDbEntity
  8
0
100
AcDbLine
 62
7
  6
CONTINUOUS
 10
123.9507332402
 20
128.343400838
 11
123.9507332402
 21
139.943400838
  0
LINE
  5
3E8
100
AcDbEntity
  8
0
100
AcDbLine
 62
7
  6
CONTINUOUS
 10
125.2507332402
 20
128.343400838
 11
125.2507332402
 21
139.943400838
  0
LINE
  5
3E9
100
AcDbEntity
  8
0
100
AcDbLine
 62
9
  6
CONTINUOUS
 10
126.3416423311
 20
128.343400838
 11
126.3416423311
 21
132.343400838
  0
LINE
  5
3EA
100
AcDbEntity
  8
0
100
AcDbLine
 62
7
  6
CONTINUOUS
 10
128.2507332402
 20
128.343400838
 11
128.2507332402
 21
132.343400838
  0
LINE
  5
3EB
100
AcDbEntity
  8
0
100
AcDbLine
 62
7
  6
CONTINUOUS
 10
129.1007332402
 20
128.243400838
 11
129.1007332402
 21
128.343400838
  0
LINE
  5
3EC
100
AcDbEntity
  8
0
100
AcDbLine
 62
7
  6
CONTINUOUS
 10
153.1007332402
 20
128.243400838
 11
153.1007332402
 21
128.343400838
  0
LINE
  5
3ED
100
AcDbEntity
  8
0
100
AcDbLine
 62
7
  6
CONTINUOUS
 10
153.9507332402
 20
128.343400838
 11
153.9507332402
 21
132.343400838
  0
LINE
  5
3EE
100
AcDbEntity
  8
0
100
AcDbLine
 62
9
  6
CONTINUOUS
 10
155.8598241493
 20
128.343400838
 11
155.8598241493
 21
132.343400838
  0
LINE
  5
3EF
100
AcDbEntity
  8
0
100
AcDbLine
 62
7
  6
CONTINUOUS
 10
156.9507332402
 20
128.343400838
 11
156.9507332402
 21
139.943400838
  0
LINE
  5
3F0
100
AcDbEntity
  8
0
100
AcDbLine
 62
7
  6
CONTINUOUS
 10
158.2507332402
 20
128.343400838
 11
158.2507332402
 21
139.943400838
  0
LINE
  5
3F1
100
AcDbEntity
  8
0
100
AcDbLine
 62
9
  6
CONTINUOUS
 10
159.3416423311
 20
128.343400838
 11
159.3416423311
 21
132.343400838
  0
LINE
  5
3F2
100
AcDbEntity
  8
0
100
AcDbLine
 62
7
  6
CONTINUOUS
 10
161.2507332402
 20
128.343400838
 11
161.2507332402
 21
132.343400838
  0
LINE
  5
3F3
100
AcDbEntity
  8
0
100
AcDbLine
 62
7
  6
CONTINUOUS
 10
162.1007332402
 20
128.243400838
 11
162.1007332402
 21
128.343400838
  0
LINE
  5
3F4
100
AcDbEntity
  8
DEFAULT_3
100
AcDbLine
 62
2
  6
PHANTOM
 10
64.6007332402
 20
116.743400838
 11
296.6007332402
 21
116.743400838
  0
LINE
  5
3F5
100
AcDbEntity
  8
0
100
AcDbLine
 62
7
  6
CONTINUOUS
 10
47.5007332402
 20
116.943400838
 11
313.7007332402
 21
116.943400838
  0
LINE
  5
3F6
100
AcDbEntity
  8
0
100
AcDbLine
 62
7
  6
CONTINUOUS
 10
310.2007332402
 20
118.943400838
 11
306.2007332402
 21
118.943400838
  0
LINE
  5
3F7
100
AcDbEntity
  8
0
100
AcDbLine
 62
7
  6
CONTINUOUS
 10
55.0007332402
 20
118.943400838
 11
51.0007332402
 21
118.943400838
  0
LINE
  5
3F8
100
AcDbEntity
  8
0
100
AcDbLine
 62
7
  6
CONTINUOUS
 10
47.5007332402
 20
119.943400838
 11
49.0007332402
 21
119.943400838
  0
LINE
  5
3F9
100
AcDbEntity
  8
0
100
AcDbLine
 62
7
  6
CONTINUOUS
 10
58.2007332402
 20
119.943400838
 11
303.0007332402
 21
119.943400838
  0
LINE
  5
3FA
100
AcDbEntity
  8
0
100
AcDbLine
 62
7
  6
CONTINUOUS
 10
312.2007332402
 20
119.943400838
 11
313.7007332402
 21
119.943400838
  0
LINE
  5
3FB
100
AcDbEntity
  8
0
100
AcDbLine
 62
7
  6
CONTINUOUS
 10
176.6007332402
 20
139.8369091424
 11
176.6007332402
 21
142.443400838
  0
LINE
  5
3FC
100
AcDbEntity
  8
0
100
AcDbLine
 62
7
  6
CONTINUOUS
 10
179.1007332402
 20
138.3017796118
 11
179.1007332402
 21
139.5059344201
  0
LINE
  5
3FD
100
AcDbEntity
  8
BG_STARTBEZUEGE
100
AcDbLine
 62
7
  6
CENTER
 10
180.6007332402
 20
144.5434008371
 11
180.6007332402
 21
111.8434008343
  0
LINE
  5
3FE
100
AcDbEntity
  8
0
100
AcDbLine
 62
7
  6
CONTINUOUS
 10
49.0007332402
 20
124.643400838
 11
55.0007332402
 21
124.643400838
  0
LINE
  5
3FF
100
AcDbEntity
  8
0
100
AcDbLine
 62
7
  6
CONTINUOUS
 10
306.2007332402
 20
124.643400838
 11
312.2007332402
 21
124.643400838
  0
LINE
  5
400
100
AcDbEntity
  8
0
100
AcDbLine
 62
7
  6
CONTINUOUS
 10
58.2007332402
 20
127.643400838
 11
64.3007332402
 21
127.643400838
  0
LINE
  5
401
100
AcDbEntity
  8
0
100
AcDbLine
 62
7
  6
CONTINUOUS
 10
296.9007332402
 20
127.643400838
 11
303.0007332402
 21
127.643400838
  0
LINE
  5
402
100
AcDbEntity
  8
0
100
AcDbLine
 62
7
  6
CONTINUOUS
 10
58.5007332402
 20
127.843400838
 11
64.0007332402
 21
127.843400838
  0
LINE
  5
403
100
AcDbEntity
  8
0
100
AcDbLine
 62
7
  6
CONTINUOUS
 10
297.2007332402
 20
127.843400838
 11
302.7007332402
 21
127.843400838
  0
LINE
  5
404
100
AcDbEntity
  8
0
100
AcDbLine
 62
7
  6
CONTINUOUS
 10
87.1007332402
 20
128.243400838
 11
96.1007332402
 21
128.243400838
  0
LINE
  5
405
100
AcDbEntity
  8
0
100
AcDbLine
 62
7
  6
CONTINUOUS
 10
120.1007332402
 20
128.243400838
 11
129.1007332402
 21
128.243400838
  0
LINE
  5
406
100
AcDbEntity
  8
0
100
AcDbLine
 62
7
  6
CONTINUOUS
 10
153.1007332402
 20
128.243400838
 11
162.1007332402
 21
128.243400838
  0
LINE
  5
407
100
AcDbEntity
  8
0
100
AcDbLine
 62
7
  6
CONTINUOUS
 10
199.1007332402
 20
128.243400838
 11
208.1007332402
 21
128.243400838
  0
LINE
  5
408
100
AcDbEntity
  8
0
100
AcDbLine
 62
7
  6
CONTINUOUS
 10
232.1007332402
 20
128.243400838
 11
241.1007332402
 21
128.243400838
  0
LINE
  5
409
100
AcDbEntity
  8
0
100
AcDbLine
 62
7
  6
CONTINUOUS
 10
265.1007332402
 20
128.243400838
 11
274.1007332402
 21
128.243400838
  0
LINE
  5
40A
100
AcDbEntity
  8
0
100
AcDbLine
 62
7
  6
CONTINUOUS
 10
64.0007332402
 20
128.343400838
 11
297.2007332402
 21
128.343400838
  0
LINE
  5
40B
100
AcDbEntity
  8
0
100
AcDbLine
 62
7
  6
CONTINUOUS
 10
58.5007332402
 20
130.743400838
 11
58.2007332402
 21
130.743400838
  0
LINE
  5
40C
100
AcDbEntity
  8
0
100
AcDbLine
 62
7
  6
CONTINUOUS
 10
302.7007332402
 20
130.743400838
 11
303.0007332402
 21
130.743400838
  0
LINE
  5
40D
100
AcDbEntity
  8
0
100
AcDbLine
 62
7
  6
CONTINUOUS
 10
182.1007332402
 20
138.3017796118
 11
182.1007332402
 21
139.5059344201
  0
LINE
  5
40E
100
AcDbEntity
  8
0
100
AcDbLine
 62
7
  6
CONTINUOUS
 10
184.6007332402
 20
139.8369091424
 11
184.6007332402
 21
142.443400838
  0
LINE
  5
40F
100
AcDbEntity
  8
0
100
AcDbLine
 62
7
  6
CONTINUOUS
 10
302.7007332402
 20
130.843400838
 11
300.2007332402
 21
130.843400838
  0
LINE
  5
410
100
AcDbEntity
  8
0
100
AcDbLine
 62
7
  6
CONTINUOUS
 10
61.0007332402
 20
130.843400838
 11
58.5007332402
 21
130.843400838
  0
LINE
  5
411
100
AcDbEntity
  8
0
100
AcDbLine
 62
7
  6
CONTINUOUS
 10
58.2007332402
 20
131.143400838
 11
60.6007332402
 21
131.143400838
  0
LINE
  5
412
100
AcDbEntity
  8
0
100
AcDbLine
 62
7
  6
CONTINUOUS
 10
300.6007332402
 20
131.143400838
 11
303.0007332402
 21
131.143400838
  0
LINE
  5
413
100
AcDbEntity
  8
0
100
AcDbLine
 62
7
  6
CONTINUOUS
 10
87.9507332402
 20
132.343400838
 11
90.9507332402
 21
132.343400838
  0
LINE
  5
414
100
AcDbEntity
  8
0
100
AcDbLine
 62
7
  6
CONTINUOUS
 10
92.2507332402
 20
132.343400838
 11
95.2507332402
 21
132.343400838
  0
LINE
  5
415
100
AcDbEntity
  8
0
100
AcDbLine
 62
7
  6
CONTINUOUS
 10
120.9507332402
 20
132.343400838
 11
123.9507332402
 21
132.343400838
  0
LINE
  5
416
100
AcDbEntity
  8
0
100
AcDbLine
 62
7
  6
CONTINUOUS
 10
125.2507332402
 20
132.343400838
 11
128.2507332402
 21
132.343400838
  0
LINE
  5
417
100
AcDbEntity
  8
0
100
AcDbLine
 62
7
  6
CONTINUOUS
 10
153.9507332402
 20
132.343400838
 11
156.9507332402
 21
132.343400838
  0
LINE
  5
418
100
AcDbEntity
  8
0
100
AcDbLine
 62
7
  6
CONTINUOUS
 10
158.2507332402
 20
132.343400838
 11
161.2507332402
 21
132.343400838
  0
LINE
  5
419
100
AcDbEntity
  8
0
100
AcDbLine
 62
7
  6
CONTINUOUS
 10
199.9507332402
 20
132.343400838
 11
202.9507332402
 21
132.343400838
  0
LINE
  5
41A
100
AcDbEntity
  8
0
100
AcDbLine
 62
7
  6
CONTINUOUS
 10
204.2507332402
 20
132.343400838
 11
207.2507332402
 21
132.343400838
  0
LINE
  5
41B
100
AcDbEntity
  8
0
100
AcDbLine
 62
7
  6
CONTINUOUS
 10
232.9507332402
 20
132.343400838
 11
235.9507332402
 21
132.343400838
  0
LINE
  5
41C
100
AcDbEntity
  8
0
100
AcDbLine
 62
7
  6
CONTINUOUS
 10
237.2507332402
 20
132.343400838
 11
240.2507332402
 21
132.343400838
  0
LINE
  5
41D
100
AcDbEntity
  8
0
100
AcDbLine
 62
7
  6
CONTINUOUS
 10
265.9507332402
 20
132.343400838
 11
268.9507332402
 21
132.343400838
  0
LINE
  5
41E
100
AcDbEntity
  8
0
100
AcDbLine
 62
7
  6
CONTINUOUS
 10
270.2507332402
 20
132.343400838
 11
273.2507332402
 21
132.343400838
  0
LINE
  5
41F
100
AcDbEntity
  8
0
100
AcDbLine
 62
7
  6
CONTINUOUS
 10
306.2007332402
 20
133.743400838
 11
300.6007332402
 21
133.743400838
  0
LINE
  5
420
100
AcDbEntity
  8
0
100
AcDbLine
 62
7
  6
CONTINUOUS
 10
60.6007332402
 20
133.743400838
 11
55.0007332402
 21
133.743400838
  0
LINE
  5
421
100
AcDbEntity
  8
0
100
AcDbLine
 62
7
  6
CONTINUOUS
 10
307.6007332402
 20
137.643400838
 11
305.1007332402
 21
137.643400838
  0
LINE
  5
422
100
AcDbEntity
  8
0
100
AcDbLine
 62
7
  6
CONTINUOUS
 10
56.1007332402
 20
137.643400838
 11
53.6007332402
 21
137.643400838
  0
LINE
  5
423
100
AcDbEntity
  8
0
100
AcDbLine
 62
7
  6
CONTINUOUS
 10
182.1007332402
 20
138.3017796118
 11
179.1007332402
 21
138.3017796118
  0
LINE
  5
424
100
AcDbEntity
  8
0
100
AcDbLine
 62
7
  6
CONTINUOUS
 10
56.1007332402
 20
139.643400838
 11
61.0007332402
 21
139.643400838
  0
LINE
  5
425
100
AcDbEntity
  8
0
100
AcDbLine
 62
7
  6
CONTINUOUS
 10
300.2007332402
 20
139.643400838
 11
305.1007332402
 21
139.643400838
  0
LINE
  5
426
100
AcDbEntity
  8
0
100
AcDbLine
 62
7
  6
CONTINUOUS
 10
199.1007332402
 20
128.243400838
 11
199.1007332402
 21
128.343400838
  0
LINE
  5
427
100
AcDbEntity
  8
RUNDUNGEN
100
AcDbLine
 62
7
  6
CONTINUOUS
 10
297.2007332402
 20
139.943400838
 11
184.6007332402
 21
139.943400838
  0
LINE
  5
428
100
AcDbEntity
  8
RUNDUNGEN
100
AcDbLine
 62
7
  6
CONTINUOUS
 10
176.6007332402
 20
139.943400838
 11
64.0007332402
 21
139.943400838
  0
LINE
  5
429
100
AcDbEntity
  8
0
100
AcDbLine
 62
7
  6
CONTINUOUS
 10
184.6007332402
 20
142.443400838
 11
176.6007332402
 21
142.443400838
  0
LINE
  5
42A
100
AcDbEntity
  8
0
100
AcDbLine
 62
7
  6
CONTINUOUS
 10
53.6007332402
 20
142.443400838
 11
64.0007332402
 21
142.443400838
  0
LINE
  5
42B
100
AcDbEntity
  8
RUNDUNGEN
100
AcDbLine
 62
7
  6
CONTINUOUS
 10
64.0007332402
 20
142.443400838
 11
176.6007332402
 21
142.443400838
  0
LINE
  5
42C
100
AcDbEntity
  8
RUNDUNGEN
100
AcDbLine
 62
7
  6
CONTINUOUS
 10
184.6007332402
 20
142.443400838
 11
297.2007332402
 21
142.443400838
  0
LINE
  5
42D
100
AcDbEntity
  8
0
100
AcDbLine
 62
7
  6
CONTINUOUS
 10
297.2007332402
 20
142.443400838
 11
307.6007332402
 21
142.443400838
  0
LINE
  5
42E
100
AcDbEntity
  8
0
100
AcDbLine
 62
7
  6
CONTINUOUS
 10
199.9507332402
 20
128.343400838
 11
199.9507332402
 21
132.343400838
  0
LINE
  5
42F
100
AcDbEntity
  8
0
100
AcDbLine
 62
9
  6
CONTINUOUS
 10
201.8598241493
 20
128.343400838
 11
201.8598241493
 21
132.343400838
  0
LINE
  5
430
100
AcDbEntity
  8
0
100
AcDbLine
 62
7
  6
CONTINUOUS
 10
202.9507332402
 20
128.343400838
 11
202.9507332402
 21
139.943400838
  0
LINE
  5
431
100
AcDbEntity
  8
0
100
AcDbLine
 62
7
  6
CONTINUOUS
 10
204.2507332402
 20
128.343400838
 11
204.2507332402
 21
139.943400838
  0
LINE
  5
432
100
AcDbEntity
  8
0
100
AcDbLine
 62
9
  6
CONTINUOUS
 10
205.3416423311
 20
128.343400838
 11
205.3416423311
 21
132.343400838
  0
LINE
  5
433
100
AcDbEntity
  8
0
100
AcDbLine
 62
7
  6
CONTINUOUS
 10
207.2507332402
 20
128.343400838
 11
207.2507332402
 21
132.343400838
  0
LINE
  5
434
100
AcDbEntity
  8
0
100
AcDbLine
 62
7
  6
CONTINUOUS
 10
208.1007332402
 20
128.243400838
 11
208.1007332402
 21
128.343400838
  0
LINE
  5
435
100
AcDbEntity
  8
0
100
AcDbLine
 62
7
  6
CONTINUOUS
 10
232.1007332402
 20
128.243400838
 11
232.1007332402
 21
128.343400838
  0
LINE
  5
436
100
AcDbEntity
  8
0
100
AcDbLine
 62
7
  6
CONTINUOUS
 10
232.9507332402
 20
128.343400838
 11
232.9507332402
 21
132.343400838
  0
LINE
  5
437
100
AcDbEntity
  8
0
100
AcDbLine
 62
9
  6
CONTINUOUS
 10
234.8598241493
 20
128.343400838
 11
234.8598241493
 21
132.343400838
  0
LINE
  5
438
100
AcDbEntity
  8
0
100
AcDbLine
 62
7
  6
CONTINUOUS
 10
235.9507332402
 20
128.343400838
 11
235.9507332402
 21
139.943400838
  0
LINE
  5
439
100
AcDbEntity
  8
0
100
AcDbLine
 62
7
  6
CONTINUOUS
 10
237.2507332402
 20
128.343400838
 11
237.2507332402
 21
139.943400838
  0
LINE
  5
43A
100
AcDbEntity
  8
0
100
AcDbLine
 62
9
  6
CONTINUOUS
 10
238.3416423311
 20
128.343400838
 11
238.3416423311
 21
132.343400838
  0
LINE
  5
43B
100
AcDbEntity
  8
0
100
AcDbLine
 62
7
  6
CONTINUOUS
 10
240.2507332402
 20
128.343400838
 11
240.2507332402
 21
132.343400838
  0
LINE
  5
43C
100
AcDbEntity
  8
0
100
AcDbLine
 62
7
  6
CONTINUOUS
 10
241.1007332402
 20
128.243400838
 11
241.1007332402
 21
128.343400838
  0
LINE
  5
43D
100
AcDbEntity
  8
0
100
AcDbLine
 62
7
  6
CONTINUOUS
 10
265.1007332402
 20
128.243400838
 11
265.1007332402
 21
128.343400838
  0
LINE
  5
43E
100
AcDbEntity
  8
0
100
AcDbLine
 62
7
  6
CONTINUOUS
 10
265.9507332402
 20
128.343400838
 11
265.9507332402
 21
132.343400838
  0
LINE
  5
43F
100
AcDbEntity
  8
0
100
AcDbLine
 62
9
  6
CONTINUOUS
 10
267.8598241493
 20
128.343400838
 11
267.8598241493
 21
132.343400838
  0
LINE
  5
440
100
AcDbEntity
  8
0
100
AcDbLine
 62
7
  6
CONTINUOUS
 10
268.9507332402
 20
128.343400838
 11
268.9507332402
 21
139.943400838
  0
LINE
  5
441
100
AcDbEntity
  8
0
100
AcDbLine
 62
7
  6
CONTINUOUS
 10
270.2507332402
 20
128.343400838
 11
270.2507332402
 21
139.943400838
  0
LINE
  5
442
100
AcDbEntity
  8
0
100
AcDbLine
 62
9
  6
CONTINUOUS
 10
271.3416423311
 20
128.343400838
 11
271.3416423311
 21
132.343400838
  0
LINE
  5
443
100
AcDbEntity
  8
0
100
AcDbLine
 62
7
  6
CONTINUOUS
 10
273.2507332402
 20
128.343400838
 11
273.2507332402
 21
132.343400838
  0
LINE
  5
444
100
AcDbEntity
  8
0
100
AcDbLine
 62
7
  6
CONTINUOUS
 10
274.1007332402
 20
128.243400838
 11
274.1007332402
 21
128.343400838
  0
LINE
  5
445
100
AcDbEntity
  8
RUNDUNGEN
100
AcDbLine
 62
9
  6
CONTINUOUS
 10
287.2007332402
 20
139.943400838
 11
287.2007332402
 21
142.443400838
  0
LINE
  5
446
100
AcDbEntity
  8
0
100
AcDbLine
 62
7
  6
CONTINUOUS
 10
296.9007332402
 20
128.343400838
 11
296.9007332402
 21
127.643400838
  0
LINE
  5
447
100
AcDbEntity
  8
0
100
AcDbLine
 62
7
  6
CONTINUOUS
 10
297.2007332402
 20
142.443400838
 11
297.2007332402
 21
127.843400838
  0
LINE
  5
448
100
AcDbEntity
  8
0
100
AcDbLine
 62
9
  6
CONTINUOUS
 10
298.5007332402
 20
127.643400838
 11
298.5007332402
 21
119.943400838
  0
LINE
  5
449
100
AcDbEntity
  8
0
100
AcDbLine
 62
7
  6
CONTINUOUS
 10
300.2007332402
 20
130.843400838
 11
300.2007332402
 21
142.443400838
  0
LINE
  5
44A
100
AcDbEntity
  8
0
100
AcDbLine
 62
7
  6
CONTINUOUS
 10
300.6007332402
 20
133.743400838
 11
300.6007332402
 21
130.843400838
  0
LINE
  5
44B
100
AcDbEntity
  8
0
100
AcDbLine
 62
7
  6
CONTINUOUS
 10
302.7007332402
 20
127.843400838
 11
302.7007332402
 21
130.843400838
  0
LINE
  5
44C
100
AcDbEntity
  8
0
100
AcDbLine
 62
7
  6
CONTINUOUS
 10
303.0007332402
 20
119.943400838
 11
303.0007332402
 21
131.143400838
  0
LINE
  5
44D
100
AcDbEntity
  8
0
100
AcDbLine
 62
7
  6
CONTINUOUS
 10
305.1007332402
 20
142.443400838
 11
305.1007332402
 21
137.643400838
  0
LINE
  5
44E
100
AcDbEntity
  8
0
100
AcDbLine
 62
7
  6
CONTINUOUS
 10
306.2007332402
 20
133.743400838
 11
306.2007332402
 21
118.943400838
  0
LINE
  5
44F
100
AcDbEntity
  8
0
100
AcDbLine
 62
7
  6
CONTINUOUS
 10
307.6007332402
 20
137.643400838
 11
307.6007332402
 21
142.443400838
  0
LINE
  5
450
100
AcDbEntity
  8
0
100
AcDbLine
 62
7
  6
CONTINUOUS
 10
310.2007332402
 20
118.943400838
 11
310.2007332402
 21
124.643400838
  0
LINE
  5
451
100
AcDbEntity
  8
0
100
AcDbLine
 62
7
  6
CONTINUOUS
 10
312.2007332402
 20
124.643400838
 11
312.2007332402
 21
119.943400838
  0
LINE
  5
452
100
AcDbEntity
  8
0
100
AcDbLine
 62
7
  6
CONTINUOUS
 10
313.7007332402
 20
116.943400838
 11
313.7007332402
 21
119.943400838
  0
LINE
  5
453
100
AcDbEntity
  8
0
100
AcDbLine
 62
7
  6
CONTINUOUS
 10
47.5007332402
 20
173.3279487798
 11
47.5007332402
 21
249.2279487798
  0
LINE
  5
454
100
AcDbEntity
  8
0
100
AcDbLine
 62
7
  6
CONTINUOUS
 10
53.6007332402
 20
253.9779487798
 11
53.6007332402
 21
251.2279487798
  0
LINE
  5
455
100
AcDbEntity
  8
0
100
AcDbLine
 62
7
  6
CONTINUOUS
 10
55.6467940388
 20
237.5279487798
 11
55.6467940388
 21
185.5279487798
  0
LINE
  5
456
100
AcDbEntity
  8
0
100
AcDbLine
 62
7
  6
CONTINUOUS
 10
57.5546724416
 20
237.5279487798
 11
57.5546724416
 21
185.5279487798
  0
LINE
  5
457
100
AcDbEntity
  8
0
100
AcDbLine
 62
9
  6
CONTINUOUS
 10
62.7007332402
 20
244.5818879813
 11
62.7007332402
 21
242.6740095784
  0
LINE
  5
458
100
AcDbEntity
  8
0
100
AcDbLine
 62
9
  6
CONTINUOUS
 10
62.7007332402
 20
178.4740095784
 11
62.7007332402
 21
180.3818879813
  0
LINE
  5
459
100
AcDbEntity
  8
0
100
AcDbLine
 62
7
  6
CONTINUOUS
 10
63.0007332402
 20
251.2279487798
 11
63.0007332402
 21
251.9779487798
  0
LINE
  5
45A
100
AcDbEntity
  8
DEFAULT_3
100
AcDbLine
 62
2
  6
PHANTOM
 10
64.6007332402
 20
238.7279487798
 11
64.6007332402
 21
197.5279487798
  0
LINE
  5
45B
100
AcDbEntity
  8
0
100
AcDbLine
 62
7
  6
CONTINUOUS
 10
81.7507332402
 20
251.2279487798
 11
81.7507332402
 21
251.9779487798
  0
LINE
  5
45C
100
AcDbEntity
  8
0
100
AcDbLine
 62
7
  6
CONTINUOUS
 10
83.0507332402
 20
251.9779487798
 11
83.0507332402
 21
251.2279487798
  0
LINE
  5
45D
100
AcDbEntity
  8
0
100
AcDbLine
 62
7
  6
CONTINUOUS
 10
98.1507332402
 20
251.2279487798
 11
98.1507332402
 21
251.9779487798
  0
LINE
  5
45E
100
AcDbEntity
  8
0
100
AcDbLine
 62
7
  6
CONTINUOUS
 10
99.4507332402
 20
251.9779487798
 11
99.4507332402
 21
251.2279487798
  0
LINE
  5
45F
100
AcDbEntity
  8
0
100
AcDbLine
 62
7
  6
CONTINUOUS
 10
113.9507332402
 20
251.9779487798
 11
113.9507332402
 21
251.2279487798
  0
LINE
  5
460
100
AcDbEntity
  8
0
100
AcDbLine
 62
7
  6
CONTINUOUS
 10
115.2507332402
 20
251.2279487798
 11
115.2507332402
 21
251.9779487798
  0
LINE
  5
461
100
AcDbEntity
  8
0
100
AcDbLine
 62
7
  6
CONTINUOUS
 10
126.7507332402
 20
251.2279487798
 11
126.7507332402
 21
251.9779487798
  0
LINE
  5
462
100
AcDbEntity
  8
0
100
AcDbLine
 62
7
  6
CONTINUOUS
 10
128.0507332402
 20
251.9779487798
 11
128.0507332402
 21
251.2279487798
  0
LINE
  5
463
100
AcDbEntity
  8
0
100
AcDbLine
 62
7
  6
CONTINUOUS
 10
143.1507332402
 20
251.2279487798
 11
143.1507332402
 21
251.9779487798
  0
LINE
  5
464
100
AcDbEntity
  8
0
100
AcDbLine
 62
7
  6
CONTINUOUS
 10
144.4507332402
 20
251.9779487798
 11
144.4507332402
 21
251.2279487798
  0
LINE
  5
465
100
AcDbEntity
  8
0
100
AcDbLine
 62
7
  6
CONTINUOUS
 10
49.5007332402
 20
171.3279487798
 11
311.7007332402
 21
171.3279487798
  0
LINE
  5
466
100
AcDbEntity
  8
0
100
AcDbLine
 62
7
  6
CONTINUOUS
 10
62.7007332402
 20
178.4740095784
 11
298.5007332402
 21
178.4740095784
  0
LINE
  5
467
100
AcDbEntity
  8
0
100
AcDbLine
 62
7
  6
CONTINUOUS
 10
62.7007332402
 20
180.3818879813
 11
298.5007332402
 21
180.3818879813
  0
LINE
  5
468
100
AcDbEntity
  8
0
100
AcDbLine
 62
9
  6
CONTINUOUS
 10
305.5546724416
 20
185.5279487798
 11
303.6467940388
 21
185.5279487798
  0
LINE
  5
469
100
AcDbEntity
  8
0
100
AcDbLine
 62
9
  6
CONTINUOUS
 10
55.6467940388
 20
185.5279487798
 11
57.5546724416
 21
185.5279487798
  0
LINE
  5
46A
100
AcDbEntity
  8
0
100
AcDbLine
 62
7
  6
CONTINUOUS
 10
157.9507332402
 20
251.9779487798
 11
157.9507332402
 21
251.2279487798
  0
LINE
  5
46B
100
AcDbEntity
  8
0
100
AcDbLine
 62
7
  6
CONTINUOUS
 10
159.2507332402
 20
251.2279487798
 11
159.2507332402
 21
251.9779487798
  0
LINE
  5
46C
100
AcDbEntity
  8
DEFAULT_3
100
AcDbLine
 62
2
  6
PHANTOM
 10
74.1007332402
 20
188.0279487798
 11
287.1007332402
 21
188.0279487798
  0
LINE
  5
46D
100
AcDbEntity
  8
BG_STARTBEZUEGE
100
AcDbLine
 62
7
  6
CENTER
 10
180.6007332402
 20
256.9779487798
 11
180.6007332402
 21
168.3279487798
  0
LINE
  5
46E
100
AcDbEntity
  8
TEIL_STARTBEZUEGE
100
AcDbLine
 62
7
  6
CENTER
 10
53.853901676
 20
211.5279487798
 11
308.0042078212
 21
211.5279487798
  0
LINE
  5
46F
100
AcDbEntity
  8
0
100
AcDbLine
 62
7
  6
CONTINUOUS
 10
201.9507332402
 20
251.9779487798
 11
201.9507332402
 21
251.2279487798
  0
LINE
  5
470
100
AcDbEntity
  8
0
100
AcDbLine
 62
7
  6
CONTINUOUS
 10
203.2507332402
 20
251.2279487798
 11
203.2507332402
 21
251.9779487798
  0
LINE
  5
471
100
AcDbEntity
  8
0
100
AcDbLine
 62
9
  6
CONTINUOUS
 10
305.5546724416
 20
237.5279487798
 11
303.6467940388
 21
237.5279487798
  0
LINE
  5
472
100
AcDbEntity
  8
0
100
AcDbLine
 62
9
  6
CONTINUOUS
 10
55.6467940388
 20
237.5279487798
 11
57.5546724416
 21
237.5279487798
  0
LINE
  5
473
100
AcDbEntity
  8
DEFAULT_3
100
AcDbLine
 62
2
  6
PHANTOM
 10
296.6007332402
 20
238.7279487798
 11
64.6007332402
 21
238.7279487798
  0
LINE
  5
474
100
AcDbEntity
  8
0
100
AcDbLine
 62
7
  6
CONTINUOUS
 10
216.7507332402
 20
251.2279487798
 11
216.7507332402
 21
251.9779487798
  0
LINE
  5
475
100
AcDbEntity
  8
0
100
AcDbLine
 62
7
  6
CONTINUOUS
 10
218.0507332402
 20
251.9779487798
 11
218.0507332402
 21
251.2279487798
  0
LINE
  5
476
100
AcDbEntity
  8
0
100
AcDbLine
 62
7
  6
CONTINUOUS
 10
298.5007332402
 20
242.6740095784
 11
62.7007332402
 21
242.6740095784
  0
LINE
  5
477
100
AcDbEntity
  8
0
100
AcDbLine
 62
7
  6
CONTINUOUS
 10
298.5007332402
 20
244.5818879813
 11
62.7007332402
 21
244.5818879813
  0
LINE
  5
478
100
AcDbEntity
  8
0
100
AcDbLine
 62
7
  6
CONTINUOUS
 10
311.7007332402
 20
251.2279487798
 11
49.5007332402
 21
251.2279487798
  0
LINE
  5
479
100
AcDbEntity
  8
0
100
AcDbLine
 62
7
  6
CONTINUOUS
 10
298.2007332402
 20
251.9779487798
 11
279.4507332402
 21
251.9779487798
  0
LINE
  5
47A
100
AcDbEntity
  8
0
100
AcDbLine
 62
7
  6
CONTINUOUS
 10
278.1507332402
 20
251.9779487798
 11
263.0507332402
 21
251.9779487798
  0
LINE
  5
47B
100
AcDbEntity
  8
0
100
AcDbLine
 62
7
  6
CONTINUOUS
 10
261.7507332402
 20
251.9779487798
 11
247.2507332402
 21
251.9779487798
  0
LINE
  5
47C
100
AcDbEntity
  8
0
100
AcDbLine
 62
7
  6
CONTINUOUS
 10
245.9507332402
 20
251.9779487798
 11
234.4507332402
 21
251.9779487798
  0
LINE
  5
47D
100
AcDbEntity
  8
0
100
AcDbLine
 62
7
  6
CONTINUOUS
 10
233.1507332402
 20
251.9779487798
 11
218.0507332402
 21
251.9779487798
  0
LINE
  5
47E
100
AcDbEntity
  8
0
100
AcDbLine
 62
7
  6
CONTINUOUS
 10
216.7507332402
 20
251.9779487798
 11
203.2507332402
 21
251.9779487798
  0
LINE
  5
47F
100
AcDbEntity
  8
0
100
AcDbLine
 62
7
  6
CONTINUOUS
 10
201.9507332402
 20
251.9779487798
 11
159.2507332402
 21
251.9779487798
  0
LINE
  5
480
100
AcDbEntity
  8
0
100
AcDbLine
 62
7
  6
CONTINUOUS
 10
157.9507332402
 20
251.9779487798
 11
144.4507332402
 21
251.9779487798
  0
LINE
  5
481
100
AcDbEntity
  8
0
100
AcDbLine
 62
7
  6
CONTINUOUS
 10
143.1507332402
 20
251.9779487798
 11
128.0507332402
 21
251.9779487798
  0
LINE
  5
482
100
AcDbEntity
  8
0
100
AcDbLine
 62
7
  6
CONTINUOUS
 10
126.7507332402
 20
251.9779487798
 11
115.2507332402
 21
251.9779487798
  0
LINE
  5
483
100
AcDbEntity
  8
0
100
AcDbLine
 62
7
  6
CONTINUOUS
 10
113.9507332402
 20
251.9779487798
 11
99.4507332402
 21
251.9779487798
  0
LINE
  5
484
100
AcDbEntity
  8
0
100
AcDbLine
 62
7
  6
CONTINUOUS
 10
98.1507332402
 20
251.9779487798
 11
83.0507332402
 21
251.9779487798
  0
LINE
  5
485
100
AcDbEntity
  8
0
100
AcDbLine
 62
7
  6
CONTINUOUS
 10
81.7507332402
 20
251.9779487798
 11
63.0007332402
 21
251.9779487798
  0
LINE
  5
486
100
AcDbEntity
  8
0
100
AcDbLine
 62
7
  6
CONTINUOUS
 10
53.6007332402
 20
253.9779487798
 11
307.6007332402
 21
253.9779487798
  0
LINE
  5
487
100
AcDbEntity
  8
0
100
AcDbLine
 62
7
  6
CONTINUOUS
 10
233.1507332402
 20
251.2279487798
 11
233.1507332402
 21
251.9779487798
  0
LINE
  5
488
100
AcDbEntity
  8
0
100
AcDbLine
 62
7
  6
CONTINUOUS
 10
234.4507332402
 20
251.9779487798
 11
234.4507332402
 21
251.2279487798
  0
LINE
  5
489
100
AcDbEntity
  8
0
100
AcDbLine
 62
7
  6
CONTINUOUS
 10
245.9507332402
 20
251.9779487798
 11
245.9507332402
 21
251.2279487798
  0
LINE
  5
48A
100
AcDbEntity
  8
0
100
AcDbLine
 62
7
  6
CONTINUOUS
 10
247.2507332402
 20
251.2279487798
 11
247.2507332402
 21
251.9779487798
  0
LINE
  5
48B
100
AcDbEntity
  8
0
100
AcDbLine
 62
7
  6
CONTINUOUS
 10
261.7507332402
 20
251.2279487798
 11
261.7507332402
 21
251.9779487798
  0
LINE
  5
48C
100
AcDbEntity
  8
0
100
AcDbLine
 62
7
  6
CONTINUOUS
 10
263.0507332402
 20
251.9779487798
 11
263.0507332402
 21
251.2279487798
  0
LINE
  5
48D
100
AcDbEntity
  8
0
100
AcDbLine
 62
7
  6
CONTINUOUS
 10
278.1507332402
 20
251.2279487798
 11
278.1507332402
 21
251.9779487798
  0
LINE
  5
48E
100
AcDbEntity
  8
0
100
AcDbLine
 62
7
  6
CONTINUOUS
 10
279.4507332402
 20
251.9779487798
 11
279.4507332402
 21
251.2279487798
  0
LINE
  5
48F
100
AcDbEntity
  8
DEFAULT_3
100
AcDbLine
 62
2
  6
PHANTOM
 10
296.6007332402
 20
197.5279487798
 11
296.6007332402
 21
238.7279487798
  0
LINE
  5
490
100
AcDbEntity
  8
0
100
AcDbLine
 62
7
  6
CONTINUOUS
 10
298.2007332402
 20
251.2279487798
 11
298.2007332402
 21
251.9779487798
  0
LINE
  5
491
100
AcDbEntity
  8
0
100
AcDbLine
 62
9
  6
CONTINUOUS
 10
298.5007332402
 20
244.5818879813
 11
298.5007332402
 21
242.6740095784
  0
LINE
  5
492
100
AcDbEntity
  8
0
100
AcDbLine
 62
9
  6
CONTINUOUS
 10
298.5007332402
 20
178.4740095784
 11
298.5007332402
 21
180.3818879813
  0
LINE
  5
493
100
AcDbEntity
  8
0
100
AcDbLine
 62
7
  6
CONTINUOUS
 10
303.6467940388
 20
185.5279487798
 11
303.6467940388
 21
237.5279487798
  0
LINE
  5
494
100
AcDbEntity
  8
0
100
AcDbLine
 62
7
  6
CONTINUOUS
 10
305.5546724416
 20
185.5279487798
 11
305.5546724416
 21
237.5279487798
  0
LINE
  5
495
100
AcDbEntity
  8
0
100
AcDbLine
 62
7
  6
CONTINUOUS
 10
307.6007332402
 20
251.2279487798
 11
307.6007332402
 21
253.9779487798
  0
LINE
  5
496
100
AcDbEntity
  8
0
100
AcDbLine
 62
7
  6
CONTINUOUS
 10
313.7007332402
 20
249.2279487798
 11
313.7007332402
 21
173.3279487798
  0
LINE
  5
497
100
AcDbEntity
  8
0
100
AcDbLine
 62
7
  6
CONTINUOUS
 10
387.3658519553
 20
171.3279487798
 11
397.0658519553
 21
171.3279487798
  0
LINE
  5
498
100
AcDbEntity
  8
0
100
AcDbLine
 62
7
  6
CONTINUOUS
 10
385.5658519553
 20
171.4779487798
 11
371.5658519553
 21
171.4779487798
  0
LINE
  5
499
100
AcDbEntity
  8
BEZUGSACHSEN
100
AcDbLine
 62
7
  6
CONTINUOUS
 10
385.6658519553
 20
172.1779487798
 11
385.5658519553
 21
172.1779487798
  0
LINE
  5
49A
100
AcDbEntity
  8
0
100
AcDbLine
 62
7
  6
CONTINUOUS
 10
394.0658519553
 20
173.2609197997
 11
389.3658519553
 21
173.2609197997
  0
LINE
  5
49B
100
AcDbEntity
  8
0
100
AcDbLine
 62
7
  6
CONTINUOUS
 10
389.3658519553
 20
173.3279487798
 11
387.3658519553
 21
173.3279487798
  0
LINE
  5
49C
100
AcDbEntity
  8
0
100
AcDbLine
 62
9
  6
CONTINUOUS
 10
394.0658519553
 20
173.3279487798
 11
397.0658519553
 21
173.3279487798
  0
LINE
  5
49D
100
AcDbEntity
  8
0
100
AcDbLine
 62
7
  6
CONTINUOUS
 10
383.1658519553
 20
176.4779487798
 11
385.5658519553
 21
176.4779487798
  0
LINE
  5
49E
100
AcDbEntity
  8
0
100
AcDbLine
 62
7
  6
CONTINUOUS
 10
385.5658519553
 20
177.8279487798
 11
389.3658519553
 21
177.8279487798
  0
LINE
  5
49F
100
AcDbEntity
  8
0
100
AcDbLine
 62
7
  6
CONTINUOUS
 10
386.1658519553
 20
179.4779487798
 11
385.5658519553
 21
179.4779487798
  0
LINE
  5
4A0
100
AcDbEntity
  8
0
100
AcDbLine
 62
7
  6
CONTINUOUS
 10
386.3658519553
 20
181.0279487798
 11
386.1658519553
 21
181.0279487798
  0
LINE
  5
4A1
100
AcDbEntity
  8
0
100
AcDbLine
 62
9
  6
CONTINUOUS
 10
386.3658519553
 20
185.5279487798
 11
394.0658519553
 21
185.5279487798
  0
LINE
  5
4A2
100
AcDbEntity
  8
0
100
AcDbLine
 62
7
  6
CONTINUOUS
 10
386.3658519553
 20
186.5279487798
 11
380.2658519553
 21
186.5279487798
  0
LINE
  5
4A3
100
AcDbEntity
  8
0
100
AcDbLine
 62
7
  6
CONTINUOUS
 10
371.5658519553
 20
171.4779487798
 11
371.5658519553
 21
253.9779487798
  0
LINE
  5
4A4
100
AcDbEntity
  8
0
100
AcDbLine
 62
7
  6
CONTINUOUS
 10
376.3658519553
 20
232.4779487798
 11
376.3658519553
 21
171.4779487798
  0
LINE
  5
4A5
100
AcDbEntity
  8
0
100
AcDbLine
 62
7
  6
CONTINUOUS
 10
380.2658519553
 20
186.5279487798
 11
380.2658519553
 21
228.5279487798
  0
LINE
  5
4A6
100
AcDbEntity
  8
0
100
AcDbLine
 62
7
  6
CONTINUOUS
 10
383.1658519553
 20
176.4779487798
 11
383.1658519553
 21
186.5279487798
  0
LINE
  5
4A7
100
AcDbEntity
  8
0
100
AcDbLine
 62
7
  6
CONTINUOUS
 10
383.1658519553
 20
228.5279487798
 11
383.1658519553
 21
232.4779487798
  0
LINE
  5
4A8
100
AcDbEntity
  8
0
100
AcDbLine
 62
7
  6
CONTINUOUS
 10
385.5658519553
 20
171.4779487798
 11
385.5658519553
 21
179.4779487798
  0
LINE
  5
4A9
100
AcDbEntity
  8
BEZUGSACHSEN
100
AcDbLine
 62
7
  6
CONTINUOUS
 10
385.6658519553
 20
177.8279487798
 11
385.6658519553
 21
172.1779487798
  0
LINE
  5
4AA
100
AcDbEntity
  8
0
100
AcDbLine
 62
7
  6
CONTINUOUS
 10
386.1658519553
 20
179.4779487798
 11
386.1658519553
 21
186.5279487798
  0
LINE
  5
4AB
100
AcDbEntity
  8
0
100
AcDbLine
 62
7
  6
CONTINUOUS
 10
386.1658519553
 20
228.5279487798
 11
386.1658519553
 21
253.9779487798
  0
LINE
  5
4AC
100
AcDbEntity
  8
0
100
AcDbLine
 62
7
  6
CONTINUOUS
 10
386.3658519553
 20
245.2279487798
 11
386.3658519553
 21
228.5279487798
  0
LINE
  5
4AD
100
AcDbEntity
  8
0
100
AcDbLine
 62
7
  6
CONTINUOUS
 10
386.3658519553
 20
186.5279487798
 11
386.3658519553
 21
177.8279487798
  0
LINE
  5
4AE
100
AcDbEntity
  8
0
100
AcDbLine
 62
7
  6
CONTINUOUS
 10
387.3658519553
 20
171.3279487798
 11
387.3658519553
 21
173.3279487798
  0
LINE
  5
4AF
100
AcDbEntity
  8
0
100
AcDbLine
 62
7
  6
CONTINUOUS
 10
389.3658519553
 20
173.2609197997
 11
389.3658519553
 21
251.2279487798
  0
LINE
  5
4B0
100
AcDbEntity
  8
0
100
AcDbLine
 62
7
  6
CONTINUOUS
 10
394.0658519553
 20
171.3279487798
 11
394.0658519553
 21
251.2279487798
  0
LINE
  5
4B1
100
AcDbEntity
  8
0
100
AcDbLine
 62
7
  6
CONTINUOUS
 10
397.0658519553
 20
171.3279487798
 11
397.0658519553
 21
251.2279487798
  0
LINE
  5
4B2
100
AcDbEntity
  8
DEFAULT_3
100
AcDbLine
 62
2
  6
PHANTOM
 10
397.2658519553
 20
238.7279487798
 11
397.2658519553
 21
188.0279487798
  0
LINE
  5
4B3
100
AcDbEntity
  8
0
100
AcDbLine
 62
7
  6
CONTINUOUS
 10
380.2658519553
 20
228.5279487798
 11
386.3658519553
 21
228.5279487798
  0
LINE
  5
4B4
100
AcDbEntity
  8
0
100
AcDbLine
 62
7
  6
CONTINUOUS
 10
386.1658519553
 20
232.4779487798
 11
376.3658519553
 21
232.4779487798
  0
LINE
  5
4B5
100
AcDbEntity
  8
0
100
AcDbLine
 62
9
  6
CONTINUOUS
 10
394.0658519553
 20
237.5279487798
 11
386.3658519553
 21
237.5279487798
  0
LINE
  5
4B6
100
AcDbEntity
  8
0
100
AcDbLine
 62
7
  6
CONTINUOUS
 10
386.1658519553
 20
242.0279487798
 11
386.3658519553
 21
242.0279487798
  0
LINE
  5
4B7
100
AcDbEntity
  8
0
100
AcDbLine
 62
7
  6
CONTINUOUS
 10
386.1658519553
 20
245.2279487798
 11
389.3658519553
 21
245.2279487798
  0
LINE
  5
4B8
100
AcDbEntity
  8
0
100
AcDbLine
 62
9
  6
CONTINUOUS
 10
394.0658519553
 20
249.2279487798
 11
397.0658519553
 21
249.2279487798
  0
LINE
  5
4B9
100
AcDbEntity
  8
0
100
AcDbLine
 62
7
  6
CONTINUOUS
 10
389.3658519553
 20
251.2279487798
 11
397.0658519553
 21
251.2279487798
  0
LINE
  5
4BA
100
AcDbEntity
  8
0
100
AcDbLine
 62
7
  6
CONTINUOUS
 10
371.5658519553
 20
253.9779487798
 11
386.1658519553
 21
253.9779487798
  0
LINE
  5
4BB
100
AcDbEntity
  8
0
100
AcDbLine
 62
7
  6
CONTINUOUS
 10
53.9987943933
 20
84.8433686707
 11
52.2935070397
 21
83.5621550757
  0
LINE
  5
4BC
100
AcDbEntity
  8
0
100
AcDbLine
 62
7
  6
CONTINUOUS
 10
56.5660526022
 20
84.3622636896
 11
56.8697339117
 21
84.5904250147
  0
LINE
  5
4BD
100
AcDbEntity
  8
0
100
AcDbLine
 62
7
  6
CONTINUOUS
 10
51.4012268313
 20
35.0394980497
 11
50.4623844074
 21
56.7351698455
  0
LINE
  5
4BE
100
AcDbEntity
  8
0
100
AcDbLine
 62
7
  6
CONTINUOUS
 10
56.1405120828
 20
82.2673272315
 11
54.9725070461
 21
81.3897836733
  0
LINE
  5
4BF
100
AcDbEntity
  8
0
100
AcDbLine
 62
7
  6
CONTINUOUS
 10
56.9655067891
 20
82.5810179662
 11
56.943957066
 21
82.5648272649
  0
LINE
  5
4C0
100
AcDbEntity
  8
0
100
AcDbLine
 62
7
  6
CONTINUOUS
 10
57.6889109525
 20
82.4436487739
 11
57.6538708014
 21
82.4173224672
  0
LINE
  5
4C1
100
AcDbEntity
  8
0
100
AcDbLine
 62
9
  6
CONTINUOUS
 10
58.3442019856
 20
82.4595482517
 11
58.3424289251
 21
82.4582161189
  0
LINE
  5
4C2
100
AcDbEntity
  8
0
100
AcDbLine
 62
7
  6
CONTINUOUS
 10
58.5020759473
 20
82.3906297896
 11
58.5371160984
 21
82.4169560964
  0
LINE
  5
4C3
100
AcDbEntity
  8
0
100
AcDbLine
 62
7
  6
CONTINUOUS
 10
54.5175386113
 20
79.1937305119
 11
53.2124718416
 21
78.2132099654
  0
LINE
  5
4C4
100
AcDbEntity
  8
0
100
AcDbLine
 62
9
  6
CONTINUOUS
 10
59.1152728894
 20
82.3916131761
 11
59.1134998289
 21
82.3902810432
  0
LINE
  5
4C5
100
AcDbEntity
  8
0
100
AcDbLine
 62
9
  6
CONTINUOUS
 10
59.3245638463
 20
82.3670422264
 11
59.2895236952
 21
82.3407159196
  0
LINE
  5
4C6
100
AcDbEntity
  8
0
100
AcDbLine
 62
7
  6
CONTINUOUS
 10
59.2673220292
 20
82.3215281994
 11
59.3023621803
 21
82.3478545061
  0
LINE
  5
4C7
100
AcDbEntity
  8
0
100
AcDbLine
 62
7
  6
CONTINUOUS
 10
59.6258180687
 20
82.2729978898
 11
59.5907779176
 21
82.246671583
  0
LINE
  5
4C8
100
AcDbEntity
  8
0
100
AcDbLine
 62
7
  6
CONTINUOUS
 10
58.5000811684
 20
82.3891523789
 11
58.5020752757
 21
82.3906306829
  0
LINE
  5
4C9
100
AcDbEntity
  8
0
100
AcDbLine
 62
7
  6
CONTINUOUS
 10
52.8558425243
 20
53.192653289
 11
53.4990547251
 21
38.3286884223
  0
LINE
  5
4CA
100
AcDbEntity
  8
0
100
AcDbLine
 62
7
  6
CONTINUOUS
 10
53.3825159381
 20
53.1462508141
 11
54.0257281389
 21
38.2822859475
  0
LINE
  5
4CB
100
AcDbEntity
  8
0
100
AcDbLine
 62
7
  6
CONTINUOUS
 10
52.2935070397
 20
83.5621550757
 11
52.5594505459
 21
77.4164772943
  0
LINE
  5
4CC
100
AcDbEntity
  8
0
100
AcDbLine
 62
7
  6
CONTINUOUS
 10
60.5073471754
 20
80.9021374904
 11
61.6753522121
 21
81.7796810487
  0
LINE
  5
4CD
100
AcDbEntity
  8
0
100
AcDbLine
 62
7
  6
CONTINUOUS
 10
56.947605125
 20
82.4805244173
 11
57.1655425061
 21
82.5633938521
  0
LINE
  5
4CE
100
AcDbEntity
  8
0
100
AcDbLine
 62
7
  6
CONTINUOUS
 10
56.9843311524
 20
82.5793594487
 11
56.943957066
 21
82.5648272649
  0
LINE
  5
4CF
100
AcDbEntity
  8
0
100
AcDbLine
 62
7
  6
CONTINUOUS
 10
53.2124718416
 20
78.2132099654
 11
53.0207451279
 21
82.6438148776
  0
LINE
  5
4D0
100
AcDbEntity
  8
0
100
AcDbLine
 62
7
  6
CONTINUOUS
 10
53.7458333514
 20
77.3119512316
 11
54.4586328712
 21
60.8398958108
  0
LINE
  5
4D1
100
AcDbEntity
  8
0
100
AcDbLine
 62
7
  6
CONTINUOUS
 10
54.5676864083
 20
62.147491573
 11
54.4439917543
 21
65.0059463551
  0
LINE
  5
4D2
100
AcDbEntity
  8
0
100
AcDbLine
 62
7
  6
CONTINUOUS
 10
54.3697749619
 20
66.7210192243
 11
54.2584497732
 21
69.2936285282
  0
LINE
  5
4D3
100
AcDbEntity
  8
0
100
AcDbLine
 62
7
  6
CONTINUOUS
 10
54.1842329808
 20
71.0087013974
 11
54.0729077922
 21
73.5813107012
  0
LINE
  5
4D4
100
AcDbEntity
  8
0
100
AcDbLine
 62
7
  6
CONTINUOUS
 10
53.9986909998
 20
75.2963835705
 11
53.912104742
 21
77.2973019179
  0
LINE
  5
4D5
100
AcDbEntity
  8
0
100
AcDbLine
 62
7
  6
CONTINUOUS
 10
54.6748751067
 20
61.3426077519
 11
54.6403220902
 21
62.1410920182
  0
LINE
  5
4D6
100
AcDbEntity
  8
DEFAULT_3
100
AcDbLine
 62
2
  6
PHANTOM
 10
55.2893907862
 20
53.3003437112
 11
55.7990127607
 21
41.5235100091
  0
LINE
  5
4D7
100
AcDbEntity
  8
0
100
AcDbLine
 62
7
  6
CONTINUOUS
 10
55.1487625631
 20
60.7790920474
 11
55.126097726
 21
61.302852857
  0
LINE
  5
4D8
100
AcDbEntity
  8
0
100
AcDbLine
 62
7
  6
CONTINUOUS
 10
54.9550731567
 20
65.255052747
 11
54.8936332631
 21
66.6748647745
  0
LINE
  5
4D9
100
AcDbEntity
  8
0
100
AcDbLine
 62
7
  6
CONTINUOUS
 10
54.7695311757
 20
69.5427349201
 11
54.7080912821
 21
70.9625469476
  0
LINE
  5
4DA
100
AcDbEntity
  8
0
100
AcDbLine
 62
7
  6
CONTINUOUS
 10
54.5839891947
 20
73.8304170932
 11
54.5225493011
 21
75.2502291207
  0
LINE
  5
4DB
100
AcDbEntity
  8
0
100
AcDbLine
 62
7
  6
CONTINUOUS
 10
54.3733993241
 20
82.5246395013
 11
54.5651260378
 21
78.0940345891
  0
LINE
  5
4DC
100
AcDbEntity
  8
0
100
AcDbLine
 62
7
  6
CONTINUOUS
 10
55.1341214462
 20
64.9451425916
 11
55.0599046538
 21
66.6602154609
  0
LINE
  5
4DD
100
AcDbEntity
  8
0
100
AcDbLine
 62
7
  6
CONTINUOUS
 10
54.9485794652
 20
69.2328247647
 11
54.8743626728
 21
70.947897634
  0
LINE
  5
4DE
100
AcDbEntity
  8
0
100
AcDbLine
 62
7
  6
CONTINUOUS
 10
54.7630374842
 20
73.5205069378
 11
54.6888206918
 21
75.235579807
  0
LINE
  5
4DF
100
AcDbEntity
  8
0
100
AcDbLine
 62
7
  6
CONTINUOUS
 10
55.4268521256
 20
59.8525765974
 11
55.3650047986
 21
61.2818039885
  0
LINE
  5
4E0
100
AcDbEntity
  8
0
100
AcDbLine
 62
7
  6
CONTINUOUS
 10
54.9725070461
 20
81.3897836733
 11
54.9131336122
 21
82.7618419687
  0
LINE
  5
4E1
100
AcDbEntity
  8
0
100
AcDbLine
 62
7
  6
CONTINUOUS
 10
56.0859717305
 20
62.0137232934
 11
55.2732978537
 21
80.7937712115
  0
LINE
  5
4E2
100
AcDbEntity
  8
0
100
AcDbLine
 62
7
  6
CONTINUOUS
 10
56.0986049604
 20
63.1152287407
 11
56.1233438912
 21
62.5435377843
  0
LINE
  5
4E3
100
AcDbEntity
  8
0
100
AcDbLine
 62
7
  6
CONTINUOUS
 10
56.2550077559
 20
59.7796120813
 11
56.1560520327
 21
62.0663759069
  0
LINE
  5
4E4
100
AcDbEntity
  8
0
100
AcDbLine
 62
7
  6
CONTINUOUS
 10
54.4233093032
 20
73.8445737687
 11
54.0729077922
 21
73.5813107012
  0
LINE
  5
4E5
100
AcDbEntity
  8
0
100
AcDbLine
 62
7
  6
CONTINUOUS
 10
65.0345979545
 20
80.5032648022
 11
66.2026029911
 21
81.3808083604
  0
LINE
  5
4E6
100
AcDbEntity
  8
0
100
AcDbLine
 62
7
  6
CONTINUOUS
 10
65.5693255115
 20
79.6897012157
 11
65.1254835976
 21
79.3562346636
  0
LINE
  5
4E7
100
AcDbEntity
  8
0
100
AcDbLine
 62
7
  6
CONTINUOUS
 10
56.1237283117
 20
82.655182721
 11
56.1405120828
 21
82.2673272315
  0
LINE
  5
4E8
100
AcDbEntity
  8
RUNDUNGEN
100
AcDbLine
 62
7
  6
CONTINUOUS
 10
57.4534908029
 20
64.1331792682
 11
57.2803182873
 21
68.1350159631
  0
LINE
  5
4E9
100
AcDbEntity
  8
0
100
AcDbLine
 62
7
  6
CONTINUOUS
 10
56.943957066
 20
82.5648272649
 11
56.947605125
 21
82.4805244173
  0
LINE
  5
4EA
100
AcDbEntity
  8
0
100
AcDbLine
 62
7
  6
CONTINUOUS
 10
57.8902148072
 20
61.0081730628
 11
57.8302824175
 21
62.3931482451
  0
LINE
  5
4EB
100
AcDbEntity
  8
RUNDUNGEN
100
AcDbLine
 62
7
  6
CONTINUOUS
 10
57.5723195464
 20
68.3544018527
 11
57.040766115
 21
80.6380487099
  0
LINE
  5
4EC
100
AcDbEntity
  8
RUNDUNGEN
100
AcDbLine
 62
7
  6
CONTINUOUS
 10
56.880807224
 20
84.3345322852
 11
56.8697339117
 21
84.5904250147
  0
LINE
  5
4ED
100
AcDbEntity
  8
0
100
AcDbLine
 62
7
  6
CONTINUOUS
 10
57.5447863871
 20
82.5299806321
 11
57.5492626457
 21
82.4265389516
  0
LINE
  5
4EE
100
AcDbEntity
  8
0
100
AcDbLine
 62
7
  6
CONTINUOUS
 10
57.6538708014
 20
82.4173224672
 11
57.6493945428
 21
82.5207641477
  0
LINE
  5
4EF
100
AcDbEntity
  8
0
100
AcDbLine
 62
7
  6
CONTINUOUS
 10
57.6889109525
 20
82.4436487739
 11
57.6857123838
 21
82.5175643702
  0
LINE
  5
4F0
100
AcDbEntity
  8
0
100
AcDbLine
 62
7
  6
CONTINUOUS
 10
54.6088512842
 20
69.5568915956
 11
54.2584497732
 21
69.2936285282
  0
LINE
  5
4F1
100
AcDbEntity
  8
0
100
AcDbLine
 62
7
  6
CONTINUOUS
 10
69.3962176075
 20
80.1189850172
 11
70.5642226441
 21
80.9965285754
  0
LINE
  5
4F2
100
AcDbEntity
  8
FASEN
100
AcDbLine
 62
7
  6
CONTINUOUS
 10
69.8431044335
 20
78.3710781157
 11
70.3103064482
 21
78.722095539
  0
LINE
  5
4F3
100
AcDbEntity
  8
FASEN
100
AcDbLine
 62
7
  6
CONTINUOUS
 10
69.7085919912
 20
77.9114630205
 11
69.9421929985
 21
78.0869717321
  0
LINE
  5
4F4
100
AcDbEntity
  8
0
100
AcDbLine
 62
7
  6
CONTINUOUS
 10
59.4816935445
 20
82.3593297443
 11
59.4861698031
 21
82.2558880638
  0
LINE
  5
4F5
100
AcDbEntity
  8
0
100
AcDbLine
 62
7
  6
CONTINUOUS
 10
59.5907779176
 20
82.246671583
 11
59.586301659
 21
82.3501132635
  0
LINE
  5
4F6
100
AcDbEntity
  8
0
100
AcDbLine
 62
7
  6
CONTINUOUS
 10
59.6258180687
 20
82.2729978898
 11
59.6226195
 21
82.3469134861
  0
LINE
  5
4F7
100
AcDbEntity
  8
0
100
AcDbLine
 62
7
  6
CONTINUOUS
 10
60.1318108849
 20
80.3657127168
 11
60.1565498157
 21
79.7940217604
  0
LINE
  5
4F8
100
AcDbEntity
  8
0
100
AcDbLine
 62
7
  6
CONTINUOUS
 10
60.1484797356
 20
80.9337554474
 11
60.0891063017
 21
82.3058137428
  0
LINE
  5
4F9
100
AcDbEntity
  8
0
100
AcDbLine
 62
7
  6
CONTINUOUS
 10
60.4479737415
 20
82.2741957858
 11
60.5073471754
 21
80.9021374904
  0
LINE
  5
4FA
100
AcDbEntity
  8
0
100
AcDbLine
 62
7
  6
CONTINUOUS
 10
61.6753522121
 20
81.7796810487
 11
61.658568441
 21
82.1675365381
  0
LINE
  5
4FB
100
AcDbEntity
  8
FASEN
100
AcDbLine
 62
7
  6
CONTINUOUS
 10
69.9421929985
 20
78.0869717321
 11
70.3103064482
 21
78.722095539
  0
LINE
  5
4FC
100
AcDbEntity
  8
RUNDUNGEN
100
AcDbLine
 62
9
  6
CONTINUOUS
 10
57.5723195464
 20
68.3544018527
 11
57.2803182873
 21
68.1350159631
  0
LINE
  5
4FD
100
AcDbEntity
  8
0
100
AcDbLine
 62
7
  6
CONTINUOUS
 10
72.9296816301
 20
79.8076697483
 11
74.0976866668
 21
80.6852133065
  0
LINE
  5
4FE
100
AcDbEntity
  8
0
100
AcDbLine
 62
7
  6
CONTINUOUS
 10
54.7943932652
 20
65.2692094226
 11
54.4439917543
 21
65.0059463551
  0
LINE
  5
4FF
100
AcDbEntity
  8
0
100
AcDbLine
 62
7
  6
CONTINUOUS
 10
51.9780695156
 20
34.4191640826
 11
124.3588716052
 21
28.0420653718
  0
LINE
  5
500
100
AcDbEntity
  8
BEZUGSACHSEN
100
AcDbLine
 62
7
  6
CONTINUOUS
 10
63.1902719365
 20
61.9209072466
 11
63.3015971251
 21
59.3482979427
  0
LINE
  5
501
100
AcDbEntity
  8
BEZUGSACHSEN
100
AcDbLine
 62
7
  6
CONTINUOUS
 10
64.2944794436
 20
61.823621225
 11
64.4058046322
 21
59.2510119212
  0
LINE
  5
502
100
AcDbEntity
  8
BEZUGSACHSEN
100
AcDbLine
 62
7
  6
CONTINUOUS
 10
64.7787173234
 20
61.780957526
 11
64.8730066469
 21
59.6020293445
  0
LINE
  5
503
100
AcDbEntity
  8
0
100
AcDbLine
 62
7
  6
CONTINUOUS
 10
65.2099001393
 20
64.4179713671
 11
65.2519563217
 21
63.4460967412
  0
LINE
  5
504
100
AcDbEntity
  8
0
100
AcDbLine
 62
7
  6
CONTINUOUS
 10
64.6757305147
 20
80.5348827592
 11
64.6163570807
 21
81.9069410546
  0
LINE
  5
505
100
AcDbEntity
  8
0
100
AcDbLine
 62
7
  6
CONTINUOUS
 10
64.9752245205
 20
81.8753230976
 11
65.0345979545
 21
80.5032648022
  0
LINE
  5
506
100
AcDbEntity
  8
0
100
AcDbLine
 62
7
  6
CONTINUOUS
 10
65.1007446668
 20
79.92792562
 11
65.1254835976
 21
79.3562346636
  0
LINE
  5
507
100
AcDbEntity
  8
FASEN
100
AcDbLine
 62
7
  6
CONTINUOUS
 10
69.8431044335
 20
78.3710781157
 11
69.7085919912
 21
77.9114630205
  0
LINE
  5
508
100
AcDbEntity
  8
0
100
AcDbLine
 62
7
  6
CONTINUOUS
 10
63.5382030394
 20
62.4597641707
 11
64.8510326995
 21
64.4495893241
  0
LINE
  5
509
100
AcDbEntity
  8
0
100
AcDbLine
 62
7
  6
CONTINUOUS
 10
63.8970704792
 20
62.4281462137
 11
65.2099001393
 21
64.4179713671
  0
LINE
  5
50A
100
AcDbEntity
  8
0
100
AcDbLine
 62
7
  6
CONTINUOUS
 10
77.4569324092
 20
79.4087970601
 11
78.6249374459
 21
80.2863406183
  0
LINE
  5
50B
100
AcDbEntity
  8
0
100
AcDbLine
 62
7
  6
CONTINUOUS
 10
56.0986049604
 20
63.1152287407
 11
57.4534908029
 21
64.1331792682
  0
LINE
  5
50C
100
AcDbEntity
  8
0
100
AcDbLine
 62
7
  6
CONTINUOUS
 10
77.9916599663
 20
78.5952334736
 11
77.5478180523
 21
78.2617669214
  0
LINE
  5
50D
100
AcDbEntity
  8
0
100
AcDbLine
 62
7
  6
CONTINUOUS
 10
56.0859717305
 20
62.0137232934
 11
56.1560520327
 21
62.0663759069
  0
LINE
  5
50E
100
AcDbEntity
  8
RUNDUNGEN
100
AcDbLine
 62
9
  6
CONTINUOUS
 10
60.4565329681
 20
65.2527320168
 11
60.164531709
 21
65.0333461273
  0
LINE
  5
50F
100
AcDbEntity
  8
0
100
AcDbLine
 62
7
  6
CONTINUOUS
 10
55.3792646991
 20
60.9522725203
 11
55.1487625631
 21
60.7790920474
  0
LINE
  5
510
100
AcDbEntity
  8
0
100
AcDbLine
 62
7
  6
CONTINUOUS
 10
50.6540835635
 20
57.1662231201
 11
51.0044850745
 21
57.4294861875
  0
LINE
  5
511
100
AcDbEntity
  8
0
100
AcDbLine
 62
9
  6
CONTINUOUS
 10
51.3401507411
 20
57.5214808586
 11
50.9897492301
 21
57.2582177912
  0
LINE
  5
512
100
AcDbEntity
  8
0
100
AcDbLine
 62
7
  6
CONTINUOUS
 10
81.5425001854
 20
79.0488387804
 11
82.7105052221
 21
79.9263823387
  0
LINE
  5
513
100
AcDbEntity
  8
0
100
AcDbLine
 62
7
  6
CONTINUOUS
 10
56.2550077559
 20
59.7796120813
 11
57.8902148072
 21
61.0081730628
  0
LINE
  5
514
100
AcDbEntity
  8
0
100
AcDbLine
 62
7
  6
CONTINUOUS
 10
55.5335613372
 20
36.1407893778
 11
120.6265938801
 21
30.4057784091
  0
LINE
  5
515
100
AcDbEntity
  8
0
100
AcDbLine
 62
7
  6
CONTINUOUS
 10
55.5099619013
 20
36.6861477922
 11
120.6029944442
 21
30.9511368235
  0
LINE
  5
516
100
AcDbEntity
  8
0
100
AcDbLine
 62
7
  6
CONTINUOUS
 10
65.5607706526
 20
79.8873951059
 11
65.5693255115
 21
79.6897012157
  0
LINE
  5
517
100
AcDbEntity
  8
0
100
AcDbLine
 62
7
  6
CONTINUOUS
 10
66.2026029911
 20
81.3808083604
 11
66.1858192201
 21
81.7686638499
  0
LINE
  5
518
100
AcDbEntity
  8
0
100
AcDbLine
 62
9
  6
CONTINUOUS
 10
54.9840355145
 20
57.2004369876
 11
55.5329978817
 21
57.61288246
  0
LINE
  5
519
100
AcDbEntity
  8
FASEN
100
AcDbLine
 62
7
  6
CONTINUOUS
 10
81.9893870115
 20
77.3009318789
 11
82.4565890261
 21
77.6519493022
  0
LINE
  5
51A
100
AcDbEntity
  8
0
100
AcDbLine
 62
7
  6
CONTINUOUS
 10
62.710047409
 20
62.5327286869
 11
63.1772494237
 21
62.8837461101
  0
LINE
  5
51B
100
AcDbEntity
  8
FASEN
100
AcDbLine
 62
7
  6
CONTINUOUS
 10
81.8548745692
 20
76.8413167837
 11
82.0884755765
 21
77.0168254954
  0
LINE
  5
51C
100
AcDbEntity
  8
0
100
AcDbLine
 62
7
  6
CONTINUOUS
 10
88.6433049281
 20
81.7910197454
 11
88.3396236186
 21
81.5628584203
  0
LINE
  5
51D
100
AcDbEntity
  8
0
100
AcDbLine
 62
9
  6
CONTINUOUS
 10
63.2462736685
 20
62.2732753008
 11
63.5811711212
 21
62.5248898855
  0
LINE
  5
51E
100
AcDbEntity
  8
0
100
AcDbLine
 62
7
  6
CONTINUOUS
 10
89.4714605585
 20
81.7180552293
 11
89.1677792489
 21
81.4898939042
  0
LINE
  5
51F
100
AcDbEntity
  8
0
100
AcDbLine
 62
9
  6
CONTINUOUS
 10
64.3642724938
 20
62.779163637
 11
63.8970704792
 21
62.4281462137
  0
LINE
  5
520
100
AcDbEntity
  8
0
100
AcDbLine
 62
7
  6
CONTINUOUS
 10
64.3642724938
 20
62.779163637
 11
65.2519563217
 21
63.4460967412
  0
LINE
  5
521
100
AcDbEntity
  8
0
100
AcDbLine
 62
9
  6
CONTINUOUS
 10
64.2074361122
 20
62.1885922412
 11
64.6746381269
 21
62.5396096645
  0
LINE
  5
522
100
AcDbEntity
  8
0
100
AcDbLine
 62
7
  6
CONTINUOUS
 10
64.7252261095
 20
62.3551816976
 11
65.1924281241
 21
62.7061991209
  0
LINE
  5
523
100
AcDbEntity
  8
DEFAULT_3
100
AcDbLine
 62
2
  6
PHANTOM
 10
58.5390155113
 20
38.5769236651
 11
117.3380652637
 21
33.396443019
  0
LINE
  5
524
100
AcDbEntity
  8
FASEN
100
AcDbLine
 62
7
  6
CONTINUOUS
 10
68.6894190648
 20
79.61174605
 11
68.7388969264
 21
78.4683641372
  0
LINE
  5
525
100
AcDbEntity
  8
0
100
AcDbLine
 62
7
  6
CONTINUOUS
 10
68.9779767337
 20
81.5226612696
 11
69.0373501677
 21
80.1506029742
  0
LINE
  5
526
100
AcDbEntity
  8
0
100
AcDbLine
 62
7
  6
CONTINUOUS
 10
69.3962176075
 20
80.1189850172
 11
69.3368441735
 21
81.4910433126
  0
LINE
  5
527
100
AcDbEntity
  8
FASEN
100
AcDbLine
 62
7
  6
CONTINUOUS
 10
69.8431044335
 20
78.3710781157
 11
69.7936265719
 21
79.5144600285
  0
LINE
  5
528
100
AcDbEntity
  8
FASEN
100
AcDbLine
 62
7
  6
CONTINUOUS
 10
70.3103064482
 20
78.722095539
 11
70.2778644517
 21
79.4717963294
  0
LINE
  5
529
100
AcDbEntity
  8
0
100
AcDbLine
 62
7
  6
CONTINUOUS
 10
70.5642226441
 20
80.9965285754
 11
70.5474388731
 21
81.3843840649
  0
LINE
  5
52A
100
AcDbEntity
  8
0
100
AcDbLine
 62
7
  6
CONTINUOUS
 10
72.29998387
 20
61.118297569
 11
72.4113090586
 21
58.5456882652
  0
LINE
  5
52B
100
AcDbEntity
  8
FASEN
100
AcDbLine
 62
7
  6
CONTINUOUS
 10
82.0884755765
 20
77.0168254954
 11
82.4565890261
 21
77.6519493022
  0
LINE
  5
52C
100
AcDbEntity
  8
0
100
AcDbLine
 62
7
  6
CONTINUOUS
 10
72.6479149728
 20
61.6571544932
 11
73.960744633
 21
63.6469796466
  0
LINE
  5
52D
100
AcDbEntity
  8
0
100
AcDbLine
 62
7
  6
CONTINUOUS
 10
73.0067824126
 20
61.6255365362
 11
74.3196120728
 21
63.6153616896
  0
LINE
  5
52E
100
AcDbEntity
  8
0
100
AcDbLine
 62
7
  6
CONTINUOUS
 10
88.4324373639
 20
79.7349954158
 11
88.3973972128
 21
79.7086691091
  0
LINE
  5
52F
100
AcDbEntity
  8
0
100
AcDbLine
 62
7
  6
CONTINUOUS
 10
88.8532366233
 20
79.697920966
 11
88.8181964722
 21
79.6715946593
  0
LINE
  5
530
100
AcDbEntity
  8
BEZUGSACHSEN
100
AcDbLine
 62
7
  6
CONTINUOUS
 10
64.8730066469
 20
59.6020293445
 11
64.4058046322
 21
59.2510119212
  0
LINE
  5
531
100
AcDbEntity
  8
0
100
AcDbLine
 62
7
  6
CONTINUOUS
 10
72.5541453396
 20
79.2712449747
 11
72.5788842704
 21
78.6995540183
  0
LINE
  5
532
100
AcDbEntity
  8
0
100
AcDbLine
 62
7
  6
CONTINUOUS
 10
72.5708141903
 20
79.8392877053
 11
72.5114407564
 21
81.2113460007
  0
LINE
  5
533
100
AcDbEntity
  8
0
100
AcDbLine
 62
7
  6
CONTINUOUS
 10
73.4041913771
 20
61.0210115475
 11
73.5155165657
 21
58.4484022436
  0
LINE
  5
534
100
AcDbEntity
  8
0
100
AcDbLine
 62
7
  6
CONTINUOUS
 10
72.8703081962
 20
81.1797280437
 11
72.9296816301
 21
79.8076697483
  0
LINE
  5
535
100
AcDbEntity
  8
0
100
AcDbLine
 62
7
  6
CONTINUOUS
 10
73.8884292569
 20
60.9783478484
 11
73.9827185803
 21
58.7994196669
  0
LINE
  5
536
100
AcDbEntity
  8
0
100
AcDbLine
 62
7
  6
CONTINUOUS
 10
74.3196120728
 20
63.6153616896
 11
74.3616682552
 21
62.6434870637
  0
LINE
  5
537
100
AcDbEntity
  8
0
100
AcDbLine
 62
7
  6
CONTINUOUS
 10
74.0976866668
 20
80.6852133065
 11
74.0809028958
 21
81.073068796
  0
LINE
  5
538
100
AcDbEntity
  8
0
100
AcDbLine
 62
7
  6
CONTINUOUS
 10
71.8197593425
 20
61.7301190093
 11
72.2869613572
 21
62.0811364326
  0
LINE
  5
539
100
AcDbEntity
  8
0
100
AcDbLine
 62
7
  6
CONTINUOUS
 10
93.6887827634
 20
77.9786925437
 11
94.8567878001
 21
78.8562361019
  0
LINE
  5
53A
100
AcDbEntity
  8
0
100
AcDbLine
 62
9
  6
CONTINUOUS
 10
72.355985602
 20
61.4706656233
 11
72.6908830547
 21
61.722280208
  0
LINE
  5
53B
100
AcDbEntity
  8
0
100
AcDbLine
 62
9
  6
CONTINUOUS
 10
73.4739844273
 20
61.9765539594
 11
73.0067824126
 21
61.6255365362
  0
LINE
  5
53C
100
AcDbEntity
  8
0
100
AcDbLine
 62
7
  6
CONTINUOUS
 10
73.4739844273
 20
61.9765539594
 11
74.3616682552
 21
62.6434870637
  0
LINE
  5
53D
100
AcDbEntity
  8
0
100
AcDbLine
 62
9
  6
CONTINUOUS
 10
73.3171480457
 20
61.3859825636
 11
73.7843500604
 21
61.7369999869
  0
LINE
  5
53E
100
AcDbEntity
  8
0
100
AcDbLine
 62
7
  6
CONTINUOUS
 10
73.834938043
 20
61.55257202
 11
74.3021400576
 21
61.9035894433
  0
LINE
  5
53F
100
AcDbEntity
  8
0
100
AcDbLine
 62
7
  6
CONTINUOUS
 10
64.6746381269
 20
62.5396096645
 11
65.1924281241
 21
62.7061991209
  0
LINE
  5
540
100
AcDbEntity
  8
0
100
AcDbLine
 62
7
  6
CONTINUOUS
 10
64.2074361122
 20
62.1885922412
 11
64.7252261095
 21
62.3551816976
  0
LINE
  5
541
100
AcDbEntity
  8
0
100
AcDbLine
 62
7
  6
CONTINUOUS
 10
77.0980649694
 20
79.4404150171
 11
77.0386915355
 21
80.8124733125
  0
LINE
  5
542
100
AcDbEntity
  8
0
100
AcDbLine
 62
7
  6
CONTINUOUS
 10
77.3975589753
 20
80.7808553555
 11
77.4569324092
 21
79.4087970601
  0
LINE
  5
543
100
AcDbEntity
  8
0
100
AcDbLine
 62
7
  6
CONTINUOUS
 10
77.5230791215
 20
78.8334578779
 11
77.5478180523
 21
78.2617669214
  0
LINE
  5
544
100
AcDbEntity
  8
FASEN
100
AcDbLine
 62
7
  6
CONTINUOUS
 10
81.9893870115
 20
77.3009318789
 11
81.8548745692
 21
76.8413167837
  0
LINE
  5
545
100
AcDbEntity
  8
0
100
AcDbLine
 62
7
  6
CONTINUOUS
 10
88.3973972128
 20
79.7086691091
 11
88.451901079
 21
79.8069143553
  0
LINE
  5
546
100
AcDbEntity
  8
0
100
AcDbLine
 62
7
  6
CONTINUOUS
 10
88.4324373639
 20
79.7349954158
 11
88.4713838094
 21
79.8051978326
  0
LINE
  5
547
100
AcDbEntity
  8
0
100
AcDbLine
 62
7
  6
CONTINUOUS
 10
88.3347036391
 20
79.8172400166
 11
88.279535561
 21
79.7190532906
  0
LINE
  5
548
100
AcDbEntity
  8
FASEN
100
AcDbLine
 62
7
  6
CONTINUOUS
 10
94.1356695894
 20
76.2307856422
 11
94.6028716041
 21
76.5818030655
  0
LINE
  5
549
100
AcDbEntity
  8
FASEN
100
AcDbLine
 62
7
  6
CONTINUOUS
 10
94.0011571471
 20
75.771170547
 11
94.2347581545
 21
75.9466792586
  0
LINE
  5
54A
100
AcDbEntity
  8
0
100
AcDbLine
 62
7
  6
CONTINUOUS
 10
97.7743505396
 20
77.6187342641
 11
98.9423555763
 21
78.4962778223
  0
LINE
  5
54B
100
AcDbEntity
  8
0
100
AcDbLine
 62
7
  6
CONTINUOUS
 10
73.9827185803
 20
58.7994196669
 11
73.5155165657
 21
58.4484022436
  0
LINE
  5
54C
100
AcDbEntity
  8
0
100
AcDbLine
 62
7
  6
CONTINUOUS
 10
73.7843500604
 20
61.7369999869
 11
74.3021400576
 21
61.9035894433
  0
LINE
  5
54D
100
AcDbEntity
  8
0
100
AcDbLine
 62
7
  6
CONTINUOUS
 10
73.3171480457
 20
61.3859825636
 11
73.834938043
 21
61.55257202
  0
LINE
  5
54E
100
AcDbEntity
  8
0
100
AcDbLine
 62
7
  6
CONTINUOUS
 10
77.9831051073
 20
78.7929273637
 11
77.9916599663
 21
78.5952334736
  0
LINE
  5
54F
100
AcDbEntity
  8
0
100
AcDbLine
 62
7
  6
CONTINUOUS
 10
78.6249374459
 20
80.2863406183
 11
78.6081536748
 21
80.6741961078
  0
LINE
  5
550
100
AcDbEntity
  8
0
100
AcDbLine
 62
7
  6
CONTINUOUS
 10
81.4096958035
 20
60.3156878914
 11
81.5210209921
 21
57.7430785876
  0
LINE
  5
551
100
AcDbEntity
  8
FASEN
100
AcDbLine
 62
7
  6
CONTINUOUS
 10
80.8357016428
 20
78.5415998133
 11
80.8851795044
 21
77.3982179005
  0
LINE
  5
552
100
AcDbEntity
  8
0
100
AcDbLine
 62
7
  6
CONTINUOUS
 10
81.7576269063
 20
60.8545448156
 11
83.0704565665
 21
62.844369969
  0
LINE
  5
553
100
AcDbEntity
  8
0
100
AcDbLine
 62
7
  6
CONTINUOUS
 10
82.1164943461
 20
60.8229268586
 11
83.4293240063
 21
62.812752012
  0
LINE
  5
554
100
AcDbEntity
  8
0
100
AcDbLine
 62
7
  6
CONTINUOUS
 10
102.3016013187
 20
77.2198615758
 11
103.4696063553
 21
78.097405134
  0
LINE
  5
555
100
AcDbEntity
  8
0
100
AcDbLine
 62
7
  6
CONTINUOUS
 10
80.929471276
 20
60.9275093317
 11
81.3966732907
 21
61.278526755
  0
LINE
  5
556
100
AcDbEntity
  8
0
100
AcDbLine
 62
9
  6
CONTINUOUS
 10
81.4656975355
 20
60.6680559457
 11
81.8005949881
 21
60.9196705304
  0
LINE
  5
557
100
AcDbEntity
  8
0
100
AcDbLine
 62
7
  6
CONTINUOUS
 10
102.8363288757
 20
76.4062979893
 11
102.3924869618
 21
76.0728314372
  0
LINE
  5
558
100
AcDbEntity
  8
0
100
AcDbLine
 62
9
  6
CONTINUOUS
 10
82.5836963608
 20
61.1739442819
 11
82.1164943461
 21
60.8229268586
  0
LINE
  5
559
100
AcDbEntity
  8
0
100
AcDbLine
 62
7
  6
CONTINUOUS
 10
82.5836963608
 20
61.1739442819
 11
83.4713801886
 21
61.8408773861
  0
LINE
  5
55A
100
AcDbEntity
  8
0
100
AcDbLine
 62
9
  6
CONTINUOUS
 10
82.4268599792
 20
60.583372886
 11
82.8940619938
 21
60.9343903093
  0
LINE
  5
55B
100
AcDbEntity
  8
0
100
AcDbLine
 62
7
  6
CONTINUOUS
 10
82.9446499764
 20
60.7499623425
 11
83.4118519911
 21
61.1009797657
  0
LINE
  5
55C
100
AcDbEntity
  8
DEFAULT_3
100
AcDbLine
 62
2
  6
PHANTOM
 10
119.3334261973
 20
47.6577544629
 11
55.2893907862
 21
53.3003437112
  0
LINE
  5
55D
100
AcDbEntity
  8
0
100
AcDbLine
 62
7
  6
CONTINUOUS
 10
81.1242593117
 20
80.4525150328
 11
81.1836327456
 21
79.0804567374
  0
LINE
  5
55E
100
AcDbEntity
  8
0
100
AcDbLine
 62
7
  6
CONTINUOUS
 10
81.5425001854
 20
79.0488387804
 11
81.4831267515
 21
80.4208970758
  0
LINE
  5
55F
100
AcDbEntity
  8
0
100
AcDbLine
 62
7
  6
CONTINUOUS
 10
82.5139033106
 20
60.2184018699
 11
82.6252284992
 21
57.6457925661
  0
LINE
  5
560
100
AcDbEntity
  8
FASEN
100
AcDbLine
 62
7
  6
CONTINUOUS
 10
81.9893870115
 20
77.3009318789
 11
81.9399091499
 21
78.4443137918
  0
LINE
  5
561
100
AcDbEntity
  8
0
100
AcDbLine
 62
7
  6
CONTINUOUS
 10
82.9981411904
 20
60.1757381709
 11
83.0924305138
 21
57.9968099894
  0
LINE
  5
562
100
AcDbEntity
  8
FASEN
100
AcDbLine
 62
7
  6
CONTINUOUS
 10
82.4565890261
 20
77.6519493022
 11
82.4241470297
 21
78.4016500927
  0
LINE
  5
563
100
AcDbEntity
  8
0
100
AcDbLine
 62
7
  6
CONTINUOUS
 10
83.4293240063
 20
62.812752012
 11
83.4713801886
 21
61.8408773861
  0
LINE
  5
564
100
AcDbEntity
  8
0
100
AcDbLine
 62
7
  6
CONTINUOUS
 10
82.7105052221
 20
79.9263823387
 11
82.693721451
 21
80.3142378281
  0
LINE
  5
565
100
AcDbEntity
  8
FASEN
100
AcDbLine
 62
7
  6
CONTINUOUS
 10
94.2347581545
 20
75.9466792586
 11
94.6028716041
 21
76.5818030655
  0
LINE
  5
566
100
AcDbEntity
  8
0
100
AcDbLine
 62
7
  6
CONTINUOUS
 10
105.8350653414
 20
76.908546307
 11
107.003070378
 21
77.7860898652
  0
LINE
  5
567
100
AcDbEntity
  8
0
100
AcDbLine
 62
7
  6
CONTINUOUS
 10
83.0924305138
 20
57.9968099894
 11
82.6252284992
 21
57.6457925661
  0
LINE
  5
568
100
AcDbEntity
  8
FASEN
100
AcDbLine
 62
7
  6
CONTINUOUS
 10
106.2819521674
 20
75.1606394055
 11
106.7491541821
 21
75.5116568287
  0
LINE
  5
569
100
AcDbEntity
  8
FASEN
100
AcDbLine
 62
7
  6
CONTINUOUS
 10
106.1474397251
 20
74.7010243103
 11
106.3810407324
 21
74.8765330219
  0
LINE
  5
56A
100
AcDbEntity
  8
0
100
AcDbLine
 62
7
  6
CONTINUOUS
 10
90.7842200132
 20
63.0885865879
 11
90.9594207687
 21
63.2202181216
  0
LINE
  5
56B
100
AcDbEntity
  8
0
100
AcDbLine
 62
7
  6
CONTINUOUS
 10
90.2977408472
 20
62.6235772852
 11
90.0641398399
 21
62.4480685735
  0
LINE
  5
56C
100
AcDbEntity
  8
0
100
AcDbLine
 62
7
  6
CONTINUOUS
 10
82.8940619938
 20
60.9343903093
 11
83.4118519911
 21
61.1009797657
  0
LINE
  5
56D
100
AcDbEntity
  8
0
100
AcDbLine
 62
7
  6
CONTINUOUS
 10
82.4268599792
 20
60.583372886
 11
82.9446499764
 21
60.7499623425
  0
LINE
  5
56E
100
AcDbEntity
  8
0
100
AcDbLine
 62
7
  6
CONTINUOUS
 10
119.8324742014
 20
48.7570581098
 11
54.7394416585
 21
54.4920690786
  0
LINE
  5
56F
100
AcDbEntity
  8
0
100
AcDbLine
 62
7
  6
CONTINUOUS
 10
119.8088747655
 20
49.3024165243
 11
54.7158422226
 21
55.037427493
  0
LINE
  5
570
100
AcDbEntity
  8
0
100
AcDbLine
 62
7
  6
CONTINUOUS
 10
62.710047409
 20
62.5327286869
 11
63.2462736685
 21
62.2732753008
  0
LINE
  5
571
100
AcDbEntity
  8
0
100
AcDbLine
 62
7
  6
CONTINUOUS
 10
63.1772494237
 20
62.8837461101
 11
63.6628996828
 21
62.6487639512
  0
LINE
  5
572
100
AcDbEntity
  8
0
100
AcDbLine
 62
7
  6
CONTINUOUS
 10
110.1966849944
 20
76.5242665219
 11
111.364690031
 21
77.4018100802
  0
LINE
  5
573
100
AcDbEntity
  8
0
100
AcDbLine
 62
7
  6
CONTINUOUS
 10
114.7239357734
 20
76.1253938337
 11
115.8919408101
 21
77.0029373919
  0
LINE
  5
574
100
AcDbEntity
  8
0
100
AcDbLine
 62
7
  6
CONTINUOUS
 10
95.5924483253
 20
59.8156010618
 11
96.1102383226
 21
59.9821905182
  0
LINE
  5
575
100
AcDbEntity
  8
0
100
AcDbLine
 62
7
  6
CONTINUOUS
 10
95.1252463107
 20
59.4645836385
 11
95.6430363079
 21
59.631173095
  0
LINE
  5
576
100
AcDbEntity
  8
0
100
AcDbLine
 62
7
  6
CONTINUOUS
 10
123.3705513198
 20
50.8811190804
 11
50.9897492301
 21
57.2582177912
  0
LINE
  5
577
100
AcDbEntity
  8
0
100
AcDbLine
 62
7
  6
CONTINUOUS
 10
51.3401507411
 20
57.5214808586
 11
54.9840355145
 21
57.2004369876
  0
LINE
  5
578
100
AcDbEntity
  8
0
100
AcDbLine
 62
7
  6
CONTINUOUS
 10
120.0770680574
 20
51.4654260189
 11
123.7209528307
 21
51.1443821479
  0
LINE
  5
579
100
AcDbEntity
  8
0
100
AcDbLine
 62
7
  6
CONTINUOUS
 10
55.5329978817
 20
57.61288246
 11
120.6260304246
 21
51.8778714912
  0
LINE
  5
57A
100
AcDbEntity
  8
0
100
AcDbLine
 62
7
  6
CONTINUOUS
 10
71.8197593425
 20
61.7301190093
 11
72.355985602
 21
61.4706656233
  0
LINE
  5
57B
100
AcDbEntity
  8
0
100
AcDbLine
 62
7
  6
CONTINUOUS
 10
72.2869613572
 20
62.0811364326
 11
72.7726116162
 21
61.8461542736
  0
LINE
  5
57C
100
AcDbEntity
  8
FASEN
100
AcDbLine
 62
7
  6
CONTINUOUS
 10
69.1564882377
 20
77.9601060312
 11
68.7388969264
 21
78.4683641372
  0
LINE
  5
57D
100
AcDbEntity
  8
0
100
AcDbLine
 62
7
  6
CONTINUOUS
 10
88.3340398225
 20
77.8809599563
 11
88.6291259056
 21
72.8557048294
  0
LINE
  5
57E
100
AcDbEntity
  8
0
100
AcDbLine
 62
7
  6
CONTINUOUS
 10
88.9054005255
 20
68.1508050403
 11
89.2359842096
 21
62.5210330897
  0
LINE
  5
57F
100
AcDbEntity
  8
0
100
AcDbLine
 62
7
  6
CONTINUOUS
 10
89.1621954529
 20
77.8079954402
 11
89.4572815359
 21
72.7827403132
  0
LINE
  5
580
100
AcDbEntity
  8
0
100
AcDbLine
 62
7
  6
CONTINUOUS
 10
89.7335561558
 20
68.0778405242
 11
90.0641398399
 21
62.4480685735
  0
LINE
  5
581
100
AcDbEntity
  8
0
100
AcDbLine
 62
7
  6
CONTINUOUS
 10
87.9426182346
 20
77.9154460912
 11
88.1450502609
 21
73.2374525417
  0
LINE
  5
582
100
AcDbEntity
  8
0
100
AcDbLine
 62
7
  6
CONTINUOUS
 10
88.3460302848
 20
68.5930132563
 11
88.575804999
 21
63.2831586309
  0
LINE
  5
583
100
AcDbEntity
  8
BEZUGSACHSEN
100
AcDbLine
 62
7
  6
CONTINUOUS
 10
89.4609035569
 20
77.7816778116
 11
89.653362737
 21
73.3341463629
  0
LINE
  5
584
100
AcDbEntity
  8
BEZUGSACHSEN
100
AcDbLine
 62
7
  6
CONTINUOUS
 10
89.8742884532
 20
68.2287828759
 11
90.0940903213
 21
63.1493903513
  0
LINE
  5
585
100
AcDbEntity
  8
0
100
AcDbLine
 62
7
  6
CONTINUOUS
 10
90.2977408472
 20
62.6235772852
 11
90.2756795262
 21
63.1333914642
  0
LINE
  5
586
100
AcDbEntity
  8
0
100
AcDbLine
 62
7
  6
CONTINUOUS
 10
89.4825338708
 20
81.4621624998
 11
89.4714605585
 21
81.7180552293
  0
LINE
  5
587
100
AcDbEntity
  8
0
100
AcDbLine
 62
7
  6
CONTINUOUS
 10
90.1510332488
 20
77.7208740482
 11
90.3534652751
 21
73.0428804987
  0
LINE
  5
588
100
AcDbEntity
  8
0
100
AcDbLine
 62
7
  6
CONTINUOUS
 10
90.554445299
 20
68.3984412132
 11
90.7842200132
 21
63.0885865879
  0
LINE
  5
589
100
AcDbEntity
  8
0
100
AcDbLine
 62
7
  6
CONTINUOUS
 10
90.3326224537
 20
77.704875161
 11
90.5333425755
 21
73.066441943
  0
LINE
  5
58A
100
AcDbEntity
  8
0
100
AcDbLine
 62
7
  6
CONTINUOUS
 10
90.7249695095
 20
68.6381428363
 11
90.9594207687
 21
63.2202181216
  0
LINE
  5
58B
100
AcDbEntity
  8
FASEN
100
AcDbLine
 62
7
  6
CONTINUOUS
 10
94.1356695894
 20
76.2307856422
 11
94.0011571471
 21
75.771170547
  0
LINE
  5
58C
100
AcDbEntity
  8
0
100
AcDbLine
 62
7
  6
CONTINUOUS
 10
116.7628640469
 20
77.2958989477
 11
116.7278238958
 21
77.2695726409
  0
LINE
  5
58D
100
AcDbEntity
  8
0
100
AcDbLine
 62
7
  6
CONTINUOUS
 10
93.6278576075
 20
59.8087200842
 11
94.0950596222
 21
60.1597375075
  0
LINE
  5
58E
100
AcDbEntity
  8
0
100
AcDbLine
 62
7
  6
CONTINUOUS
 10
116.9555154613
 20
77.2134980287
 11
116.9204753102
 21
77.1871717219
  0
LINE
  5
58F
100
AcDbEntity
  8
0
100
AcDbLine
 62
7
  6
CONTINUOUS
 10
117.4402156417
 20
77.1707935987
 11
117.4051754906
 21
77.144467292
  0
LINE
  5
590
100
AcDbEntity
  8
0
100
AcDbLine
 62
7
  6
CONTINUOUS
 10
117.4424002356
 20
77.120309908
 11
117.4073600845
 21
77.0939836012
  0
LINE
  5
591
100
AcDbEntity
  8
0
100
AcDbLine
 62
9
  6
CONTINUOUS
 10
94.164083867
 20
59.5492666982
 11
94.4989813197
 21
59.8008812829
  0
LINE
  5
592
100
AcDbEntity
  8
0
100
AcDbLine
 62
7
  6
CONTINUOUS
 10
115.2586633305
 20
75.3118302472
 11
114.8148214165
 21
74.9783636951
  0
LINE
  5
593
100
AcDbEntity
  8
0
100
AcDbLine
 62
7
  6
CONTINUOUS
 10
118.054241595
 20
77.1796810195
 11
118.0192014439
 21
77.1533547128
  0
LINE
  5
594
100
AcDbEntity
  8
0
100
AcDbLine
 62
9
  6
CONTINUOUS
 10
95.2820826923
 20
60.0551550344
 11
94.8148806776
 21
59.7041376111
  0
LINE
  5
595
100
AcDbEntity
  8
0
100
AcDbLine
 62
7
  6
CONTINUOUS
 10
95.2820826923
 20
60.0551550344
 11
96.1697665201
 21
60.7220881386
  0
LINE
  5
596
100
AcDbEntity
  8
0
100
AcDbLine
 62
9
  6
CONTINUOUS
 10
95.1252463107
 20
59.4645836385
 11
95.5924483253
 21
59.8156010618
  0
LINE
  5
597
100
AcDbEntity
  8
0
100
AcDbLine
 62
7
  6
CONTINUOUS
 10
121.2450315749
 20
78.91864996
 11
120.9413502654
 21
78.6904886349
  0
LINE
  5
598
100
AcDbEntity
  8
0
100
AcDbLine
 62
7
  6
CONTINUOUS
 10
95.6430363079
 20
59.631173095
 11
96.1102383226
 21
59.9821905182
  0
LINE
  5
599
100
AcDbEntity
  8
0
100
AcDbLine
 62
7
  6
CONTINUOUS
 10
104.7021602588
 20
59.0129913843
 11
105.2199502561
 21
59.1795808407
  0
LINE
  5
59A
100
AcDbEntity
  8
0
100
AcDbLine
 62
7
  6
CONTINUOUS
 10
104.2349582442
 20
58.661973961
 11
104.7527482414
 21
58.8285634174
  0
LINE
  5
59B
100
AcDbEntity
  8
0
100
AcDbLine
 62
7
  6
CONTINUOUS
 10
121.4584610494
 20
54.0348725104
 11
120.6303054191
 21
54.1078370266
  0
LINE
  5
59C
100
AcDbEntity
  8
0
100
AcDbLine
 62
7
  6
CONTINUOUS
 10
56.2550077559
 20
59.7796120813
 11
55.4268521256
 21
59.8525765974
  0
LINE
  5
59D
100
AcDbEntity
  8
0
100
AcDbLine
 62
7
  6
CONTINUOUS
 10
113.5430386976
 20
54.9217839635
 11
112.4388311905
 21
55.019069985
  0
LINE
  5
59E
100
AcDbEntity
  8
0
100
AcDbLine
 62
7
  6
CONTINUOUS
 10
104.4333267641
 20
55.724393641
 11
103.3291192571
 21
55.8216796625
  0
LINE
  5
59F
100
AcDbEntity
  8
0
100
AcDbLine
 62
7
  6
CONTINUOUS
 10
95.3236148307
 20
56.5270033186
 11
94.2194073236
 21
56.6242893401
  0
LINE
  5
5A0
100
AcDbEntity
  8
0
100
AcDbLine
 62
7
  6
CONTINUOUS
 10
82.6252284992
 20
57.6457925661
 11
81.5210209921
 21
57.7430785876
  0
LINE
  5
5A1
100
AcDbEntity
  8
0
100
AcDbLine
 62
7
  6
CONTINUOUS
 10
73.5155165657
 20
58.4484022436
 11
72.4113090586
 21
58.5456882652
  0
LINE
  5
5A2
100
AcDbEntity
  8
BEZUGSACHSEN
100
AcDbLine
 62
7
  6
CONTINUOUS
 10
64.4058046322
 20
59.2510119212
 11
63.3015971251
 21
59.3482979427
  0
LINE
  5
5A3
100
AcDbEntity
  8
0
100
AcDbLine
 62
7
  6
CONTINUOUS
 10
54.4586328712
 20
60.8398958108
 11
55.1487625631
 21
60.7790920474
  0
LINE
  5
5A4
100
AcDbEntity
  8
0
100
AcDbLine
 62
7
  6
CONTINUOUS
 10
123.8856798793
 20
54.7230372076
 11
124.5758095713
 21
54.6622334441
  0
LINE
  5
5A5
100
AcDbEntity
  8
0
100
AcDbLine
 62
7
  6
CONTINUOUS
 10
122.7666266905
 20
55.0177212956
 11
123.8771619468
 21
54.9198777688
  0
LINE
  5
5A6
100
AcDbEntity
  8
0
100
AcDbLine
 62
7
  6
CONTINUOUS
 10
122.0867434144
 20
55.403296138
 11
121.3966137224
 21
55.4640999014
  0
LINE
  5
5A7
100
AcDbEntity
  8
0
100
AcDbLine
 62
7
  6
CONTINUOUS
 10
55.3650047986
 20
61.2818039885
 11
54.6748751067
 21
61.3426077519
  0
LINE
  5
5A8
100
AcDbEntity
  8
0
100
AcDbLine
 62
7
  6
CONTINUOUS
 10
122.7233335616
 20
56.0181804693
 11
123.8338688179
 21
55.9203369425
  0
LINE
  5
5A9
100
AcDbEntity
  8
0
100
AcDbLine
 62
7
  6
CONTINUOUS
 10
121.979554716
 20
56.2081799591
 11
120.4612693937
 21
56.3419482387
  0
LINE
  5
5AA
100
AcDbEntity
  8
0
100
AcDbLine
 62
7
  6
CONTINUOUS
 10
54.5676864083
 20
62.147491573
 11
56.0859717305
 21
62.0137232934
  0
LINE
  5
5AB
100
AcDbEntity
  8
0
100
AcDbLine
 62
7
  6
CONTINUOUS
 10
123.0503749719
 20
56.2638926656
 11
123.8219437123
 21
56.1959137282
  0
LINE
  5
5AC
100
AcDbEntity
  8
0
100
AcDbLine
 62
7
  6
CONTINUOUS
 10
120.4381118194
 20
56.8770956919
 11
113.431713509
 21
57.4943932673
  0
LINE
  5
5AD
100
AcDbEntity
  8
0
100
AcDbLine
 62
7
  6
CONTINUOUS
 10
112.3275060019
 20
57.5916792888
 11
104.3220015755
 21
58.2970029449
  0
LINE
  5
5AE
100
AcDbEntity
  8
0
100
AcDbLine
 62
7
  6
CONTINUOUS
 10
103.2177940685
 20
58.3942889664
 11
95.2122896421
 21
59.0996126224
  0
LINE
  5
5AF
100
AcDbEntity
  8
0
100
AcDbLine
 62
7
  6
CONTINUOUS
 10
94.108082135
 20
59.1968986439
 11
82.5139033106
 21
60.2184018699
  0
LINE
  5
5B0
100
AcDbEntity
  8
0
100
AcDbLine
 62
7
  6
CONTINUOUS
 10
81.4096958035
 20
60.3156878914
 11
73.4041913771
 21
61.0210115475
  0
LINE
  5
5B1
100
AcDbEntity
  8
0
100
AcDbLine
 62
7
  6
CONTINUOUS
 10
72.29998387
 20
61.118297569
 11
64.2944794436
 21
61.823621225
  0
LINE
  5
5B2
100
AcDbEntity
  8
BEZUGSACHSEN
100
AcDbLine
 62
7
  6
CONTINUOUS
 10
63.1902719365
 20
61.9209072466
 11
56.1233438912
 21
62.5435377843
  0
LINE
  5
5B3
100
AcDbEntity
  8
0
100
AcDbLine
 62
7
  6
CONTINUOUS
 10
80.929471276
 20
60.9275093317
 11
81.4656975355
 21
60.6680559457
  0
LINE
  5
5B4
100
AcDbEntity
  8
0
100
AcDbLine
 62
7
  6
CONTINUOUS
 10
81.3966732907
 20
61.278526755
 11
81.8823235497
 21
61.0435445961
  0
LINE
  5
5B5
100
AcDbEntity
  8
FASEN
100
AcDbLine
 62
7
  6
CONTINUOUS
 10
92.9819842208
 20
77.4714535765
 11
93.0314620824
 21
76.3280716637
  0
LINE
  5
5B6
100
AcDbEntity
  8
0
100
AcDbLine
 62
7
  6
CONTINUOUS
 10
94.108082135
 20
59.1968986439
 11
94.2194073236
 21
56.6242893401
  0
LINE
  5
5B7
100
AcDbEntity
  8
0
100
AcDbLine
 62
7
  6
CONTINUOUS
 10
93.2705418897
 20
79.3823687961
 11
93.3299153236
 21
78.0103105007
  0
LINE
  5
5B8
100
AcDbEntity
  8
0
100
AcDbLine
 62
7
  6
CONTINUOUS
 10
94.4560132378
 20
59.7357555681
 11
95.768842898
 21
61.7255807215
  0
LINE
  5
5B9
100
AcDbEntity
  8
0
100
AcDbLine
 62
7
  6
CONTINUOUS
 10
94.8148806776
 20
59.7041376111
 11
96.1277103378
 21
61.6939627645
  0
LINE
  5
5BA
100
AcDbEntity
  8
0
100
AcDbLine
 62
7
  6
CONTINUOUS
 10
122.4106837398
 20
77.384492709
 11
124.1159710933
 21
78.665706304
  0
LINE
  5
5BB
100
AcDbEntity
  8
0
100
AcDbLine
 62
7
  6
CONTINUOUS
 10
95.7908168453
 20
56.8780207419
 11
95.3236148307
 21
56.5270033186
  0
LINE
  5
5BC
100
AcDbEntity
  8
0
100
AcDbLine
 62
7
  6
CONTINUOUS
 10
113.8118721923
 20
58.2103817067
 11
114.3296621896
 21
58.3769711631
  0
LINE
  5
5BD
100
AcDbEntity
  8
0
100
AcDbLine
 62
7
  6
CONTINUOUS
 10
113.3446701776
 20
57.8593642834
 11
113.8624601749
 21
58.0259537398
  0
LINE
  5
5BE
100
AcDbEntity
  8
0
100
AcDbLine
 62
7
  6
CONTINUOUS
 10
120.4133728886
 20
57.4487866484
 11
113.8624601749
 21
58.0259537398
  0
LINE
  5
5BF
100
AcDbEntity
  8
0
100
AcDbLine
 62
7
  6
CONTINUOUS
 10
113.0343045446
 20
58.098918256
 11
112.6754371048
 21
58.130536213
  0
LINE
  5
5C0
100
AcDbEntity
  8
0
100
AcDbLine
 62
7
  6
CONTINUOUS
 10
111.8472814745
 20
58.2035007291
 11
104.7527482414
 21
58.8285634174
  0
LINE
  5
5C1
100
AcDbEntity
  8
0
100
AcDbLine
 62
7
  6
CONTINUOUS
 10
103.9245926111
 20
58.9015279335
 11
103.5657251713
 21
58.9331458905
  0
LINE
  5
5C2
100
AcDbEntity
  8
0
100
AcDbLine
 62
7
  6
CONTINUOUS
 10
102.737569541
 20
59.0061104067
 11
95.6430363079
 21
59.631173095
  0
LINE
  5
5C3
100
AcDbEntity
  8
0
100
AcDbLine
 62
7
  6
CONTINUOUS
 10
94.8148806776
 20
59.7041376111
 11
94.4560132378
 21
59.7357555681
  0
LINE
  5
5C4
100
AcDbEntity
  8
0
100
AcDbLine
 62
7
  6
CONTINUOUS
 10
93.6278576075
 20
59.8087200842
 11
82.9446499764
 21
60.7499623425
  0
LINE
  5
5C5
100
AcDbEntity
  8
0
100
AcDbLine
 62
7
  6
CONTINUOUS
 10
82.1164943461
 20
60.8229268586
 11
81.7576269063
 21
60.8545448156
  0
LINE
  5
5C6
100
AcDbEntity
  8
0
100
AcDbLine
 62
7
  6
CONTINUOUS
 10
80.929471276
 20
60.9275093317
 11
73.834938043
 21
61.55257202
  0
LINE
  5
5C7
100
AcDbEntity
  8
0
100
AcDbLine
 62
7
  6
CONTINUOUS
 10
73.0067824126
 20
61.6255365362
 11
72.6479149728
 21
61.6571544932
  0
LINE
  5
5C8
100
AcDbEntity
  8
0
100
AcDbLine
 62
7
  6
CONTINUOUS
 10
71.8197593425
 20
61.7301190093
 11
64.7252261095
 21
62.3551816976
  0
LINE
  5
5C9
100
AcDbEntity
  8
0
100
AcDbLine
 62
7
  6
CONTINUOUS
 10
63.8970704792
 20
62.4281462137
 11
63.5382030394
 21
62.4597641707
  0
LINE
  5
5CA
100
AcDbEntity
  8
0
100
AcDbLine
 62
7
  6
CONTINUOUS
 10
62.710047409
 20
62.5327286869
 11
56.0986049604
 21
63.1152287407
  0
LINE
  5
5CB
100
AcDbEntity
  8
0
100
AcDbLine
 62
7
  6
CONTINUOUS
 10
63.1772494237
 20
62.8837461101
 11
63.7827377242
 21
62.8303996626
  0
LINE
  5
5CC
100
AcDbEntity
  8
0
100
AcDbLine
 62
7
  6
CONTINUOUS
 10
64.3642724938
 20
62.779163637
 11
65.1924281241
 21
62.7061991209
  0
LINE
  5
5CD
100
AcDbEntity
  8
0
100
AcDbLine
 62
7
  6
CONTINUOUS
 10
72.2869613572
 20
62.0811364326
 11
72.8924496577
 21
62.027789985
  0
LINE
  5
5CE
100
AcDbEntity
  8
0
100
AcDbLine
 62
7
  6
CONTINUOUS
 10
73.4739844273
 20
61.9765539594
 11
74.3021400576
 21
61.9035894433
  0
LINE
  5
5CF
100
AcDbEntity
  8
0
100
AcDbLine
 62
7
  6
CONTINUOUS
 10
81.3966732907
 20
61.278526755
 11
82.0021615912
 21
61.2251803075
  0
LINE
  5
5D0
100
AcDbEntity
  8
0
100
AcDbLine
 62
7
  6
CONTINUOUS
 10
82.5836963608
 20
61.1739442819
 11
83.4118519911
 21
61.1009797657
  0
LINE
  5
5D1
100
AcDbEntity
  8
0
100
AcDbLine
 62
7
  6
CONTINUOUS
 10
94.0950596222
 20
60.1597375075
 11
94.7005479227
 21
60.10639106
  0
LINE
  5
5D2
100
AcDbEntity
  8
0
100
AcDbLine
 62
7
  6
CONTINUOUS
 10
95.2820826923
 20
60.0551550344
 11
96.1102383226
 21
59.9821905182
  0
LINE
  5
5D3
100
AcDbEntity
  8
0
100
AcDbLine
 62
7
  6
CONTINUOUS
 10
103.2047715556
 20
59.35712783
 11
103.8102598562
 21
59.3037813824
  0
LINE
  5
5D4
100
AcDbEntity
  8
0
100
AcDbLine
 62
7
  6
CONTINUOUS
 10
104.3917946258
 20
59.2525453568
 11
105.2199502561
 21
59.1795808407
  0
LINE
  5
5D5
100
AcDbEntity
  8
0
100
AcDbLine
 62
7
  6
CONTINUOUS
 10
112.3144834891
 20
58.5545181524
 11
112.9199717897
 21
58.5011717049
  0
LINE
  5
5D6
100
AcDbEntity
  8
0
100
AcDbLine
 62
7
  6
CONTINUOUS
 10
113.5015065592
 20
58.4499356793
 11
114.3296621896
 21
58.3769711631
  0
LINE
  5
5D7
100
AcDbEntity
  8
0
100
AcDbLine
 62
7
  6
CONTINUOUS
 10
120.3639688797
 20
58.5904619032
 11
114.3891903871
 21
59.1168687835
  0
LINE
  5
5D8
100
AcDbEntity
  8
0
100
AcDbLine
 62
7
  6
CONTINUOUS
 10
113.3845876909
 20
59.2053791395
 11
105.2794784536
 21
59.9194784611
  0
LINE
  5
5D9
100
AcDbEntity
  8
0
100
AcDbLine
 62
7
  6
CONTINUOUS
 10
104.2748757575
 20
60.007988817
 11
96.1697665201
 21
60.7220881386
  0
LINE
  5
5DA
100
AcDbEntity
  8
0
100
AcDbLine
 62
7
  6
CONTINUOUS
 10
95.165163824
 20
60.8105984946
 11
83.4713801886
 21
61.8408773861
  0
LINE
  5
5DB
100
AcDbEntity
  8
0
100
AcDbLine
 62
7
  6
CONTINUOUS
 10
82.4667774925
 20
61.9293877421
 11
74.3616682552
 21
62.6434870637
  0
LINE
  5
5DC
100
AcDbEntity
  8
0
100
AcDbLine
 62
7
  6
CONTINUOUS
 10
73.357065559
 20
62.7319974197
 11
65.2519563217
 21
63.4460967412
  0
LINE
  5
5DD
100
AcDbEntity
  8
0
100
AcDbLine
 62
7
  6
CONTINUOUS
 10
64.2473536255
 20
63.5346070972
 11
57.4534908029
 21
64.1331792682
  0
LINE
  5
5DE
100
AcDbEntity
  8
0
100
AcDbLine
 62
7
  6
CONTINUOUS
 10
121.855860062
 20
59.0666347412
 11
121.16573037
 21
59.1274385046
  0
LINE
  5
5DF
100
AcDbEntity
  8
0
100
AcDbLine
 62
7
  6
CONTINUOUS
 10
54.4439917543
 20
65.0059463551
 11
55.1341214462
 21
64.9451425916
  0
LINE
  5
5E0
100
AcDbEntity
  8
0
100
AcDbLine
 62
7
  6
CONTINUOUS
 10
122.206261573
 20
59.3298978086
 11
121.516131881
 21
59.3907015721
  0
LINE
  5
5E1
100
AcDbEntity
  8
0
100
AcDbLine
 62
7
  6
CONTINUOUS
 10
55.1213445473
 20
65.2404034334
 11
54.7943932652
 21
65.2692094226
  0
LINE
  5
5E2
100
AcDbEntity
  8
0
100
AcDbLine
 62
7
  6
CONTINUOUS
 10
114.3471342047
 20
60.0887434094
 11
113.9882667649
 21
60.1203613664
  0
LINE
  5
5E3
100
AcDbEntity
  8
0
100
AcDbLine
 62
7
  6
CONTINUOUS
 10
105.2374222713
 20
60.891353087
 11
104.8785548314
 21
60.922971044
  0
LINE
  5
5E4
100
AcDbEntity
  8
0
100
AcDbLine
 62
7
  6
CONTINUOUS
 10
96.1277103378
 20
61.6939627645
 11
95.768842898
 21
61.7255807215
  0
LINE
  5
5E5
100
AcDbEntity
  8
0
100
AcDbLine
 62
7
  6
CONTINUOUS
 10
83.4293240063
 20
62.812752012
 11
83.0704565665
 21
62.844369969
  0
LINE
  5
5E6
100
AcDbEntity
  8
0
100
AcDbLine
 62
7
  6
CONTINUOUS
 10
74.3196120728
 20
63.6153616896
 11
73.960744633
 21
63.6469796466
  0
LINE
  5
5E7
100
AcDbEntity
  8
0
100
AcDbLine
 62
7
  6
CONTINUOUS
 10
65.2099001393
 20
64.4179713671
 11
64.8510326995
 21
64.4495893241
  0
LINE
  5
5E8
100
AcDbEntity
  8
RUNDUNGEN
100
AcDbLine
 62
7
  6
CONTINUOUS
 10
119.0187918368
 20
59.8480011801
 11
60.164531709
 21
65.0333461273
  0
LINE
  5
5E9
100
AcDbEntity
  8
0
100
AcDbLine
 62
7
  6
CONTINUOUS
 10
89.2359842096
 20
62.5210330897
 11
90.0641398399
 21
62.4480685735
  0
LINE
  5
5EA
100
AcDbEntity
  8
RUNDUNGEN
100
AcDbLine
 62
7
  6
CONTINUOUS
 10
119.3107930959
 20
60.0673870697
 11
90.2977408472
 21
62.6235772852
  0
LINE
  5
5EB
100
AcDbEntity
  8
RUNDUNGEN
100
AcDbLine
 62
7
  6
CONTINUOUS
 10
89.2244097974
 20
62.7181429415
 11
60.4565329681
 21
65.2527320168
  0
LINE
  5
5EC
100
AcDbEntity
  8
0
100
AcDbLine
 62
7
  6
CONTINUOUS
 10
93.6278576075
 20
59.8087200842
 11
94.164083867
 21
59.5492666982
  0
LINE
  5
5ED
100
AcDbEntity
  8
0
100
AcDbLine
 62
7
  6
CONTINUOUS
 10
94.0950596222
 20
60.1597375075
 11
94.5807098812
 21
59.9247553486
  0
LINE
  5
5EE
100
AcDbEntity
  8
0
100
AcDbLine
 62
7
  6
CONTINUOUS
 10
93.6887827634
 20
77.9786925437
 11
93.6294093295
 21
79.3507508391
  0
LINE
  5
5EF
100
AcDbEntity
  8
FASEN
100
AcDbLine
 62
7
  6
CONTINUOUS
 10
94.1356695894
 20
76.2307856422
 11
94.0861917278
 21
77.374167555
  0
LINE
  5
5F0
100
AcDbEntity
  8
0
100
AcDbLine
 62
7
  6
CONTINUOUS
 10
95.2122896421
 20
59.0996126224
 11
95.3236148307
 21
56.5270033186
  0
LINE
  5
5F1
100
AcDbEntity
  8
FASEN
100
AcDbLine
 62
7
  6
CONTINUOUS
 10
94.6028716041
 20
76.5818030655
 11
94.5704296077
 21
77.331503856
  0
LINE
  5
5F2
100
AcDbEntity
  8
0
100
AcDbLine
 62
7
  6
CONTINUOUS
 10
95.6965275219
 20
59.0569489233
 11
95.7908168453
 21
56.8780207419
  0
LINE
  5
5F3
100
AcDbEntity
  8
0
100
AcDbLine
 62
7
  6
CONTINUOUS
 10
94.8567878001
 20
78.8562361019
 11
94.840004029
 21
79.2440915914
  0
LINE
  5
5F4
100
AcDbEntity
  8
0
100
AcDbLine
 62
7
  6
CONTINUOUS
 10
96.1277103378
 20
61.6939627645
 11
96.1697665201
 21
60.7220881386
  0
LINE
  5
5F5
100
AcDbEntity
  8
FASEN
100
AcDbLine
 62
7
  6
CONTINUOUS
 10
106.3810407324
 20
74.8765330219
 11
106.7491541821
 21
75.5116568287
  0
LINE
  5
5F6
100
AcDbEntity
  8
0
100
AcDbLine
 62
7
  6
CONTINUOUS
 10
120.5843654962
 20
72.5621759803
 11
121.889432266
 21
73.5426965267
  0
LINE
  5
5F7
100
AcDbEntity
  8
0
100
AcDbLine
 62
7
  6
CONTINUOUS
 10
102.737569541
 20
59.0061104067
 11
103.2047715556
 21
59.35712783
  0
LINE
  5
5F8
100
AcDbEntity
  8
0
100
AcDbLine
 62
9
  6
CONTINUOUS
 10
103.2737958005
 20
58.7466570206
 11
103.6086932531
 21
58.9982716053
  0
LINE
  5
5F9
100
AcDbEntity
  8
0
100
AcDbLine
 62
9
  6
CONTINUOUS
 10
104.3917946258
 20
59.2525453568
 11
103.9245926111
 21
58.9015279335
  0
LINE
  5
5FA
100
AcDbEntity
  8
0
100
AcDbLine
 62
7
  6
CONTINUOUS
 10
104.3917946258
 20
59.2525453568
 11
105.2794784536
 21
59.9194784611
  0
LINE
  5
5FB
100
AcDbEntity
  8
0
100
AcDbLine
 62
9
  6
CONTINUOUS
 10
104.2349582442
 20
58.661973961
 11
104.7021602588
 21
59.0129913843
  0
LINE
  5
5FC
100
AcDbEntity
  8
0
100
AcDbLine
 62
7
  6
CONTINUOUS
 10
104.7527482414
 20
58.8285634174
 11
105.2199502561
 21
59.1795808407
  0
LINE
  5
5FD
100
AcDbEntity
  8
0
100
AcDbLine
 62
7
  6
CONTINUOUS
 10
122.6766272459
 20
71.2388149276
 11
123.8212721819
 21
72.0988076147
  0
LINE
  5
5FE
100
AcDbEntity
  8
0
100
AcDbLine
 62
7
  6
CONTINUOUS
 10
122.117229757
 20
70.0246089014
 11
122.4442711672
 21
70.2703210977
  0
LINE
  5
5FF
100
AcDbEntity
  8
0
100
AcDbLine
 62
7
  6
CONTINUOUS
 10
90.7842200132
 20
63.0885865879
 11
90.0940903213
 21
63.1493903513
  0
LINE
  5
600
100
AcDbEntity
  8
0
100
AcDbLine
 62
7
  6
CONTINUOUS
 10
89.1944322389
 20
63.2286545793
 11
88.575804999
 21
63.2831586309
  0
LINE
  5
601
100
AcDbEntity
  8
0
100
AcDbLine
 62
7
  6
CONTINUOUS
 10
122.5254221152
 20
60.5917081206
 11
123.6359573715
 21
60.4938645938
  0
LINE
  5
602
100
AcDbEntity
  8
0
100
AcDbLine
 62
7
  6
CONTINUOUS
 10
121.7816432696
 20
60.7817076104
 11
121.0915135776
 21
60.8425113738
  0
LINE
  5
603
100
AcDbEntity
  8
0
100
AcDbLine
 62
7
  6
CONTINUOUS
 10
54.3697749619
 20
66.7210192243
 11
55.0599046538
 21
66.6602154609
  0
LINE
  5
604
100
AcDbEntity
  8
0
100
AcDbLine
 62
7
  6
CONTINUOUS
 10
122.488313719
 20
61.4492445552
 11
123.5988489753
 21
61.3514010284
  0
LINE
  5
605
100
AcDbEntity
  8
0
100
AcDbLine
 62
7
  6
CONTINUOUS
 10
122.8153551293
 20
61.6949567515
 11
123.5869238697
 21
61.6269778141
  0
LINE
  5
606
100
AcDbEntity
  8
0
100
AcDbLine
 62
7
  6
CONTINUOUS
 10
102.737569541
 20
59.0061104067
 11
103.2737958005
 21
58.7466570206
  0
LINE
  5
607
100
AcDbEntity
  8
0
100
AcDbLine
 62
7
  6
CONTINUOUS
 10
103.2047715556
 20
59.35712783
 11
103.6904218147
 21
59.122145671
  0
LINE
  5
608
100
AcDbEntity
  8
FASEN
100
AcDbLine
 62
7
  6
CONTINUOUS
 10
81.3027708156
 20
76.8899597945
 11
80.8851795044
 21
77.3982179005
  0
LINE
  5
609
100
AcDbEntity
  8
0
100
AcDbLine
 62
7
  6
CONTINUOUS
 10
97.3988142491
 20
77.0823094905
 11
97.4235531799
 21
76.510618534
  0
LINE
  5
60A
100
AcDbEntity
  8
0
100
AcDbLine
 62
7
  6
CONTINUOUS
 10
97.4154830998
 20
77.6503522211
 11
97.3561096659
 21
79.0224105164
  0
LINE
  5
60B
100
AcDbEntity
  8
0
100
AcDbLine
 62
7
  6
CONTINUOUS
 10
97.7149771057
 20
78.9907925595
 11
97.7743505396
 21
77.6187342641
  0
LINE
  5
60C
100
AcDbEntity
  8
0
100
AcDbLine
 62
7
  6
CONTINUOUS
 10
98.9423555763
 20
78.4962778223
 11
98.9255718052
 21
78.8841333118
  0
LINE
  5
60D
100
AcDbEntity
  8
FASEN
100
AcDbLine
 62
7
  6
CONTINUOUS
 10
106.2819521674
 20
75.1606394055
 11
106.1474397251
 21
74.7010243103
  0
LINE
  5
60E
100
AcDbEntity
  8
0
100
AcDbLine
 62
7
  6
CONTINUOUS
 10
103.5657251713
 20
58.9331458905
 11
104.8785548314
 21
60.922971044
  0
LINE
  5
60F
100
AcDbEntity
  8
0
100
AcDbLine
 62
7
  6
CONTINUOUS
 10
103.9245926111
 20
58.9015279335
 11
105.2374222713
 21
60.891353087
  0
LINE
  5
610
100
AcDbEntity
  8
0
100
AcDbLine
 62
7
  6
CONTINUOUS
 10
121.4105593076
 20
69.3570719566
 11
121.7609608186
 21
69.620335024
  0
LINE
  5
611
100
AcDbEntity
  8
0
100
AcDbLine
 62
7
  6
CONTINUOUS
 10
104.9005287788
 20
56.0754110643
 11
104.4333267641
 21
55.724393641
  0
LINE
  5
612
100
AcDbEntity
  8
0
100
AcDbLine
 62
7
  6
CONTINUOUS
 10
120.794646408
 20
67.7028028508
 11
121.145047919
 21
67.9660659182
  0
LINE
  5
613
100
AcDbEntity
  8
0
100
AcDbLine
 62
7
  6
CONTINUOUS
 10
121.4847761
 20
67.6419990873
 11
121.835177611
 21
67.9052621548
  0
LINE
  5
614
100
AcDbEntity
  8
0
100
AcDbLine
 62
7
  6
CONTINUOUS
 10
121.670318081
 20
63.3543169142
 11
120.980188389
 21
63.4151206777
  0
LINE
  5
615
100
AcDbEntity
  8
0
100
AcDbLine
 62
7
  6
CONTINUOUS
 10
54.2584497732
 20
69.2936285282
 11
54.9485794652
 21
69.2328247647
  0
LINE
  5
616
100
AcDbEntity
  8
0
100
AcDbLine
 62
7
  6
CONTINUOUS
 10
122.020719592
 20
63.6175799817
 11
121.3305899
 21
63.6783837452
  0
LINE
  5
617
100
AcDbEntity
  8
0
100
AcDbLine
 62
7
  6
CONTINUOUS
 10
54.9358025663
 20
69.5280856065
 11
54.6088512842
 21
69.5568915956
  0
LINE
  5
618
100
AcDbEntity
  8
0
100
AcDbLine
 62
7
  6
CONTINUOUS
 10
122.3398801342
 20
64.8793902937
 11
123.4504153905
 21
64.7815467669
  0
LINE
  5
619
100
AcDbEntity
  8
0
100
AcDbLine
 62
7
  6
CONTINUOUS
 10
121.5961012886
 20
65.0693897835
 11
120.9059715966
 21
65.1301935469
  0
LINE
  5
61A
100
AcDbEntity
  8
0
100
AcDbLine
 62
7
  6
CONTINUOUS
 10
54.1842329808
 20
71.0087013974
 11
54.8743626728
 21
70.947897634
  0
LINE
  5
61B
100
AcDbEntity
  8
0
100
AcDbLine
 62
7
  6
CONTINUOUS
 10
89.7335561558
 20
68.0778405242
 11
88.9054005255
 21
68.1508050403
  0
LINE
  5
61C
100
AcDbEntity
  8
0
100
AcDbLine
 62
7
  6
CONTINUOUS
 10
122.302771738
 20
65.7369267283
 11
123.4133069943
 21
65.6390832015
  0
LINE
  5
61D
100
AcDbEntity
  8
0
100
AcDbLine
 62
7
  6
CONTINUOUS
 10
122.6298131482
 20
65.9826389246
 11
123.4013818887
 21
65.9146599871
  0
LINE
  5
61E
100
AcDbEntity
  8
0
100
AcDbLine
 62
7
  6
CONTINUOUS
 10
111.8472814745
 20
58.2035007291
 11
112.383507734
 21
57.9440473431
  0
LINE
  5
61F
100
AcDbEntity
  8
0
100
AcDbLine
 62
7
  6
CONTINUOUS
 10
112.3144834891
 20
58.5545181524
 11
112.8001337482
 21
58.3195359935
  0
LINE
  5
620
100
AcDbEntity
  8
0
100
AcDbLine
 62
7
  6
CONTINUOUS
 10
88.8181964722
 20
79.6715946593
 11
88.7539421409
 21
79.780303077
  0
LINE
  5
621
100
AcDbEntity
  8
0
100
AcDbLine
 62
7
  6
CONTINUOUS
 10
88.8532366233
 20
79.697920966
 11
88.8073228564
 21
79.7755999779
  0
LINE
  5
622
100
AcDbEntity
  8
0
100
AcDbLine
 62
7
  6
CONTINUOUS
 10
88.6365894026
 20
79.7906424208
 11
88.6998614653
 21
79.6820205457
  0
LINE
  5
623
100
AcDbEntity
  8
0
100
AcDbLine
 62
7
  6
CONTINUOUS
 10
101.9427338789
 20
77.2514795328
 11
101.883360445
 21
78.6235378282
  0
LINE
  5
624
100
AcDbEntity
  8
0
100
AcDbLine
 62
7
  6
CONTINUOUS
 10
102.2422278848
 20
78.5919198712
 11
102.3016013187
 21
77.2198615758
  0
LINE
  5
625
100
AcDbEntity
  8
0
100
AcDbLine
 62
7
  6
CONTINUOUS
 10
102.367748031
 20
76.6445223936
 11
102.3924869618
 21
76.0728314372
  0
LINE
  5
626
100
AcDbEntity
  8
0
100
AcDbLine
 62
7
  6
CONTINUOUS
 10
103.2177940685
 20
58.3942889664
 11
103.3291192571
 21
55.8216796625
  0
LINE
  5
627
100
AcDbEntity
  8
0
100
AcDbLine
 62
7
  6
CONTINUOUS
 10
102.8277740168
 20
76.6039918795
 11
102.8363288757
 21
76.4062979893
  0
LINE
  5
628
100
AcDbEntity
  8
0
100
AcDbLine
 62
7
  6
CONTINUOUS
 10
111.8472814745
 20
58.2035007291
 11
112.3144834891
 21
58.5545181524
  0
LINE
  5
629
100
AcDbEntity
  8
0
100
AcDbLine
 62
7
  6
CONTINUOUS
 10
122.302771738
 20
65.7369267283
 11
122.6298131482
 21
65.9826389246
  0
LINE
  5
62A
100
AcDbEntity
  8
0
100
AcDbLine
 62
7
  6
CONTINUOUS
 10
121.5961012886
 20
65.0693897835
 11
121.9465027996
 21
65.3326528509
  0
LINE
  5
62B
100
AcDbEntity
  8
0
100
AcDbLine
 62
9
  6
CONTINUOUS
 10
112.383507734
 20
57.9440473431
 11
112.7184051866
 21
58.1956619278
  0
LINE
  5
62C
100
AcDbEntity
  8
0
100
AcDbLine
 62
9
  6
CONTINUOUS
 10
113.5015065592
 20
58.4499356793
 11
113.0343045446
 21
58.098918256
  0
LINE
  5
62D
100
AcDbEntity
  8
0
100
AcDbLine
 62
7
  6
CONTINUOUS
 10
113.5015065592
 20
58.4499356793
 11
114.3891903871
 21
59.1168687835
  0
LINE
  5
62E
100
AcDbEntity
  8
0
100
AcDbLine
 62
9
  6
CONTINUOUS
 10
113.3446701776
 20
57.8593642834
 11
113.8118721923
 21
58.2103817067
  0
LINE
  5
62F
100
AcDbEntity
  8
0
100
AcDbLine
 62
7
  6
CONTINUOUS
 10
120.980188389
 20
63.4151206777
 11
121.3305899
 21
63.6783837452
  0
LINE
  5
630
100
AcDbEntity
  8
0
100
AcDbLine
 62
7
  6
CONTINUOUS
 10
113.8624601749
 20
58.0259537398
 11
114.3296621896
 21
58.3769711631
  0
LINE
  5
631
100
AcDbEntity
  8
0
100
AcDbLine
 62
7
  6
CONTINUOUS
 10
121.670318081
 20
63.3543169142
 11
122.020719592
 21
63.6175799817
  0
LINE
  5
632
100
AcDbEntity
  8
RUNDUNGEN
100
AcDbLine
 62
9
  6
CONTINUOUS
 10
119.0187918368
 20
59.8480011801
 11
119.3107930959
 21
60.0673870697
  0
LINE
  5
633
100
AcDbEntity
  8
0
100
AcDbLine
 62
7
  6
CONTINUOUS
 10
121.4847761
 20
67.6419990873
 11
120.794646408
 21
67.7028028508
  0
LINE
  5
634
100
AcDbEntity
  8
0
100
AcDbLine
 62
7
  6
CONTINUOUS
 10
54.0729077922
 20
73.5813107012
 11
54.7630374842
 21
73.5205069378
  0
LINE
  5
635
100
AcDbEntity
  8
0
100
AcDbLine
 62
7
  6
CONTINUOUS
 10
121.835177611
 20
67.9052621548
 11
121.145047919
 21
67.9660659182
  0
LINE
  5
636
100
AcDbEntity
  8
0
100
AcDbLine
 62
7
  6
CONTINUOUS
 10
54.7502605853
 20
73.8157677796
 11
54.4233093032
 21
73.8445737687
  0
LINE
  5
637
100
AcDbEntity
  8
0
100
AcDbLine
 62
7
  6
CONTINUOUS
 10
122.1543381532
 20
69.1670724668
 11
123.2648734095
 21
69.0692289399
  0
LINE
  5
638
100
AcDbEntity
  8
0
100
AcDbLine
 62
7
  6
CONTINUOUS
 10
121.4105593076
 20
69.3570719566
 11
120.7204296156
 21
69.41787572
  0
LINE
  5
639
100
AcDbEntity
  8
0
100
AcDbLine
 62
7
  6
CONTINUOUS
 10
53.9986909998
 20
75.2963835705
 11
54.6888206918
 21
75.235579807
  0
LINE
  5
63A
100
AcDbEntity
  8
0
100
AcDbLine
 62
7
  6
CONTINUOUS
 10
104.3220015755
 20
58.2970029449
 11
104.4333267641
 21
55.724393641
  0
LINE
  5
63B
100
AcDbEntity
  8
0
100
AcDbLine
 62
7
  6
CONTINUOUS
 10
103.4696063553
 20
78.097405134
 11
103.4528225843
 21
78.4852606235
  0
LINE
  5
63C
100
AcDbEntity
  8
0
100
AcDbLine
 62
7
  6
CONTINUOUS
 10
104.8062394554
 20
58.2543392458
 11
104.9005287788
 21
56.0754110643
  0
LINE
  5
63D
100
AcDbEntity
  8
0
100
AcDbLine
 62
7
  6
CONTINUOUS
 10
105.2374222713
 20
60.891353087
 11
105.2794784536
 21
59.9194784611
  0
LINE
  5
63E
100
AcDbEntity
  8
FASEN
100
AcDbLine
 62
7
  6
CONTINUOUS
 10
105.1282667987
 20
76.4013073398
 11
105.1777446603
 21
75.257925427
  0
LINE
  5
63F
100
AcDbEntity
  8
0
100
AcDbLine
 62
7
  6
CONTINUOUS
 10
105.4168244676
 20
78.3122225593
 11
105.4761979016
 21
76.940164264
  0
LINE
  5
640
100
AcDbEntity
  8
0
100
AcDbLine
 62
7
  6
CONTINUOUS
 10
105.8350653414
 20
76.908546307
 11
105.7756919074
 21
78.2806046023
  0
LINE
  5
641
100
AcDbEntity
  8
0
100
AcDbLine
 62
7
  6
CONTINUOUS
 10
117.9298202635
 20
77.2097671146
 11
117.9084398722
 21
77.1631133429
  0
LINE
  5
642
100
AcDbEntity
  8
0
100
AcDbLine
 62
7
  6
CONTINUOUS
 10
118.0192014439
 20
77.1533547128
 11
118.0406199666
 21
77.2000051249
  0
LINE
  5
643
100
AcDbEntity
  8
0
100
AcDbLine
 62
7
  6
CONTINUOUS
 10
118.054241595
 20
77.1796810195
 11
118.062680583
 21
77.1980614779
  0
LINE
  5
644
100
AcDbEntity
  8
0
100
AcDbLine
 62
7
  6
CONTINUOUS
 10
114.0102407123
 20
55.2728013867
 11
113.5430386976
 21
54.9217839635
  0
LINE
  5
645
100
AcDbEntity
  8
0
100
AcDbLine
 62
7
  6
CONTINUOUS
 10
122.488313719
 20
61.4492445552
 11
122.8153551293
 21
61.6949567515
  0
LINE
  5
646
100
AcDbEntity
  8
0
100
AcDbLine
 62
7
  6
CONTINUOUS
 10
121.7816432696
 20
60.7817076104
 11
122.1320447806
 21
61.0449706779
  0
LINE
  5
647
100
AcDbEntity
  8
0
100
AcDbLine
 62
7
  6
CONTINUOUS
 10
121.16573037
 20
59.1274385046
 11
121.516131881
 21
59.3907015721
  0
LINE
  5
648
100
AcDbEntity
  8
0
100
AcDbLine
 62
7
  6
CONTINUOUS
 10
121.855860062
 20
59.0666347412
 11
122.206261573
 21
59.3298978086
  0
LINE
  5
649
100
AcDbEntity
  8
0
100
AcDbLine
 62
7
  6
CONTINUOUS
 10
89.4572815359
 20
72.7827403132
 11
88.6291259056
 21
72.8557048294
  0
LINE
  5
64A
100
AcDbEntity
  8
0
100
AcDbLine
 62
7
  6
CONTINUOUS
 10
122.117229757
 20
70.0246089014
 11
123.2277650133
 21
69.9267653746
  0
LINE
  5
64B
100
AcDbEntity
  8
0
100
AcDbLine
 62
7
  6
CONTINUOUS
 10
122.4442711672
 20
70.2703210977
 11
123.2158399076
 21
70.2023421602
  0
LINE
  5
64C
100
AcDbEntity
  8
0
100
AcDbLine
 62
7
  6
CONTINUOUS
 10
52.5594505459
 20
77.4164772943
 11
53.912104742
 21
77.2973019179
  0
LINE
  5
64D
100
AcDbEntity
  8
0
100
AcDbLine
 62
7
  6
CONTINUOUS
 10
121.3239730498
 20
71.357990304
 11
122.6766272459
 21
71.2388149276
  0
LINE
  5
64E
100
AcDbEntity
  8
0
100
AcDbLine
 62
7
  6
CONTINUOUS
 10
54.5651260378
 20
78.0940345891
 11
53.2124718416
 21
78.2132099654
  0
LINE
  5
64F
100
AcDbEntity
  8
0
100
AcDbLine
 62
7
  6
CONTINUOUS
 10
121.9370196924
 20
72.4430006039
 11
120.5843654962
 21
72.5621759803
  0
LINE
  5
650
100
AcDbEntity
  8
FASEN
100
AcDbLine
 62
7
  6
CONTINUOUS
 10
93.4490533936
 20
75.8198135578
 11
93.0314620824
 21
76.3280716637
  0
LINE
  5
651
100
AcDbEntity
  8
FASEN
100
AcDbLine
 62
7
  6
CONTINUOUS
 10
106.2819521674
 20
75.1606394055
 11
106.2324743058
 21
76.3040213183
  0
LINE
  5
652
100
AcDbEntity
  8
FASEN
100
AcDbLine
 62
7
  6
CONTINUOUS
 10
106.7491541821
 20
75.5116568287
 11
106.7167121856
 21
76.2613576192
  0
LINE
  5
653
100
AcDbEntity
  8
0
100
AcDbLine
 62
7
  6
CONTINUOUS
 10
107.003070378
 20
77.7860898652
 11
106.986286607
 21
78.1739453547
  0
LINE
  5
654
100
AcDbEntity
  8
0
100
AcDbLine
 62
7
  6
CONTINUOUS
 10
112.6754371048
 20
58.130536213
 11
113.9882667649
 21
60.1203613664
  0
LINE
  5
655
100
AcDbEntity
  8
0
100
AcDbLine
 62
7
  6
CONTINUOUS
 10
113.0343045446
 20
58.098918256
 11
114.3471342047
 21
60.0887434094
  0
LINE
  5
656
100
AcDbEntity
  8
0
100
AcDbLine
 62
7
  6
CONTINUOUS
 10
121.979554716
 20
56.2081799591
 11
122.0496350182
 21
56.2608325726
  0
LINE
  5
657
100
AcDbEntity
  8
0
100
AcDbLine
 62
7
  6
CONTINUOUS
 10
122.7233335616
 20
56.0181804693
 11
123.0503749719
 21
56.2638926656
  0
LINE
  5
658
100
AcDbEntity
  8
0
100
AcDbLine
 62
7
  6
CONTINUOUS
 10
122.0867434144
 20
55.403296138
 11
122.3670646232
 21
55.613906592
  0
LINE
  5
659
100
AcDbEntity
  8
0
100
AcDbLine
 62
7
  6
CONTINUOUS
 10
122.7666266905
 20
55.0177212956
 11
121.4584610494
 21
54.0348725104
  0
LINE
  5
65A
100
AcDbEntity
  8
FASEN
100
AcDbLine
 62
7
  6
CONTINUOUS
 10
69.1564882377
 20
77.9601060312
 11
69.7085919912
 21
77.9114630205
  0
LINE
  5
65B
100
AcDbEntity
  8
FASEN
100
AcDbLine
 62
7
  6
CONTINUOUS
 10
81.3027708156
 20
76.8899597945
 11
81.8548745692
 21
76.8413167837
  0
LINE
  5
65C
100
AcDbEntity
  8
FASEN
100
AcDbLine
 62
7
  6
CONTINUOUS
 10
93.4490533936
 20
75.8198135578
 11
94.0011571471
 21
75.771170547
  0
LINE
  5
65D
100
AcDbEntity
  8
FASEN
100
AcDbLine
 62
7
  6
CONTINUOUS
 10
105.5953359716
 20
74.749667321
 11
106.1474397251
 21
74.7010243103
  0
LINE
  5
65E
100
AcDbEntity
  8
FASEN
100
AcDbLine
 62
7
  6
CONTINUOUS
 10
68.7388969264
 20
78.4683641372
 11
69.8431044335
 21
78.3710781157
  0
LINE
  5
65F
100
AcDbEntity
  8
FASEN
100
AcDbLine
 62
7
  6
CONTINUOUS
 10
80.8851795044
 20
77.3982179005
 11
81.9893870115
 21
77.3009318789
  0
LINE
  5
660
100
AcDbEntity
  8
FASEN
100
AcDbLine
 62
7
  6
CONTINUOUS
 10
93.0314620824
 20
76.3280716637
 11
94.1356695894
 21
76.2307856422
  0
LINE
  5
661
100
AcDbEntity
  8
FASEN
100
AcDbLine
 62
7
  6
CONTINUOUS
 10
105.1777446603
 20
75.257925427
 11
106.2819521674
 21
75.1606394055
  0
LINE
  5
662
100
AcDbEntity
  8
0
100
AcDbLine
 62
7
  6
CONTINUOUS
 10
114.8148214165
 20
74.9783636951
 11
109.8458876346
 21
75.4161507919
  0
LINE
  5
663
100
AcDbEntity
  8
0
100
AcDbLine
 62
7
  6
CONTINUOUS
 10
102.3924869618
 20
76.0728314372
 11
97.4235531799
 21
76.510618534
  0
LINE
  5
664
100
AcDbEntity
  8
0
100
AcDbLine
 62
7
  6
CONTINUOUS
 10
77.5478180523
 20
78.2617669214
 11
72.5788842704
 21
78.6995540183
  0
LINE
  5
665
100
AcDbEntity
  8
0
100
AcDbLine
 62
7
  6
CONTINUOUS
 10
65.1254835976
 20
79.3562346636
 11
60.1565498157
 21
79.7940217604
  0
LINE
  5
666
100
AcDbEntity
  8
0
100
AcDbLine
 62
7
  6
CONTINUOUS
 10
55.2732978537
 20
80.7937712115
 11
60.1318108849
 21
80.3657127168
  0
LINE
  5
667
100
AcDbEntity
  8
0
100
AcDbLine
 62
7
  6
CONTINUOUS
 10
65.1007446668
 20
79.92792562
 11
68.6894190648
 21
79.61174605
  0
LINE
  5
668
100
AcDbEntity
  8
0
100
AcDbLine
 62
7
  6
CONTINUOUS
 10
69.7936265719
 20
79.5144600285
 11
72.5541453396
 21
79.2712449747
  0
LINE
  5
669
100
AcDbEntity
  8
0
100
AcDbLine
 62
7
  6
CONTINUOUS
 10
77.5230791215
 20
78.8334578779
 11
80.8357016428
 21
78.5415998133
  0
LINE
  5
66A
100
AcDbEntity
  8
0
100
AcDbLine
 62
7
  6
CONTINUOUS
 10
81.9399091499
 20
78.4443137918
 11
92.9819842208
 21
77.4714535765
  0
LINE
  5
66B
100
AcDbEntity
  8
0
100
AcDbLine
 62
7
  6
CONTINUOUS
 10
94.0861917278
 20
77.374167555
 11
97.3988142491
 21
77.0823094905
  0
LINE
  5
66C
100
AcDbEntity
  8
0
100
AcDbLine
 62
7
  6
CONTINUOUS
 10
102.367748031
 20
76.6445223936
 11
105.1282667987
 21
76.4013073398
  0
LINE
  5
66D
100
AcDbEntity
  8
0
100
AcDbLine
 62
7
  6
CONTINUOUS
 10
106.2324743058
 20
76.3040213183
 11
109.8211487038
 21
75.9878417483
  0
LINE
  5
66E
100
AcDbEntity
  8
0
100
AcDbLine
 62
7
  6
CONTINUOUS
 10
114.7900824857
 20
75.5500546515
 11
119.6485955169
 21
75.1219961568
  0
LINE
  5
66F
100
AcDbEntity
  8
0
100
AcDbLine
 62
7
  6
CONTINUOUS
 10
119.8999084629
 20
75.6693656078
 11
114.7239357734
 21
76.1253938337
  0
LINE
  5
670
100
AcDbEntity
  8
0
100
AcDbLine
 62
7
  6
CONTINUOUS
 10
114.3650683336
 20
76.1570117907
 11
110.1966849944
 21
76.5242665219
  0
LINE
  5
671
100
AcDbEntity
  8
0
100
AcDbLine
 62
7
  6
CONTINUOUS
 10
109.8378175546
 20
76.5558844789
 11
105.8350653414
 21
76.908546307
  0
LINE
  5
672
100
AcDbEntity
  8
0
100
AcDbLine
 62
7
  6
CONTINUOUS
 10
105.4761979016
 20
76.940164264
 11
102.3016013187
 21
77.2198615758
  0
LINE
  5
673
100
AcDbEntity
  8
0
100
AcDbLine
 62
7
  6
CONTINUOUS
 10
101.9427338789
 20
77.2514795328
 11
97.7743505396
 21
77.6187342641
  0
LINE
  5
674
100
AcDbEntity
  8
0
100
AcDbLine
 62
7
  6
CONTINUOUS
 10
97.4154830998
 20
77.6503522211
 11
93.6887827634
 21
77.9786925437
  0
LINE
  5
675
100
AcDbEntity
  8
0
100
AcDbLine
 62
7
  6
CONTINUOUS
 10
93.3299153236
 20
78.0103105007
 11
81.5425001854
 21
79.0488387804
  0
LINE
  5
676
100
AcDbEntity
  8
0
100
AcDbLine
 62
7
  6
CONTINUOUS
 10
81.1836327456
 20
79.0804567374
 11
77.4569324092
 21
79.4087970601
  0
LINE
  5
677
100
AcDbEntity
  8
0
100
AcDbLine
 62
7
  6
CONTINUOUS
 10
77.0980649694
 20
79.4404150171
 11
72.9296816301
 21
79.8076697483
  0
LINE
  5
678
100
AcDbEntity
  8
0
100
AcDbLine
 62
7
  6
CONTINUOUS
 10
72.5708141903
 20
79.8392877053
 11
69.3962176075
 21
80.1189850172
  0
LINE
  5
679
100
AcDbEntity
  8
0
100
AcDbLine
 62
7
  6
CONTINUOUS
 10
69.0373501677
 20
80.1506029742
 11
65.0345979545
 21
80.5032648022
  0
LINE
  5
67A
100
AcDbEntity
  8
0
100
AcDbLine
 62
7
  6
CONTINUOUS
 10
64.6757305147
 20
80.5348827592
 11
60.5073471754
 21
80.9021374904
  0
LINE
  5
67B
100
AcDbEntity
  8
0
100
AcDbLine
 62
7
  6
CONTINUOUS
 10
60.1484797356
 20
80.9337554474
 11
54.9725070461
 21
81.3897836733
  0
LINE
  5
67C
100
AcDbEntity
  8
0
100
AcDbLine
 62
7
  6
CONTINUOUS
 10
109.8211487038
 20
75.9878417483
 11
109.8458876346
 21
75.4161507919
  0
LINE
  5
67D
100
AcDbEntity
  8
0
100
AcDbLine
 62
7
  6
CONTINUOUS
 10
109.8378175546
 20
76.5558844789
 11
109.7784441206
 21
77.9279427743
  0
LINE
  5
67E
100
AcDbEntity
  8
0
100
AcDbLine
 62
7
  6
CONTINUOUS
 10
110.1373115604
 20
77.8963248173
 11
110.1966849944
 21
76.5242665219
  0
LINE
  5
67F
100
AcDbEntity
  8
0
100
AcDbLine
 62
7
  6
CONTINUOUS
 10
111.364690031
 20
77.4018100802
 11
111.34790626
 21
77.7896655696
  0
LINE
  5
680
100
AcDbEntity
  8
0
100
AcDbLine
 62
7
  6
CONTINUOUS
 10
112.3275060019
 20
57.5916792888
 11
112.4388311905
 21
55.019069985
  0
LINE
  5
681
100
AcDbEntity
  8
0
100
AcDbLine
 62
9
  6
CONTINUOUS
 10
120.0770680574
 20
51.4654260189
 11
120.6260304246
 21
51.8778714912
  0
LINE
  5
682
100
AcDbEntity
  8
0
100
AcDbLine
 62
7
  6
CONTINUOUS
 10
125.1364519889
 20
55.0834543521
 11
124.5758095713
 21
54.6622334441
  0
LINE
  5
683
100
AcDbEntity
  8
0
100
AcDbLine
 62
7
  6
CONTINUOUS
 10
119.8573188
 20
76.6535684137
 11
115.8919408101
 21
77.0029373919
  0
LINE
  5
684
100
AcDbEntity
  8
0
100
AcDbLine
 62
7
  6
CONTINUOUS
 10
114.3224786707
 20
77.1412145966
 11
111.364690031
 21
77.4018100802
  0
LINE
  5
685
100
AcDbEntity
  8
0
100
AcDbLine
 62
7
  6
CONTINUOUS
 10
109.7952278917
 20
77.5400872848
 11
107.003070378
 21
77.7860898652
  0
LINE
  5
686
100
AcDbEntity
  8
0
100
AcDbLine
 62
7
  6
CONTINUOUS
 10
105.4336082387
 20
77.9243670698
 11
103.4696063553
 21
78.097405134
  0
LINE
  5
687
100
AcDbEntity
  8
0
100
AcDbLine
 62
7
  6
CONTINUOUS
 10
101.900144216
 20
78.2356823387
 11
98.9423555763
 21
78.4962778223
  0
LINE
  5
688
100
AcDbEntity
  8
0
100
AcDbLine
 62
7
  6
CONTINUOUS
 10
97.3728934369
 20
78.634555027
 11
94.8567878001
 21
78.8562361019
  0
LINE
  5
689
100
AcDbEntity
  8
0
100
AcDbLine
 62
7
  6
CONTINUOUS
 10
93.2873256607
 20
78.9945133066
 11
82.7105052221
 21
79.9263823387
  0
LINE
  5
68A
100
AcDbEntity
  8
0
100
AcDbLine
 62
7
  6
CONTINUOUS
 10
81.1410430827
 20
80.0646595433
 11
78.6249374459
 21
80.2863406183
  0
LINE
  5
68B
100
AcDbEntity
  8
0
100
AcDbLine
 62
7
  6
CONTINUOUS
 10
77.0554753065
 20
80.424617823
 11
74.0976866668
 21
80.6852133065
  0
LINE
  5
68C
100
AcDbEntity
  8
0
100
AcDbLine
 62
7
  6
CONTINUOUS
 10
72.5282245275
 20
80.8234905112
 11
70.5642226441
 21
80.9965285754
  0
LINE
  5
68D
100
AcDbEntity
  8
0
100
AcDbLine
 62
7
  6
CONTINUOUS
 10
68.9947605048
 20
81.1348057801
 11
66.2026029911
 21
81.3808083604
  0
LINE
  5
68E
100
AcDbEntity
  8
0
100
AcDbLine
 62
7
  6
CONTINUOUS
 10
64.6331408518
 20
81.5190855651
 11
61.6753522121
 21
81.7796810487
  0
LINE
  5
68F
100
AcDbEntity
  8
0
100
AcDbLine
 62
7
  6
CONTINUOUS
 10
60.1058900727
 20
81.9179582533
 11
56.1405120828
 21
82.2673272315
  0
LINE
  5
690
100
AcDbEntity
  8
0
100
AcDbLine
 62
7
  6
CONTINUOUS
 10
121.7576624441
 20
76.5877600379
 11
120.4050082479
 21
76.7069354142
  0
LINE
  5
691
100
AcDbEntity
  8
0
100
AcDbLine
 62
7
  6
CONTINUOUS
 10
54.3733993241
 20
82.5246395013
 11
53.0207451279
 21
82.6438148776
  0
LINE
  5
692
100
AcDbEntity
  8
0
100
AcDbLine
 62
7
  6
CONTINUOUS
 10
116.922659904
 20
77.1366880312
 11
117.4073600845
 21
77.0939836012
  0
LINE
  5
693
100
AcDbEntity
  8
0
100
AcDbLine
 62
7
  6
CONTINUOUS
 10
117.4051754906
 20
77.144467292
 11
116.9204753102
 21
77.1871717219
  0
LINE
  5
694
100
AcDbEntity
  8
0
100
AcDbLine
 62
7
  6
CONTINUOUS
 10
57.5492626457
 20
82.4265389516
 11
57.6538708014
 21
82.4173224672
  0
LINE
  5
695
100
AcDbEntity
  8
0
100
AcDbLine
 62
7
  6
CONTINUOUS
 10
59.4861698031
 20
82.2558880638
 11
59.5907779176
 21
82.246671583
  0
LINE
  5
696
100
AcDbEntity
  8
0
100
AcDbLine
 62
7
  6
CONTINUOUS
 10
88.279535561
 20
79.7190532906
 11
88.3973972128
 21
79.7086691091
  0
LINE
  5
697
100
AcDbEntity
  8
0
100
AcDbLine
 62
7
  6
CONTINUOUS
 10
88.6998614653
 20
79.6820205457
 11
88.8181964722
 21
79.6715946593
  0
LINE
  5
698
100
AcDbEntity
  8
0
100
AcDbLine
 62
7
  6
CONTINUOUS
 10
117.4402156417
 20
77.1707935987
 11
116.9555154613
 21
77.2134980287
  0
LINE
  5
699
100
AcDbEntity
  8
0
100
AcDbLine
 62
7
  6
CONTINUOUS
 10
117.9084398722
 20
77.1631133429
 11
118.0192014439
 21
77.1533547128
  0
LINE
  5
69A
100
AcDbEntity
  8
0
100
AcDbLine
 62
7
  6
CONTINUOUS
 10
116.6232157607
 20
77.2787891235
 11
116.7278238958
 21
77.2695726409
  0
LINE
  5
69B
100
AcDbEntity
  8
0
100
AcDbLine
 62
7
  6
CONTINUOUS
 10
119.840535029
 20
77.0414239032
 11
114.6645623395
 21
77.4974521291
  0
LINE
  5
69C
100
AcDbEntity
  8
0
100
AcDbLine
 62
7
  6
CONTINUOUS
 10
114.3056948997
 20
77.5290700861
 11
110.1373115604
 21
77.8963248173
  0
LINE
  5
69D
100
AcDbEntity
  8
0
100
AcDbLine
 62
7
  6
CONTINUOUS
 10
109.7784441206
 20
77.9279427743
 11
105.7756919074
 21
78.2806046023
  0
LINE
  5
69E
100
AcDbEntity
  8
0
100
AcDbLine
 62
7
  6
CONTINUOUS
 10
105.4168244676
 20
78.3122225593
 11
102.2422278848
 21
78.5919198712
  0
LINE
  5
69F
100
AcDbEntity
  8
0
100
AcDbLine
 62
7
  6
CONTINUOUS
 10
101.883360445
 20
78.6235378282
 11
97.7149771057
 21
78.9907925595
  0
LINE
  5
6A0
100
AcDbEntity
  8
0
100
AcDbLine
 62
7
  6
CONTINUOUS
 10
97.3561096659
 20
79.0224105164
 11
93.6294093295
 21
79.3507508391
  0
LINE
  5
6A1
100
AcDbEntity
  8
0
100
AcDbLine
 62
7
  6
CONTINUOUS
 10
93.2705418897
 20
79.3823687961
 11
81.4831267515
 21
80.4208970758
  0
LINE
  5
6A2
100
AcDbEntity
  8
0
100
AcDbLine
 62
7
  6
CONTINUOUS
 10
81.1242593117
 20
80.4525150328
 11
77.3975589753
 21
80.7808553555
  0
LINE
  5
6A3
100
AcDbEntity
  8
0
100
AcDbLine
 62
7
  6
CONTINUOUS
 10
77.0386915355
 20
80.8124733125
 11
72.8703081962
 21
81.1797280437
  0
LINE
  5
6A4
100
AcDbEntity
  8
0
100
AcDbLine
 62
7
  6
CONTINUOUS
 10
72.5114407564
 20
81.2113460007
 11
69.3368441735
 21
81.4910433126
  0
LINE
  5
6A5
100
AcDbEntity
  8
0
100
AcDbLine
 62
7
  6
CONTINUOUS
 10
68.9779767337
 20
81.5226612696
 11
64.9752245205
 21
81.8753230976
  0
LINE
  5
6A6
100
AcDbEntity
  8
0
100
AcDbLine
 62
7
  6
CONTINUOUS
 10
64.6163570807
 20
81.9069410546
 11
60.4479737415
 21
82.2741957858
  0
LINE
  5
6A7
100
AcDbEntity
  8
0
100
AcDbLine
 62
7
  6
CONTINUOUS
 10
60.0891063017
 20
82.3058137428
 11
54.9131336122
 21
82.7618419687
  0
LINE
  5
6A8
100
AcDbEntity
  8
0
100
AcDbLine
 62
7
  6
CONTINUOUS
 10
52.2935070397
 20
83.5621550757
 11
122.4106837398
 21
77.384492709
  0
LINE
  5
6A9
100
AcDbEntity
  8
0
100
AcDbLine
 62
7
  6
CONTINUOUS
 10
120.9413502654
 20
78.6904886349
 11
89.1677792489
 21
81.4898939042
  0
LINE
  5
6AA
100
AcDbEntity
  8
0
100
AcDbLine
 62
7
  6
CONTINUOUS
 10
88.3396236186
 20
81.5628584203
 11
56.5660526022
 21
84.3622636896
  0
LINE
  5
6AB
100
AcDbEntity
  8
0
100
AcDbLine
 62
7
  6
CONTINUOUS
 10
124.1159710933
 20
78.665706304
 11
121.2450315749
 21
78.91864996
  0
LINE
  5
6AC
100
AcDbEntity
  8
0
100
AcDbLine
 62
7
  6
CONTINUOUS
 10
89.4714605585
 20
81.7180552293
 11
88.6433049281
 21
81.7910197454
  0
LINE
  5
6AD
100
AcDbEntity
  8
0
100
AcDbLine
 62
7
  6
CONTINUOUS
 10
56.8697339117
 20
84.5904250147
 11
53.9987943933
 21
84.8433686707
  0
LINE
  5
6AE
100
AcDbEntity
  8
FASEN
100
AcDbLine
 62
7
  6
CONTINUOUS
 10
105.5953359716
 20
74.749667321
 11
105.1777446603
 21
75.257925427
  0
LINE
  5
6AF
100
AcDbEntity
  8
0
100
AcDbLine
 62
7
  6
CONTINUOUS
 10
113.431713509
 20
57.4943932673
 11
113.5430386976
 21
54.9217839635
  0
LINE
  5
6B0
100
AcDbEntity
  8
0
100
AcDbLine
 62
7
  6
CONTINUOUS
 10
113.9159513888
 20
57.4517295682
 11
114.0102407123
 21
55.2728013867
  0
LINE
  5
6B1
100
AcDbEntity
  8
0
100
AcDbLine
 62
7
  6
CONTINUOUS
 10
114.3471342047
 20
60.0887434094
 11
114.3891903871
 21
59.1168687835
  0
LINE
  5
6B2
100
AcDbEntity
  8
0
100
AcDbLine
 62
7
  6
CONTINUOUS
 10
114.3650683336
 20
76.1570117907
 11
114.3056948997
 21
77.5290700861
  0
LINE
  5
6B3
100
AcDbEntity
  8
0
100
AcDbLine
 62
7
  6
CONTINUOUS
 10
114.6645623395
 20
77.4974521291
 11
114.7239357734
 21
76.1253938337
  0
LINE
  5
6B4
100
AcDbEntity
  8
0
100
AcDbLine
 62
7
  6
CONTINUOUS
 10
114.7900824857
 20
75.5500546515
 11
114.8148214165
 21
74.9783636951
  0
LINE
  5
6B5
100
AcDbEntity
  8
0
100
AcDbLine
 62
7
  6
CONTINUOUS
 10
115.2501084716
 20
75.5095241374
 11
115.2586633305
 21
75.3118302472
  0
LINE
  5
6B6
100
AcDbEntity
  8
0
100
AcDbLine
 62
9
  6
CONTINUOUS
 10
123.7209528307
 20
51.1443821479
 11
123.3705513198
 21
50.8811190804
  0
LINE
  5
6B7
100
AcDbEntity
  8
0
100
AcDbLine
 62
9
  6
CONTINUOUS
 10
124.2977955151
 20
50.5240481807
 11
123.9473940041
 21
50.2607851132
  0
LINE
  5
6B8
100
AcDbEntity
  8
0
100
AcDbLine
 62
7
  6
CONTINUOUS
 10
115.8919408101
 20
77.0029373919
 11
115.875157039
 21
77.3907928814
  0
LINE
  5
6B9
100
AcDbEntity
  8
0
100
AcDbLine
 62
7
  6
CONTINUOUS
 10
116.6212133951
 20
77.3250617084
 11
116.6232157607
 21
77.2787891235
  0
LINE
  5
6BA
100
AcDbEntity
  8
0
100
AcDbLine
 62
7
  6
CONTINUOUS
 10
116.7278238958
 20
77.2695726409
 11
116.7258215302
 21
77.3158452258
  0
LINE
  5
6BB
100
AcDbEntity
  8
0
100
AcDbLine
 62
7
  6
CONTINUOUS
 10
116.7628640469
 20
77.2958989477
 11
116.7621393712
 21
77.3126454483
  0
LINE
  5
6BC
100
AcDbEntity
  8
0
100
AcDbLine
 62
7
  6
CONTINUOUS
 10
116.9204753102
 20
77.1871717219
 11
116.922659904
 21
77.1366880312
  0
LINE
  5
6BD
100
AcDbEntity
  8
0
100
AcDbLine
 62
7
  6
CONTINUOUS
 10
117.4073600845
 20
77.0939836012
 11
117.4051754906
 21
77.144467292
  0
LINE
  5
6BE
100
AcDbEntity
  8
0
100
AcDbLine
 62
7
  6
CONTINUOUS
 10
117.4424002356
 20
77.120309908
 11
117.4402156417
 21
77.1707935987
  0
LINE
  5
6BF
100
AcDbEntity
  8
DEFAULT_3
100
AcDbLine
 62
2
  6
PHANTOM
 10
119.8430481718
 20
35.8809207609
 11
119.3334261973
 21
47.6577544629
  0
LINE
  5
6C0
100
AcDbEntity
  8
0
100
AcDbLine
 62
9
  6
CONTINUOUS
 10
124.4279506808
 20
47.5162976947
 11
124.5774028123
 21
47.6285838161
  0
LINE
  5
6C1
100
AcDbEntity
  8
0
100
AcDbLine
 62
7
  6
CONTINUOUS
 10
120.4612693937
 20
56.3419482387
 11
119.6485955169
 21
75.1219961568
  0
LINE
  5
6C2
100
AcDbEntity
  8
0
100
AcDbLine
 62
7
  6
CONTINUOUS
 10
120.6303054191
 20
54.1078370266
 11
120.5339050757
 21
56.3355486838
  0
LINE
  5
6C3
100
AcDbEntity
  8
0
100
AcDbLine
 62
7
  6
CONTINUOUS
 10
119.8999084629
 20
75.6693656078
 11
119.840535029
 21
77.0414239032
  0
LINE
  5
6C4
100
AcDbEntity
  8
0
100
AcDbLine
 62
7
  6
CONTINUOUS
 10
121.9599201646
 20
32.2969550879
 11
121.3167079638
 21
47.1609199546
  0
LINE
  5
6C5
100
AcDbEntity
  8
0
100
AcDbLine
 62
7
  6
CONTINUOUS
 10
120.4050082479
 20
76.7069354142
 11
120.5843654962
 21
72.5621759803
  0
LINE
  5
6C6
100
AcDbEntity
  8
0
100
AcDbLine
 62
7
  6
CONTINUOUS
 10
120.7204296156
 20
69.41787572
 11
120.794646408
 21
67.7028028508
  0
LINE
  5
6C7
100
AcDbEntity
  8
0
100
AcDbLine
 62
7
  6
CONTINUOUS
 10
120.9059715966
 20
65.1301935469
 11
120.980188389
 21
63.4151206777
  0
LINE
  5
6C8
100
AcDbEntity
  8
0
100
AcDbLine
 62
7
  6
CONTINUOUS
 10
121.0915135776
 20
60.8425113738
 11
121.16573037
 21
59.1274385046
  0
LINE
  5
6C9
100
AcDbEntity
  8
0
100
AcDbLine
 62
7
  6
CONTINUOUS
 10
121.4584610494
 20
54.0348725104
 11
121.3966137224
 21
55.4640999014
  0
LINE
  5
6CA
100
AcDbEntity
  8
0
100
AcDbLine
 62
7
  6
CONTINUOUS
 10
122.4865935784
 20
32.2505526131
 11
121.8433813775
 21
47.1145174798
  0
LINE
  5
6CB
100
AcDbEntity
  8
0
100
AcDbLine
 62
7
  6
CONTINUOUS
 10
121.979554716
 20
56.2081799591
 11
121.855860062
 21
59.0666347412
  0
LINE
  5
6CC
100
AcDbEntity
  8
0
100
AcDbLine
 62
7
  6
CONTINUOUS
 10
121.7816432696
 20
60.7817076104
 11
121.670318081
 21
63.3543169142
  0
LINE
  5
6CD
100
AcDbEntity
  8
0
100
AcDbLine
 62
7
  6
CONTINUOUS
 10
121.5961012886
 20
65.0693897835
 11
121.4847761
 21
67.6419990873
  0
LINE
  5
6CE
100
AcDbEntity
  8
0
100
AcDbLine
 62
7
  6
CONTINUOUS
 10
121.4105593076
 20
69.3570719566
 11
121.3239730498
 21
71.357990304
  0
LINE
  5
6CF
100
AcDbEntity
  8
0
100
AcDbLine
 62
7
  6
CONTINUOUS
 10
122.0867434144
 20
55.403296138
 11
122.0496350182
 21
56.2608325726
  0
LINE
  5
6D0
100
AcDbEntity
  8
0
100
AcDbLine
 62
7
  6
CONTINUOUS
 10
122.3670646232
 20
55.613906592
 11
122.206261573
 21
59.3298978086
  0
LINE
  5
6D1
100
AcDbEntity
  8
0
100
AcDbLine
 62
7
  6
CONTINUOUS
 10
122.1320447806
 20
61.0449706779
 11
122.020719592
 21
63.6175799817
  0
LINE
  5
6D2
100
AcDbEntity
  8
0
100
AcDbLine
 62
7
  6
CONTINUOUS
 10
121.9465027996
 20
65.3326528509
 11
121.835177611
 21
67.9052621548
  0
LINE
  5
6D3
100
AcDbEntity
  8
0
100
AcDbLine
 62
7
  6
CONTINUOUS
 10
121.7609608186
 20
69.620335024
 11
121.6871514596
 21
71.3259925297
  0
LINE
  5
6D4
100
AcDbEntity
  8
0
100
AcDbLine
 62
7
  6
CONTINUOUS
 10
121.7576624441
 20
76.5877600379
 11
121.9370196924
 21
72.4430006039
  0
LINE
  5
6D5
100
AcDbEntity
  8
0
100
AcDbLine
 62
7
  6
CONTINUOUS
 10
122.7666266905
 20
55.0177212956
 11
122.7233335616
 21
56.0181804693
  0
LINE
  5
6D6
100
AcDbEntity
  8
0
100
AcDbLine
 62
7
  6
CONTINUOUS
 10
122.5254221152
 20
60.5917081206
 11
122.488313719
 21
61.4492445552
  0
LINE
  5
6D7
100
AcDbEntity
  8
0
100
AcDbLine
 62
7
  6
CONTINUOUS
 10
122.3398801342
 20
64.8793902937
 11
122.302771738
 21
65.7369267283
  0
LINE
  5
6D8
100
AcDbEntity
  8
0
100
AcDbLine
 62
7
  6
CONTINUOUS
 10
122.1543381532
 20
69.1670724668
 11
122.117229757
 21
70.0246089014
  0
LINE
  5
6D9
100
AcDbEntity
  8
0
100
AcDbLine
 62
7
  6
CONTINUOUS
 10
122.4013116192
 20
71.2630715658
 11
122.4442711672
 21
70.2703210977
  0
LINE
  5
6DA
100
AcDbEntity
  8
0
100
AcDbLine
 62
7
  6
CONTINUOUS
 10
122.4933046691
 20
69.1372078774
 11
122.6298131482
 21
65.9826389246
  0
LINE
  5
6DB
100
AcDbEntity
  8
0
100
AcDbLine
 62
7
  6
CONTINUOUS
 10
122.6788466501
 20
64.8495257043
 11
122.8153551293
 21
61.6949567515
  0
LINE
  5
6DC
100
AcDbEntity
  8
0
100
AcDbLine
 62
7
  6
CONTINUOUS
 10
122.8643886311
 20
60.5618435313
 11
123.0503749719
 21
56.2638926656
  0
LINE
  5
6DD
100
AcDbEntity
  8
0
100
AcDbLine
 62
7
  6
CONTINUOUS
 10
122.6766272459
 20
71.2388149276
 11
122.4106837398
 21
77.384492709
  0
LINE
  5
6DE
100
AcDbEntity
  8
0
100
AcDbLine
 62
7
  6
CONTINUOUS
 10
123.9473940041
 20
50.2607851132
 11
124.886236428
 21
28.5651133174
  0
LINE
  5
6DF
100
AcDbEntity
  8
0
100
AcDbLine
 62
7
  6
CONTINUOUS
 10
123.1554217891
 20
71.5985420297
 11
123.8856798793
 21
54.7230372076
  0
LINE
  5
6E0
100
AcDbEntity
  8
0
100
AcDbLine
 62
7
  6
CONTINUOUS
 10
124.2977955151
 20
50.5240481807
 11
125.236637939
 21
28.8283763849
  0
LINE
  5
6E1
100
AcDbEntity
  8
0
100
AcDbLine
 62
7
  6
CONTINUOUS
 10
124.5774028123
 20
47.6285838161
 11
125.2206150132
 21
32.7646189494
  0
LINE
  5
6E2
100
AcDbEntity
  8
0
100
AcDbLine
 62
7
  6
CONTINUOUS
 10
124.5758095713
 20
54.6622334441
 11
123.8212721819
 21
72.0988076147
  0
LINE
  5
6E3
100
AcDbEntity
  8
0
100
AcDbLine
 62
7
  6
CONTINUOUS
 10
125.1364519889
 20
55.0834543521
 11
124.1159710933
 21
78.665706304
  0
LINE
  5
6E4
100
AcDbEntity
  8
0
100
AcDbLine
 62
9
  6
CONTINUOUS
 10
125.0711628816
 20
32.652332828
 11
125.2206150132
 21
32.7646189494
  0
LINE
  5
6E5
100
AcDbEntity
  8
0
100
AcDbLine
 62
9
  6
CONTINUOUS
 10
125.236637939
 20
28.8283763849
 11
124.886236428
 21
28.5651133174
  0
LINE
  5
6E6
100
AcDbEntity
  8
0
100
AcDbLine
 62
7
  6
CONTINUOUS
 10
124.6945372719
 20
28.1340600429
 11
125.0449387829
 21
28.3973231104
  0
ARC
  5
6E7
100
AcDbEntity
  8
0
100
AcDbCircle
 62
7
  6
CONTINUOUS
 10
180.6007332402
 20
160.443400838
 40
20.9911290787
100
AcDbArc
 50
274.0977777167
 51
280.9852735523
  0
ARC
  5
6E8
100
AcDbEntity
  8
0
100
AcDbCircle
 62
7
  6
CONTINUOUS
 10
180.6007332402
 20
160.443400838
 40
20.9911290787
100
AcDbArc
 50
259.0147264477
 51
265.9022222833
  0
ARC
  5
6E9
100
AcDbEntity
  8
0
100
AcDbCircle
 62
7
  6
CONTINUOUS
 10
180.6007332402
 20
160.443400838
 40
19.451927925
100
AcDbArc
 50
258.1333177058
 51
281.8666822942
  0
ARC
  5
6EA
100
AcDbEntity
  8
0
100
AcDbCircle
 62
7
  6
CONTINUOUS
 10
304.6007332402
 20
116.643400838
 40
1.0
100
AcDbArc
 50
17.4576031237
 51
162.5423968763
  0
ARC
  5
6EB
100
AcDbEntity
  8
0
100
AcDbCircle
 62
7
  6
CONTINUOUS
 10
56.6007332402
 20
116.643400838
 40
1.0
100
AcDbArc
 50
17.4576031237
 51
162.5423968763
  0
ARC
  5
6EC
100
AcDbEntity
  8
DEFAULT_3
100
AcDbCircle
 62
2
  6
PHANTOM
 10
287.1007332402
 20
197.5279487798
 40
9.5
100
AcDbArc
 50
270.0
 51
360.0
  0
ARC
  5
6ED
100
AcDbEntity
  8
DEFAULT_3
100
AcDbCircle
 62
2
  6
PHANTOM
 10
74.1007332402
 20
197.5279487798
 40
9.5
100
AcDbArc
 50
180.0
 51
270.0
  0
ARC
  5
6EE
100
AcDbEntity
  8
0
100
AcDbCircle
 62
7
  6
CONTINUOUS
 10
62.7007332402
 20
237.5279487798
 40
7.0539392014
100
AcDbArc
 50
90.0
 51
180.0
  0
ARC
  5
6EF
100
AcDbEntity
  8
0
100
AcDbCircle
 62
7
  6
CONTINUOUS
 10
298.5007332402
 20
237.5279487798
 40
7.0539392014
100
AcDbArc
 50
0.0
 51
90.0
  0
ARC
  5
6F0
100
AcDbEntity
  8
0
100
AcDbCircle
 62
7
  6
CONTINUOUS
 10
298.5007332402
 20
185.5279487798
 40
7.0539392014
100
AcDbArc
 50
270.0
 51
360.0
  0
ARC
  5
6F1
100
AcDbEntity
  8
0
100
AcDbCircle
 62
7
  6
CONTINUOUS
 10
62.7007332402
 20
185.5279487798
 40
7.0539392014
100
AcDbArc
 50
180.0
 51
270.0
  0
ARC
  5
6F2
100
AcDbEntity
  8
0
100
AcDbCircle
 62
7
  6
CONTINUOUS
 10
62.7007332402
 20
185.5279487798
 40
5.1460607986
100
AcDbArc
 50
180.0
 51
270.0
  0
ARC
  5
6F3
100
AcDbEntity
  8
0
100
AcDbCircle
 62
7
  6
CONTINUOUS
 10
298.5007332402
 20
185.5279487798
 40
5.1460607986
100
AcDbArc
 50
270.0
 51
360.0
  0
ARC
  5
6F4
100
AcDbEntity
  8
0
100
AcDbCircle
 62
7
  6
CONTINUOUS
 10
298.5007332402
 20
237.5279487798
 40
5.1460607986
100
AcDbArc
 50
0.0
 51
90.0
  0
ARC
  5
6F5
100
AcDbEntity
  8
0
100
AcDbCircle
 62
7
  6
CONTINUOUS
 10
62.7007332402
 20
237.5279487798
 40
5.1460607986
100
AcDbArc
 50
90.0
 51
180.0
  0
ARC
  5
6F6
100
AcDbEntity
  8
0
100
AcDbCircle
 62
7
  6
CONTINUOUS
 10
49.5007332402
 20
249.2279487798
 40
2.0
100
AcDbArc
 50
90.0
 51
180.0
  0
ARC
  5
6F7
100
AcDbEntity
  8
0
100
AcDbCircle
 62
7
  6
CONTINUOUS
 10
49.5007332402
 20
173.3279487798
 40
2.0
100
AcDbArc
 50
180.0
 51
270.0
  0
ARC
  5
6F8
100
AcDbEntity
  8
0
100
AcDbCircle
 62
7
  6
CONTINUOUS
 10
311.7007332402
 20
173.3279487798
 40
2.0
100
AcDbArc
 50
270.0
 51
360.0
  0
ARC
  5
6F9
100
AcDbEntity
  8
0
100
AcDbCircle
 62
7
  6
CONTINUOUS
 10
311.7007332402
 20
249.2279487798
 40
2.0
100
AcDbArc
 50
0.0
 51
90.0
  0
ARC
  5
6FA
100
AcDbEntity
  8
0
100
AcDbCircle
 62
7
  6
CONTINUOUS
 10
119.7424542635
 20
47.0236018416
 40
2.1028933381
100
AcDbArc
 50
2.4778748339
 51
2.7432452448
  0
ARC
  5
6FB
100
AcDbEntity
  8
0
100
AcDbCircle
 62
7
  6
CONTINUOUS
 10
54.5499376943
 20
53.1559659201
 40
1.8887620185
100
AcDbArc
 50
84.9607757853
 51
88.8771751501
  0
ARC
  5
6FC
100
AcDbEntity
  8
0
100
AcDbCircle
 62
7
  6
CONTINUOUS
 10
120.7240283244
 20
32.3237470387
 40
1.3779361389
100
AcDbArc
 50
264.9608122345
 51
268.8770645711
  0
ARC
  5
6FD
100
AcDbEntity
  8
0
100
AcDbCircle
 62
7
  6
CONTINUOUS
 10
59.1623892419
 20
82.531515547
 40
0.2309806821
100
AcDbArc
 50
314.596799624
 51
316.5438266448
  0
ARC
  5
6FE
100
AcDbEntity
  8
0
100
AcDbCircle
 62
7
  6
CONTINUOUS
 10
118.9573335873
 20
77.2871541366
 40
0.2157568185
100
AcDbArc
 50
225.7944417696
 51
228.1886525825
  0
ARC
  5
6FF
100
AcDbEntity
  8
0
100
AcDbCircle
 62
7
  6
CONTINUOUS
 10
119.8443278605
 20
77.202368126
 40
0.2124109163
100
AcDbArc
 50
264.945886766
 51
269.5783596817
  0
ARC
  5
700
100
AcDbEntity
  8
0
100
AcDbCircle
 62
7
  6
CONTINUOUS
 10
118.5104669207
 20
77.2869288225
 40
0.1838412228
100
AcDbArc
 50
306.8983330594
 51
310.9011798471
  0
ARC
  5
701
100
AcDbEntity
  8
0
100
AcDbCircle
 62
7
  6
CONTINUOUS
 10
118.9635024899
 20
77.2486120941
 40
0.1826985526
100
AcDbArc
 50
306.9279040991
 51
309.8574692065
  0
ARC
  5
702
100
AcDbEntity
  8
0
100
AcDbCircle
 62
7
  6
CONTINUOUS
 10
58.4298416861
 20
82.5597088034
 40
0.1785668919
100
AcDbArc
 50
306.9237723872
 51
318.0307905536
  0
ARC
  5
703
100
AcDbEntity
  8
0
100
AcDbCircle
 62
7
  6
CONTINUOUS
 10
118.4816773271
 20
77.3030946736
 40
0.1778187503
100
AcDbArc
 50
227.6446201277
 51
233.0586578603
  0
SPLINE
  5
704
100
AcDbEntity
  8
DEFAULT_3
100
AcDbSpline
 62
2
  6
PHANTOM
 70
0
 71
3
 72
213
 73
209
 74
0
 42
0.0000001
 43
0.0000001
 44
0.0000000001
 40
0.0
 40
0.0
 40
0.0
 40
0.0
 40
0.03125
 40
0.046875
 40
0.0625
 40
0.078125
 40
0.0859375
 40
0.09375
 40
0.1015625
 40
0.10546875
 40
0.109375
 40
0.11328125
 40
0.1171875
 40
0.119140625
 40
0.12109375
 40
0.123046875
 40
0.1240234375
 40
0.1245117188
 40
0.125
 40
0.1254882812
 40
0.1259765625
 40
0.126953125
 40
0.12890625
 40
0.130859375
 40
0.1328125
 40
0.13671875
 40
0.140625
 40
0.14453125
 40
0.1484375
 40
0.15625
 40
0.1640625
 40
0.171875
 40
0.1875
 40
0.203125
 40
0.2109375
 40
0.21875
 40
0.2265625
 40
0.23046875
 40
0.234375
 40
0.23828125
 40
0.2421875
 40
0.244140625
 40
0.24609375
 40
0.248046875
 40
0.2490234375
 40
0.2495117188
 40
0.25
 40
0.2504882812
 40
0.2509765625
 40
0.251953125
 40
0.25390625
 40
0.255859375
 40
0.2578125
 40
0.26171875
 40
0.265625
 40
0.26953125
 40
0.2734375
 40
0.28125
 40
0.2890625
 40
0.296875
 40
0.3125
 40
0.328125
 40
0.3359375
 40
0.34375
 40
0.3515625
 40
0.35546875
 40
0.359375
 40
0.36328125
 40
0.3671875
 40
0.369140625
 40
0.37109375
 40
0.3720703125
 40
0.373046875
 40
0.3740234375
 40
0.3745117188
 40
0.375
 40
0.3754882812
 40
0.3759765625
 40
0.376953125
 40
0.3779296875
 40
0.37890625
 40
0.380859375
 40
0.3828125
 40
0.38671875
 40
0.390625
 40
0.39453125
 40
0.3984375
 40
0.40625
 40
0.4140625
 40
0.421875
 40
0.4375
 40
0.453125
 40
0.4609375
 40
0.46875
 40
0.4765625
 40
0.48046875
 40
0.484375
 40
0.48828125
 40
0.4921875
 40
0.494140625
 40
0.49609375
 40
0.4970703125
 40
0.498046875
 40
0.4990234375
 40
0.4995117188
 40
0.5
 40
0.5004882812
 40
0.5009765625
 40
0.501953125
 40
0.5029296875
 40
0.50390625
 40
0.505859375
 40
0.5078125
 40
0.51171875
 40
0.515625
 40
0.51953125
 40
0.5234375
 40
0.53125
 40
0.5390625
 40
0.546875
 40
0.5625
 40
0.578125
 40
0.5859375
 40
0.59375
 40
0.6015625
 40
0.60546875
 40
0.609375
 40
0.61328125
 40
0.6171875
 40
0.619140625
 40
0.62109375
 40
0.623046875
 40
0.6240234375
 40
0.6245117188
 40
0.625
 40
0.6254882812
 40
0.6259765625
 40
0.626953125
 40
0.62890625
 40
0.630859375
 40
0.6328125
 40
0.63671875
 40
0.640625
 40
0.64453125
 40
0.6484375
 40
0.65625
 40
0.6640625
 40
0.671875
 40
0.6875
 40
0.703125
 40
0.7109375
 40
0.71875
 40
0.7265625
 40
0.73046875
 40
0.734375
 40
0.73828125
 40
0.7421875
 40
0.744140625
 40
0.74609375
 40
0.748046875
 40
0.7490234375
 40
0.7495117188
 40
0.75
 40
0.7504882812
 40
0.7509765625
 40
0.751953125
 40
0.75390625
 40
0.755859375
 40
0.7578125
 40
0.76171875
 40
0.765625
 40
0.76953125
 40
0.7734375
 40
0.78125
 40
0.7890625
 40
0.796875
 40
0.8125
 40
0.828125
 40
0.8359375
 40
0.84375
 40
0.8515625
 40
0.85546875
 40
0.859375
 40
0.86328125
 40
0.8671875
 40
0.869140625
 40
0.87109375
 40
0.873046875
 40
0.8740234375
 40
0.8745117188
 40
0.875
 40
0.8754882812
 40
0.8759765625
 40
0.876953125
 40
0.87890625
 40
0.880859375
 40
0.8828125
 40
0.88671875
 40
0.890625
 40
0.89453125
 40
0.8984375
 40
0.90625
 40
0.9140625
 40
0.921875
 40
0.9375
 40
0.953125
 40
0.96875
 40
1.0
 40
1.0
 40
1.0
 40
1.0
 10
117.3380652637
 20
33.396443019
 30
0.0
 10
117.38032695
 20
33.3970128693
 30
0.0
 10
117.4437194794
 20
33.3978676447
 30
0.0
 10
117.5282428519
 20
33.3990073454
 30
0.0
 10
117.5916353813
 20
33.3998621207
 30
0.0
 10
117.644462489
 20
33.4005744342
 30
0.0
 10
117.6867241755
 20
33.4011442832
 30
0.0
 10
117.7184204394
 20
33.4015716747
 30
0.0
 10
117.744833996
 20
33.4019278194
 30
0.0
 10
117.7659648336
 20
33.4022127685
 30
0.0
 10
117.7818129828
 20
33.4024263892
 30
0.0
 10
117.7976610518
 20
33.4026403577
 30
0.0
 10
117.8108680258
 20
33.4028175816
 30
0.0
 10
117.8214330456
 20
33.4029617863
 30
0.0
 10
117.8293583387
 20
33.403063313
 30
0.0
 10
117.8359578886
 20
33.4031689974
 30
0.0
 10
117.840587113
 20
33.4032016103
 30
0.0
 10
117.843217489
 20
33.403284836
 30
0.0
 10
117.8452322305
 20
33.4031653049
 30
0.0
 10
117.8470865818
 20
33.4037412802
 30
0.0
 10
117.849614996
 20
33.4042666467
 30
0.0
 10
117.8540136547
 20
33.4052990703
 30
0.0
 10
117.8603110805
 20
33.4067148666
 30
0.0
 10
117.8678621584
 20
33.4084391167
 30
0.0
 10
117.8779322998
 20
33.410729281
 30
0.0
 10
117.8905192774
 20
33.4135950184
 30
0.0
 10
117.9056239503
 20
33.4170326035
 30
0.0
 10
117.9207285429
 20
33.4204705363
 30
0.0
 10
117.9408680278
 20
33.4250543253
 30
0.0
 10
117.9660423743
 20
33.4307841032
 30
0.0
 10
117.9962515942
 20
33.4376598189
 30
0.0
 10
118.0365305527
 20
33.446827446
 30
0.0
 10
118.0868792513
 20
33.4582869775
 30
0.0
 10
118.1372279494
 20
33.4697465106
 30
0.0
 10
118.1775069086
 20
33.4789141353
 30
0.0
 10
118.2077161261
 20
33.4857898583
 30
0.0
 10
118.2328904801
 20
33.4915196132
 30
0.0
 10
118.2530299497
 20
33.4961034491
 30
0.0
 10
118.2681345891
 20
33.4995412386
 30
0.0
 10
118.2832390864
 20
33.5029793617
 30
0.0
 10
118.2958266104
 20
33.5058434252
 30
0.0
 10
118.3058956375
 20
33.5081370031
 30
0.0
 10
118.3134501185
 20
33.5098508288
 30
0.0
 10
118.319736897
 20
33.5112992395
 30
0.0
 10
118.3241545629
 20
33.512273441
 30
0.0
 10
118.3266525228
 20
33.512892094
 30
0.0
 10
118.3286004199
 20
33.5131815232
 30
0.0
 10
118.3302638186
 20
33.5141382113
 30
0.0
 10
118.3325809197
 20
33.515181048
 30
0.0
 10
118.3365896107
 20
33.5171144535
 30
0.0
 10
118.3423404848
 20
33.519819767
 30
0.0
 10
118.349231187
 20
33.5230904104
 30
0.0
 10
118.3584224041
 20
33.5274427914
 30
0.0
 10
118.3699101854
 20
33.5328861764
 30
0.0
 10
118.3836960545
 20
33.5394169915
 30
0.0
 10
118.3974817814
 20
33.5459481402
 30
0.0
 10
118.4158628003
 20
33.554656222
 30
0.0
 10
118.4388390568
 20
33.5655413641
 30
0.0
 10
118.466410572
 20
33.5786035176
 30
0.0
 10
118.5031725897
 20
33.5960197281
 30
0.0
 10
118.5491251126
 20
33.6177899894
 30
0.0
 10
118.5950776353
 20
33.6395602511
 30
0.0
 10
118.6318396533
 20
33.6569764608
 30
0.0
 10
118.6594111675
 20
33.6700386169
 30
0.0
 10
118.6823874272
 20
33.6809237508
 30
0.0
 10
118.7007684396
 20
33.6896318494
 30
0.0
 10
118.7145541863
 20
33.6961629465
 30
0.0
 10
118.7283399811
 20
33.7026939553
 30
0.0
 10
118.7398279937
 20
33.7081367378
 30
0.0
 10
118.749018739
 20
33.7124903474
 30
0.0
 10
118.7547621917
 20
33.715212757
 30
0.0
 10
118.7593587015
 20
33.71738747
 30
0.0
 10
118.7628012987
 20
33.7190273067
 30
0.0
 10
118.765685352
 20
33.7203658371
 30
0.0
 10
118.7679584537
 20
33.7214994607
 30
0.0
 10
118.7697565695
 20
33.7221780808
 30
0.0
 10
118.7711985977
 20
33.7235116917
 30
0.0
 10
118.773245688
 20
33.7250610429
 30
0.0
 10
118.7757618747
 20
33.7270762308
 30
0.0
 10
118.7787995655
 20
33.7294608562
 30
0.0
 10
118.7828434397
 20
33.7326520926
 30
0.0
 10
118.787900467
 20
33.7366371197
 30
0.0
 10
118.7959904897
 20
33.743015409
 30
0.0
 10
118.8061034371
 20
33.7509875
 30
0.0
 10
118.8182387944
 20
33.7605543395
 30
0.0
 10
118.8303741997
 20
33.7701210906
 30
0.0
 10
118.8465547233
 20
33.7828767897
 30
0.0
 10
118.8667803836
 20
33.7988214029
 30
0.0
 10
118.8910511734
 20
33.8179549432
 30
0.0
 10
118.9234122275
 20
33.8434663288
 30
0.0
 10
118.9638635447
 20
33.8753555614
 30
0.0
 10
119.0043148621
 20
33.9072447936
 30
0.0
 10
119.0366759157
 20
33.9327561798
 30
0.0
 10
119.0609467069
 20
33.9518897184
 30
0.0
 10
119.0811723631
 20
33.9678343369
 30
0.0
 10
119.0973528951
 20
33.9805900252
 30
0.0
 10
119.1094882748
 20
33.9901568092
 30
0.0
 10
119.1216237283
 20
33.9997235252
 30
0.0
 10
119.1317363762
 20
34.0076960004
 30
0.0
 10
119.1398270097
 20
34.0140735061
 30
0.0
 10
119.1448824826
 20
34.0180605275
 30
0.0
 10
119.1489295475
 20
34.0212476703
 30
0.0
 10
119.1519574901
 20
34.0236448024
 30
0.0
 10
119.1545041765
 20
34.0256208599
 30
0.0
 10
119.1564890415
 20
34.0272500446
 30
0.0
 10
119.1581211022
 20
34.0283398488
 30
0.0
 10
119.159205757
 20
34.0299338208
 30
0.0
 10
119.1608431795
 20
34.0318830044
 30
0.0
 10
119.1628243524
 20
34.0343799072
 30
0.0
 10
119.1652298409
 20
34.0373503276
 30
0.0
 10
119.1684273509
 20
34.0413199214
 30
0.0
 10
119.1724275966
 20
34.0462788206
 30
0.0
 10
119.1788261128
 20
34.0542147882
 30
0.0
 10
119.1868249021
 20
34.0641341544
 30
0.0
 10
119.1964231731
 20
34.0760376481
 30
0.0
 10
119.2060215181
 20
34.0879410738
 30
0.0
 10
119.2188192855
 20
34.1038123318
 30
0.0
 10
119.2348165036
 20
34.1236513962
 30
0.0
 10
119.2540131616
 20
34.1474582769
 30
0.0
 10
119.2796087069
 20
34.1792007834
 30
0.0
 10
119.3116031382
 20
34.2188789168
 30
0.0
 10
119.3435975691
 20
34.2585570505
 30
0.0
 10
119.3691931151
 20
34.2902995564
 30
0.0
 10
119.3883897708
 20
34.3141064388
 30
0.0
 10
119.4043869962
 20
34.3339454981
 30
0.0
 10
119.4171847488
 20
34.3498167664
 30
0.0
 10
119.4267831388
 20
34.3617201605
 30
0.0
 10
119.4363812407
 20
34.3736237731
 30
0.0
 10
119.4443805565
 20
34.3835427694
 30
0.0
 10
119.4507779991
 20
34.3914794912
 30
0.0
 10
119.4555815725
 20
34.397427867
 30
0.0
 10
119.4595670829
 20
34.4023980966
 30
0.0
 10
119.4623912192
 20
34.4058512552
 30
0.0
 10
119.4639514877
 20
34.4078650888
 30
0.0
 10
119.4652724662
 20
34.4092610929
 30
0.0
 10
119.4660170977
 20
34.4110942811
 30
0.0
 10
119.4672109759
 20
34.4133860373
 30
0.0
 10
119.4692065963
 20
34.4174676607
 30
0.0
 10
119.4721064525
 20
34.4232614055
 30
0.0
 10
119.4755653191
 20
34.4302297989
 30
0.0
 10
119.4801844633
 20
34.4395154361
 30
0.0
 10
119.4859558809
 20
34.4511243885
 30
0.0
 10
119.4928826591
 20
34.4650543144
 30
0.0
 10
119.4998091492
 20
34.4789844588
 30
0.0
 10
119.5090445699
 20
34.4975579084
 30
0.0
 10
119.5205888113
 20
34.5207747465
 30
0.0
 10
119.5344419158
 20
34.5486349411
 30
0.0
 10
119.5529127165
 20
34.5857818711
 30
0.0
 10
119.5760012194
 20
34.6322155322
 30
0.0
 10
119.599089721
 20
34.6786491942
 30
0.0
 10
119.6175605239
 20
34.7157961228
 30
0.0
 10
119.6314136218
 20
34.7436563215
 30
0.0
 10
119.6429578836
 20
34.7668731468
 30
0.0
 10
119.6521932627
 20
34.7854466225
 30
0.0
 10
119.65911988
 20
34.7993766871
 30
0.0
 10
119.6660461806
 20
34.8133069129
 30
0.0
 10
119.671819084
 20
34.8249149319
 30
0.0
 10
119.6764351983
 20
34.8342024726
 30
0.0
 10
119.6799033177
 20
34.8411650532
 30
0.0
 10
119.6827742249
 20
34.8469769845
 30
0.0
 10
119.684821524
 20
34.8510261419
 30
0.0
 10
119.6859326001
 20
34.8533699168
 30
0.0
 10
119.6869315732
 20
34.8550433201
 30
0.0
 10
119.6872972866
 20
34.8570394496
 30
0.0
 10
119.6880057926
 20
34.8595883851
 30
0.0
 10
119.6891427622
 20
34.8641014709
 30
0.0
 10
119.6908208101
 20
34.8705213155
 30
0.0
 10
119.692811437
 20
34.878236866
 30
0.0
 10
119.695473651
 20
34.8885201668
 30
0.0
 10
119.698798658
 20
34.9013756998
 30
0.0
 10
119.7027898498
 20
34.9168017361
 30
0.0
 10
119.706780725
 20
34.9322279339
 30
0.0
 10
119.7121020025
 20
34.9527961412
 30
0.0
 10
119.7187535615
 20
34.9785064196
 30
0.0
 10
119.7267354485
 20
35.0093587455
 30
0.0
 10
119.7373779588
 20
35.0504951829
 30
0.0
 10
119.7506810988
 20
35.1019157285
 30
0.0
 10
119.7639842374
 20
35.1533362748
 30
0.0
 10
119.77462675
 20
35.1944727112
 30
0.0
 10
119.78260863
 20
35.2253250402
 30
0.0
 10
119.7892602109
 20
35.2510353088
 30
0.0
 10
119.7945814436
 20
35.2716035362
 30
0.0
 10
119.7985724557
 20
35.2870296726
 30
0.0
 10
119.8025631335
 20
35.302455939
 30
0.0
 10
119.8058897397
 20
35.3153107563
 30
0.0
 10
119.8085486926
 20
35.3255955165
 30
0.0
 10
119.8105492787
 20
35.3333066105
 30
0.0
 10
119.8121961672
 20
35.339740398
 30
0.0
 10
119.8133887615
 20
35.3442285934
 30
0.0
 10
119.8140081428
 20
35.3468174095
 30
0.0
 10
119.8146476187
 20
35.3486910384
 30
0.0
 10
119.8146183855
 20
35.3508245337
 30
0.0
 10
119.8148126612
 20
35.3535785497
 30
0.0
 10
119.8150439666
 20
35.3584403105
 30
0.0
 10
119.8154312205
 20
35.3653636034
 30
0.0
 10
119.8158716052
 20
35.3736810058
 30
0.0
 10
119.8164672802
 20
35.3847675742
 30
0.0
 10
119.8172089589
 20
35.3986269176
 30
0.0
 10
119.8181002228
 20
35.4152576441
 30
0.0
 10
119.8189911525
 20
35.4318885005
 30
0.0
 10
119.8201791755
 20
35.4540629303
 30
0.0
 10
119.8216641642
 20
35.4817809831
 30
0.0
 10
119.8234461678
 20
35.5150426398
 30
0.0
 10
119.8258221665
 20
35.5593915178
 30
0.0
 10
119.8287921671
 20
35.6148276145
 30
0.0
 10
119.8323561668
 20
35.6813509308
 30
0.0
 10
119.8371081668
 20
35.7700486858
 30
0.0
 10
119.8406721667
 20
35.836572002
 30
0.0
 10
119.8430481666
 20
35.8809208796
 30
0.0
  0
SPLINE
  5
705
100
AcDbEntity
  8
DEFAULT_3
100
AcDbSpline
 62
2
  6
PHANTOM
 70
0
 71
3
 72
197
 73
193
 74
0
 42
0.0000001
 43
0.0000001
 44
0.0000000001
 40
0.0
 40
0.0
 40
0.0
 40
0.0
 40
0.03125
 40
0.046875
 40
0.0625
 40
0.078125
 40
0.0859375
 40
0.09375
 40
0.1015625
 40
0.109375
 40
0.11328125
 40
0.1171875
 40
0.119140625
 40
0.12109375
 40
0.123046875
 40
0.1240234375
 40
0.1245117188
 40
0.125
 40
0.1254882812
 40
0.1259765625
 40
0.126953125
 40
0.12890625
 40
0.130859375
 40
0.1328125
 40
0.13671875
 40
0.140625
 40
0.1484375
 40
0.15625
 40
0.1640625
 40
0.171875
 40
0.1875
 40
0.203125
 40
0.2109375
 40
0.21875
 40
0.2265625
 40
0.234375
 40
0.23828125
 40
0.2421875
 40
0.244140625
 40
0.24609375
 40
0.248046875
 40
0.2490234375
 40
0.2495117188
 40
0.25
 40
0.2504882812
 40
0.2509765625
 40
0.251953125
 40
0.25390625
 40
0.255859375
 40
0.2578125
 40
0.26171875
 40
0.265625
 40
0.2734375
 40
0.28125
 40
0.2890625
 40
0.296875
 40
0.3125
 40
0.328125
 40
0.3359375
 40
0.34375
 40
0.3515625
 40
0.359375
 40
0.36328125
 40
0.3671875
 40
0.369140625
 40
0.37109375
 40
0.373046875
 40
0.3740234375
 40
0.3745117188
 40
0.375
 40
0.3754882812
 40
0.3759765625
 40
0.376953125
 40
0.37890625
 40
0.380859375
 40
0.3828125
 40
0.38671875
 40
0.390625
 40
0.3984375
 40
0.40625
 40
0.4140625
 40
0.421875
 40
0.4375
 40
0.453125
 40
0.4609375
 40
0.46875
 40
0.4765625
 40
0.484375
 40
0.48828125
 40
0.4921875
 40
0.494140625
 40
0.49609375
 40
0.498046875
 40
0.4990234375
 40
0.4995117188
 40
0.5
 40
0.5004882812
 40
0.5009765625
 40
0.501953125
 40
0.50390625
 40
0.505859375
 40
0.5078125
 40
0.51171875
 40
0.515625
 40
0.5234375
 40
0.53125
 40
0.5390625
 40
0.546875
 40
0.5625
 40
0.578125
 40
0.5859375
 40
0.59375
 40
0.6015625
 40
0.609375
 40
0.61328125
 40
0.6171875
 40
0.619140625
 40
0.62109375
 40
0.623046875
 40
0.6240234375
 40
0.6245117188
 40
0.625
 40
0.6254882812
 40
0.6259765625
 40
0.626953125
 40
0.62890625
 40
0.630859375
 40
0.6328125
 40
0.63671875
 40
0.640625
 40
0.6484375
 40
0.65625
 40
0.6640625
 40
0.671875
 40
0.6875
 40
0.703125
 40
0.7109375
 40
0.71875
 40
0.7265625
 40
0.734375
 40
0.73828125
 40
0.7421875
 40
0.744140625
 40
0.74609375
 40
0.748046875
 40
0.7490234375
 40
0.7495117188
 40
0.75
 40
0.7504882812
 40
0.7509765625
 40
0.751953125
 40
0.75390625
 40
0.755859375
 40
0.7578125
 40
0.76171875
 40
0.765625
 40
0.7734375
 40
0.78125
 40
0.7890625
 40
0.796875
 40
0.8125
 40
0.828125
 40
0.8359375
 40
0.84375
 40
0.8515625
 40
0.85546875
 40
0.859375
 40
0.86328125
 40
0.8671875
 40
0.869140625
 40
0.87109375
 40
0.873046875
 40
0.8740234375
 40
0.8745117188
 40
0.875
 40
0.8754882812
 40
0.8759765625
 40
0.876953125
 40
0.87890625
 40
0.880859375
 40
0.8828125
 40
0.88671875
 40
0.890625
 40
0.89453125
 40
0.8984375
 40
0.90625
 40
0.9140625
 40
0.921875
 40
0.9375
 40
0.953125
 40
0.96875
 40
1.0
 40
1.0
 40
1.0
 40
1.0
 10
55.7990127607
 20
41.5235100091
 30
0.0
 10
55.80507688
 20
41.479189176
 30
0.0
 10
55.814173059
 20
41.4127079263
 30
0.0
 10
55.8263012975
 20
41.3240662599
 30
0.0
 10
55.8353974771
 20
41.2575850103
 30
0.0
 10
55.8429776242
 20
41.2021839686
 30
0.0
 10
55.8490417478
 20
41.1578631359
 30
0.0
 10
55.8535898241
 20
41.1246225095
 30
0.0
 10
55.8581379631
 20
41.0913818905
 30
0.0
 10
55.8619278838
 20
41.0636813516
 30
0.0
 10
55.8649602572
 20
41.0415209721
 30
0.0
 10
55.8668544959
 20
41.0276706175
 30
0.0
 10
55.8683721649
 20
41.0165906026
 30
0.0
 10
55.8695041795
 20
41.0082798556
 30
0.0
 10
55.8704673664
 20
41.0013565738
 30
0.0
 10
55.8711026589
 20
40.9965056829
 30
0.0
 10
55.8715264822
 20
40.9937409179
 30
0.0
 10
55.8716730779
 20
40.9916471388
 30
0.0
 10
55.8724743613
 20
40.9896305945
 30
0.0
 10
55.8733143767
 20
40.9869149284
 30
0.0
 10
55.874890802
 20
40.9821750648
 30
0.0
 10
55.8770872118
 20
40.9753972687
 30
0.0
 10
55.8797467135
 20
40.9672667222
 30
0.0
 10
55.8832843994
 20
40.9564250125
 30
0.0
 10
55.8877093543
 20
40.9428732113
 30
0.0
 10
55.8947876907
 20
40.9211901417
 30
0.0
 10
55.9036361573
 20
40.894086369
 30
0.0
 10
55.914254083
 20
40.8615618143
 30
0.0
 10
55.9248720715
 20
40.8290372669
 30
0.0
 10
55.9390293674
 20
40.7856712011
 30
0.0
 10
55.9567259955
 20
40.7314636199
 30
0.0
 10
55.9744226183
 20
40.6772560376
 30
0.0
 10
55.9885799227
 20
40.6338899737
 30
0.0
 10
55.9991978857
 20
40.6013654205
 30
0.0
 10
56.0098159071
 20
40.5688408875
 30
0.0
 10
56.0186640762
 20
40.5417370471
 30
0.0
 10
56.0257430192
 20
40.5200541156
 30
0.0
 10
56.0301664302
 20
40.506501963
 30
0.0
 10
56.0337072852
 20
40.4956609746
 30
0.0
 10
56.0363571049
 20
40.4875282245
 30
0.0
 10
56.0385838074
 20
40.4807573231
 30
0.0
 10
56.0401061552
 20
40.4760051512
 30
0.0
 10
56.0410328163
 20
40.473309206
 30
0.0
 10
56.0415679521
 20
40.4712320856
 30
0.0
 10
56.0427141538
 20
40.4693658202
 30
0.0
 10
56.0440292762
 20
40.4668039178
 30
0.0
 10
56.0464300493
 20
40.4623548562
 30
0.0
 10
56.0498078053
 20
40.4559811385
 30
0.0
 10
56.0538833359
 20
40.4483403456
 30
0.0
 10
56.0593096145
 20
40.4381499433
 30
0.0
 10
56.0660951205
 20
40.4254128575
 30
0.0
 10
56.0769504447
 20
40.4050330078
 30
0.0
 10
56.0905201097
 20
40.3795583714
 30
0.0
 10
56.1068034891
 20
40.3489887324
 30
0.0
 10
56.123086927
 20
40.3184191136
 30
0.0
 10
56.1447981571
 20
40.2776596147
 30
0.0
 10
56.1719372023
 20
40.2267102439
 30
0.0
 10
56.1990762425
 20
40.175760871
 30
0.0
 10
56.2207874806
 20
40.1350013755
 30
0.0
 10
56.2370708944
 20
40.1044317466
 30
0.0
 10
56.2533543645
 20
40.0738621453
 30
0.0
 10
56.2669237473
 20
40.0483873918
 30
0.0
 10
56.277779647
 20
40.0280077808
 30
0.0
 10
56.2845636884
 20
40.0152700874
 30
0.0
 10
56.2899929733
 20
40.0050809325
 30
0.0
 10
56.2940593191
 20
39.9974363288
 30
0.0
 10
56.2974658121
 20
39.9910745341
 30
0.0
 10
56.2998152849
 20
39.9866041878
 30
0.0
 10
56.3012126033
 20
39.9840763889
 30
0.0
 10
56.3021063251
 20
39.9821053683
 30
0.0
 10
56.3035897337
 20
39.9804216914
 30
0.0
 10
56.3053619226
 20
39.9780765601
 30
0.0
 10
56.3085590875
 20
39.9740192788
 30
0.0
 10
56.3130763626
 20
39.9681987482
 30
0.0
 10
56.3185185386
 20
39.9612245616
 30
0.0
 10
56.3257672827
 20
39.9519219961
 30
0.0
 10
56.3348307775
 20
39.9402950391
 30
0.0
 10
56.3493309359
 20
39.9216912093
 30
0.0
 10
56.3674566256
 20
39.8984366617
 30
0.0
 10
56.3892072425
 20
39.8705311019
 30
0.0
 10
56.4109579158
 20
39.8426255695
 30
0.0
 10
56.4399587938
 20
39.8054181834
 30
0.0
 10
56.4762098984
 20
39.7589089547
 30
0.0
 10
56.5124609989
 20
39.7123997225
 30
0.0
 10
56.5414618836
 20
39.6751923418
 30
0.0
 10
56.5632125366
 20
39.6472867934
 30
0.0
 10
56.5849632296
 20
39.6193812936
 30
0.0
 10
56.6030886825
 20
39.5961265593
 30
0.0
 10
56.6175893239
 20
39.5775231104
 30
0.0
 10
56.6266515893
 20
39.5658951841
 30
0.0
 10
56.633902857
 20
39.5565946081
 30
0.0
 10
56.639337323
 20
39.5496143434
 30
0.0
 10
56.643878721
 20
39.5438128298
 30
0.0
 10
56.6470328225
 20
39.5397215999
 30
0.0
 10
56.6488740098
 20
39.5374308627
 30
0.0
 10
56.6501454771
 20
39.5355801048
 30
0.0
 10
56.6518352155
 20
39.5342366127
 30
0.0
 10
56.6539423023
 20
39.5322683499
 30
0.0
 10
56.6576976806
 20
39.5289063296
 30
0.0
 10
56.663026968
 20
39.5240603431
 30
0.0
 10
56.6694373246
 20
39.5182636076
 30
0.0
 10
56.6779791536
 20
39.5105281834
 30
0.0
 10
56.688658259
 20
39.5008611095
 30
0.0
 10
56.7057438109
 20
39.485392558
 30
0.0
 10
56.7271010998
 20
39.4660572918
 30
0.0
 10
56.7527296968
 20
39.442854791
 30
0.0
 10
56.7783583338
 20
39.4196523387
 30
0.0
 10
56.8125298359
 20
39.3887157187
 30
0.0
 10
56.8552442186
 20
39.35004495
 30
0.0
 10
56.8979585981
 20
39.3113741769
 30
0.0
 10
56.9321301053
 20
39.2804375639
 30
0.0
 10
56.9577587269
 20
39.2572350904
 30
0.0
 10
56.9833873819
 20
39.2340326692
 30
0.0
 10
57.0047444903
 20
39.2146971554
 30
0.0
 10
57.0218304102
 20
39.1992291089
 30
0.0
 10
57.0325085791
 20
39.1895607498
 30
0.0
 10
57.0410523305
 20
39.1818279636
 30
0.0
 10
57.0474568141
 20
39.1760231684
 30
0.0
 10
57.0528044766
 20
39.171202399
 30
0.0
 10
57.0565270522
 20
39.167795362
 30
0.0
 10
57.0586866973
 20
39.1658992273
 30
0.0
 10
57.0602149934
 20
39.1643341808
 30
0.0
 10
57.0620928107
 20
39.1633155446
 30
0.0
 10
57.0644746501
 20
39.161766769
 30
0.0
 10
57.0686996725
 20
39.1591452129
 30
0.0
 10
57.0747057213
 20
39.1553537065
 30
0.0
 10
57.0819256914
 20
39.1508237708
 30
0.0
 10
57.0915478782
 20
39.1447769156
 30
0.0
 10
57.1035771321
 20
39.1372207232
 30
0.0
 10
57.1228230885
 20
39.1251294871
 30
0.0
 10
57.1468808256
 20
39.1100158978
 30
0.0
 10
57.1757499851
 20
39.0918793952
 30
0.0
 10
57.2046191781
 20
39.0737429449
 30
0.0
 10
57.2431114237
 20
39.0495609928
 30
0.0
 10
57.2912267349
 20
39.0193335597
 30
0.0
 10
57.3393420437
 20
38.9891061217
 30
0.0
 10
57.3778342932
 20
38.9649241774
 30
0.0
 10
57.4067034745
 20
38.9467877036
 30
0.0
 10
57.4355726779
 20
38.9286512892
 30
0.0
 10
57.4596302786
 20
38.9135374255
 30
0.0
 10
57.4788765132
 20
38.9014467489
 30
0.0
 10
57.490905059
 20
38.8938891327
 30
0.0
 10
57.5005286991
 20
38.8878452002
 30
0.0
 10
57.5077442293
 20
38.8833063353
 30
0.0
 10
57.5137641695
 20
38.879542766
 30
0.0
 10
57.5179643934
 20
38.8768713375
 30
0.0
 10
57.5203859662
 20
38.8754024701
 30
0.0
 10
57.5221417356
 20
38.8741383816
 30
0.0
 10
57.5241284231
 20
38.8734952133
 30
0.0
 10
57.5266967929
 20
38.8724210716
 30
0.0
 10
57.5312289685
 20
38.8706422342
 30
0.0
 10
57.5376838847
 20
38.8680482807
 30
0.0
 10
57.5454381823
 20
38.8649581182
 30
0.0
 10
57.5557743124
 20
38.8608300143
 30
0.0
 10
57.5686954795
 20
38.855672585
 30
0.0
 10
57.5893687854
 20
38.8474191888
 30
0.0
 10
57.6152106105
 20
38.8371029615
 30
0.0
 10
57.646220718
 20
38.8247232666
 30
0.0
 10
57.6772308475
 20
38.8123436312
 30
0.0
 10
57.7185776792
 20
38.7958374298
 30
0.0
 10
57.7702612215
 20
38.7752046851
 30
0.0
 10
57.821944763
 20
38.7545719385
 30
0.0
 10
57.8632915959
 20
38.7380657402
 30
0.0
 10
57.8943017218
 20
38.7256860958
 30
0.0
 10
57.9201434897
 20
38.7153697113
 30
0.0
 10
57.9408169121
 20
38.7071166356
 30
0.0
 10
57.9563219571
 20
38.7009267416
 30
0.0
 10
57.9718270848
 20
38.6947371806
 30
0.0
 10
57.9847477673
 20
38.6895781756
 30
0.0
 10
57.9950848895
 20
38.6854532951
 30
0.0
 10
58.0028361567
 20
38.6823532869
 30
0.0
 10
58.0093005539
 20
38.6797901381
 30
0.0
 10
58.0138158044
 20
38.6779563091
 30
0.0
 10
58.0164112924
 20
38.6769702778
 30
0.0
 10
58.0183146816
 20
38.6760564627
 30
0.0
 10
58.0203833057
 20
38.6758088785
 30
0.0
 10
58.0230838354
 20
38.6752463775
 30
0.0
 10
58.027836616
 20
38.6743702749
 30
0.0
 10
58.0346122631
 20
38.6730620927
 30
0.0
 10
58.042749049
 20
38.6715165039
 30
0.0
 10
58.0535959977
 20
38.669447255
 30
0.0
 10
58.067155404
 20
38.6668635981
 30
0.0
 10
58.0834263826
 20
38.6637619649
 30
0.0
 10
58.0996974439
 20
38.6606606648
 30
0.0
 10
58.1213921635
 20
38.6565254816
 30
0.0
 10
58.1485105728
 20
38.6513565425
 30
0.0
 10
58.1810526597
 20
38.6451537985
 30
0.0
 10
58.2244421104
 20
38.6368834792
 30
0.0
 10
58.2786789233
 20
38.6265455779
 30
0.0
 10
58.343763099
 20
38.6141400973
 30
0.0
 10
58.4305419998
 20
38.5975994562
 30
0.0
 10
58.4956261755
 20
38.5851939755
 30
0.0
 10
58.5390156259
 20
38.576923655
 30
0.0
  0
SPLINE
  5
706
100
AcDbEntity
  8
0
100
AcDbSpline
 62
7
  6
CONTINUOUS
 70
0
 71
3
 72
11
 73
7
 74
0
 42
0.0000001
 43
0.0000001
 44
0.0000000001
 40
0.0
 40
0.0
 40
0.0
 40
0.0
 40
0.2599572465
 40
0.5121431355
 40
0.7578966357
 40
1.0
 40
1.0
 40
1.0
 40
1.0
 10
125.236637939
 20
28.8283763849
 30
0.0
 10
125.238472676
 20
28.7859775215
 30
0.0
 10
125.2331252716
 20
28.7017213297
 30
0.0
 10
125.1968841276
 20
28.5822253702
 30
0.0
 10
125.1342174813
 20
28.4774996708
 30
0.0
 10
125.0765378151
 20
28.4210641443
 30
0.0
 10
125.0449387473
 20
28.3973231578
 30
0.0
  0
SPLINE
  5
707
100
AcDbEntity
  8
0
100
AcDbSpline
 62
7
  6
CONTINUOUS
 70
0
 71
3
 72
15
 73
11
 74
0
 42
0.0000001
 43
0.0000001
 44
0.0000000001
 40
0.0
 40
0.0
 40
0.0
 40
0.0
 40
0.1197508038
 40
0.2425863132
 40
0.3680280507
 40
0.4952407065
 40
0.6231575232
 40
0.7506221548
 40
0.8765357514
 40
1.0
 40
1.0
 40
1.0
 40
1.0
 10
123.7209528307
 20
51.1443821479
 30
0.0
 10
123.7575131227
 20
51.1411610093
 30
0.0
 10
123.8310861232
 20
51.1270469583
 30
0.0
 10
123.9364007188
 20
51.0849713784
 30
0.0
 10
124.0343480048
 20
51.0233868498
 30
0.0
 10
124.1212067224
 20
50.9446715186
 30
0.0
 10
124.1937434465
 20
50.8518143679
 30
0.0
 10
124.249226984
 20
50.7482977507
 30
0.0
 10
124.2855459669
 20
50.6380614063
 30
0.0
 10
124.2961595845
 20
50.5618528357
 30
0.0
 10
124.2977955151
 20
50.5240481807
 30
0.0
  0
SPLINE
  5
708
100
AcDbEntity
  8
0
100
AcDbSpline
 62
7
  6
CONTINUOUS
 70
0
 71
3
 72
11
 73
7
 74
0
 42
0.0000001
 43
0.0000001
 44
0.0000000001
 40
0.0
 40
0.0
 40
0.0
 40
0.0
 40
0.2452677924
 40
0.4925855525
 40
0.7437327096
 40
1.0
 40
1.0
 40
1.0
 40
1.0
 10
124.6945372363
 20
28.1340600903
 30
0.0
 10
124.6712996455
 20
28.116601242
 30
0.0
 10
124.6211438759
 20
28.0859296383
 30
0.0
 10
124.5381636877
 20
28.0547809912
 30
0.0
 10
124.4496106349
 20
28.0391729376
 30
0.0
 10
124.3891233028
 20
28.0394000509
 30
0.0
 10
124.3588716052
 20
28.0420653718
 30
0.0
  0
SPLINE
  5
709
100
AcDbEntity
  8
0
100
AcDbSpline
 62
7
  6
CONTINUOUS
 70
0
 71
3
 72
11
 73
7
 74
0
 42
0.0000001
 43
0.0000001
 44
0.0000000001
 40
0.0
 40
0.0
 40
0.0
 40
0.0
 40
0.2452677924
 40
0.4925855525
 40
0.7437327096
 40
1.0
 40
1.0
 40
1.0
 40
1.0
 10
51.0044851101
 20
57.4294861401
 30
0.0
 10
51.0277227009
 20
57.4469449884
 30
0.0
 10
51.0778784705
 20
57.4776165921
 30
0.0
 10
51.1608586587
 20
57.5087652392
 30
0.0
 10
51.2494117115
 20
57.5243732928
 30
0.0
 10
51.3098990436
 20
57.5241461795
 30
0.0
 10
51.3401507411
 20
57.5214808586
 30
0.0
  0
SPLINE
  5
70A
100
AcDbEntity
  8
0
100
AcDbSpline
 62
7
  6
CONTINUOUS
 70
0
 71
3
 72
11
 73
7
 74
0
 42
0.0000001
 43
0.0000001
 44
0.0000000001
 40
0.0
 40
0.0
 40
0.0
 40
0.0
 40
0.2454154689
 40
0.4933907651
 40
0.7447279306
 40
1.0
 40
1.0
 40
1.0
 40
1.0
 10
53.7703343422
 20
57.3075988702
 30
0.0
 10
53.9039138939
 20
57.3712821221
 30
0.0
 10
54.1817948178
 20
57.4806560956
 30
0.0
 10
54.6194993314
 20
57.5867747039
 30
0.0
 10
55.0733106636
 20
57.634245707
 30
0.0
 10
55.3796651241
 20
57.6263918175
 30
0.0
 10
55.5329978817
 20
57.61288246
 30
0.0
  0
SPLINE
  5
70B
100
AcDbEntity
  8
0
100
AcDbSpline
 62
7
  6
CONTINUOUS
 70
0
 71
3
 72
9
 73
5
 74
0
 42
0.0000001
 43
0.0000001
 44
0.0000000001
 40
0.0
 40
0.0
 40
0.0
 40
0.0
 40
0.4948414899
 40
1.0
 40
1.0
 40
1.0
 40
1.0
 10
53.4292990479
 20
53.5834427078
 30
0.0
 10
53.4104068783
 20
53.5132011449
 30
0.0
 10
53.3836272299
 20
53.3679759614
 30
0.0
 10
53.3793057148
 20
53.2204357347
 30
0.0
 10
53.3825159381
 20
53.1462508141
 30
0.0
  0
SPLINE
  5
70C
100
AcDbEntity
  8
0
100
AcDbSpline
 62
7
  6
CONTINUOUS
 70
0
 71
3
 72
9
 73
5
 74
0
 42
0.0000001
 43
0.0000001
 44
0.0000000001
 40
0.0
 40
0.0
 40
0.0
 40
0.0
 40
0.4948413668
 40
1.0
 40
1.0
 40
1.0
 40
1.0
 10
122.4224669878
 20
31.651278091
 30
0.0
 10
122.4483626808
 20
31.7475607935
 30
0.0
 10
122.4850706191
 20
31.946626036
 30
0.0
 10
122.4909939463
 20
32.1488646873
 30
0.0
 10
122.4865935784
 20
32.2505526131
 30
0.0
  0
SPLINE
  5
70D
100
AcDbEntity
  8
0
100
AcDbSpline
 62
7
  6
CONTINUOUS
 70
0
 71
3
 72
9
 73
5
 74
0
 42
0.0000001
 43
0.0000001
 44
0.0000000001
 40
0.0
 40
0.0
 40
0.0
 40
0.0
 40
0.5048347139
 40
1.0
 40
1.0
 40
1.0
 40
1.0
 10
125.2206150132
 20
32.7646189494
 30
0.0
 10
125.2286383872
 20
32.5792071223
 30
0.0
 10
125.2194681743
 20
32.2103621736
 30
0.0
 10
125.1577267296
 20
31.8464596226
 30
0.0
 10
125.1139159311
 20
31.6697797071
 30
0.0
  0
SPLINE
  5
70E
100
AcDbEntity
  8
0
100
AcDbSpline
 62
7
  6
CONTINUOUS
 70
0
 71
3
 72
11
 73
7
 74
0
 42
0.0000001
 43
0.0000001
 44
0.0000000001
 40
0.0
 40
0.0
 40
0.0
 40
0.0
 40
0.2441672632
 40
0.4923855765
 40
0.7444654866
 40
1.0
 40
1.0
 40
1.0
 40
1.0
 10
120.6260304246
 20
51.8778714912
 30
0.0
 10
120.7819173876
 20
51.8641370959
 30
0.0
 10
121.0948374438
 20
51.816472684
 30
0.0
 10
121.5553972722
 20
51.6876836841
 30
0.0
 10
122.0043871259
 20
51.5030321865
 30
0.0
 10
122.2899219636
 20
51.3454181341
 30
0.0
 10
122.4287083575
 20
51.2584640751
 30
0.0
  0
SPLINE
  5
70F
100
AcDbEntity
  8
0
100
AcDbSpline
 62
7
  6
CONTINUOUS
 70
0
 71
3
 72
9
 73
5
 74
0
 42
0.0000001
 43
0.0000001
 44
0.0000000001
 40
0.0
 40
0.0
 40
0.0
 40
0.0
 40
0.5038989563
 40
1.0
 40
1.0
 40
1.0
 40
1.0
 10
124.374570059
 20
48.7513004869
 30
0.0
 10
124.4331719296
 20
48.5684016252
 30
0.0
 10
124.5262339253
 20
48.1975364883
 30
0.0
 10
124.569228112
 20
47.8174926365
 30
0.0
 10
124.5774028123
 20
47.6285838161
 30
0.0
  0
SPLINE
  5
710
100
AcDbEntity
  8
0
100
AcDbSpline
 62
7
  6
CONTINUOUS
 70
0
 71
3
 72
15
 73
11
 74
0
 42
0.0000001
 43
0.0000001
 44
0.0000000001
 40
0.0
 40
0.0
 40
0.0
 40
0.0
 40
0.1235201854
 40
0.2494653111
 40
0.3769379816
 40
0.5048437863
 40
0.6320337176
 40
0.7574492921
 40
0.8802624751
 40
1.0
 40
1.0
 40
1.0
 40
1.0
 10
121.8429377612
 20
47.1242470974
 30
0.0
 10
121.8365666076
 20
47.2572163476
 30
0.0
 10
121.7981051271
 20
47.5251174602
 30
0.0
 10
121.6690039794
 20
47.9123883072
 30
0.0
 10
121.4728378248
 20
48.2758443056
 30
0.0
 10
121.2170222975
 20
48.6017344185
 30
0.0
 10
120.911132775
 20
48.877910767
 30
0.0
 10
120.5664868678
 20
49.0939465745
 30
0.0
 10
120.1961016815
 20
49.2415514441
 30
0.0
 10
119.9374219081
 20
49.2910908993
 30
0.0
 10
119.8088747655
 20
49.3024165243
 30
0.0
  0
SPLINE
  5
711
100
AcDbEntity
  8
0
100
AcDbSpline
 62
7
  6
CONTINUOUS
 70
0
 71
3
 72
15
 73
11
 74
0
 42
0.0000001
 43
0.0000001
 44
0.0000000001
 40
0.0
 40
0.0
 40
0.0
 40
0.0
 40
0.1234644016
 40
0.2493778484
 40
0.3768424764
 40
0.5047592921
 40
0.6319719514
 40
0.7574136818
 40
0.880249049
 40
1.0
 40
1.0
 40
1.0
 40
1.0
 10
54.0257281389
 20
38.2822859475
 30
0.0
 10
54.0299374435
 20
38.1850132965
 30
0.0
 10
54.0572462939
 20
37.988926249
 30
0.0
 10
54.1506966774
 20
37.705284958
 30
0.0
 10
54.2934570336
 20
37.4389334286
 30
0.0
 10
54.4800966202
 20
37.2000094493
 30
0.0
 10
54.7035864199
 20
36.9974721392
 30
0.0
 10
54.9556079298
 20
36.8390137413
 30
0.0
 10
55.2265853742
 20
36.7307514597
 30
0.0
 10
55.4158910395
 20
36.6944358901
 30
0.0
 10
55.5099619013
 20
36.6861477922
 30
0.0
  0
SPLINE
  5
712
100
AcDbEntity
  8
0
100
AcDbSpline
 62
7
  6
CONTINUOUS
 70
0
 71
3
 72
15
 73
11
 74
0
 42
0.0000001
 43
0.0000001
 44
0.0000000001
 40
0.0
 40
0.0
 40
0.0
 40
0.0
 40
0.1197508038
 40
0.2425863132
 40
0.3680280507
 40
0.4952407065
 40
0.6231575232
 40
0.7506221548
 40
0.8765357514
 40
1.0
 40
1.0
 40
1.0
 40
1.0
 10
51.9780695156
 20
34.4191640826
 30
0.0
 10
51.9415092237
 20
34.4223852211
 30
0.0
 10
51.8679362232
 20
34.4364992721
 30
0.0
 10
51.7626216276
 20
34.478574852
 30
0.0
 10
51.6646743415
 20
34.5401593806
 30
0.0
 10
51.577815624
 20
34.6188747119
 30
0.0
 10
51.5052788998
 20
34.7117318625
 30
0.0
 10
51.4497953624
 20
34.8152484797
 30
0.0
 10
51.4134763795
 20
34.9254848241
 30
0.0
 10
51.4028627619
 20
35.0016933947
 30
0.0
 10
51.4012268313
 20
35.0394980497
 30
0.0
  0
SPLINE
  5
713
100
AcDbEntity
  8
0
100
AcDbSpline
 62
7
  6
CONTINUOUS
 70
0
 71
3
 72
11
 73
7
 74
0
 42
0.0000001
 43
0.0000001
 44
0.0000000001
 40
0.0
 40
0.0
 40
0.0
 40
0.0
 40
0.2599572465
 40
0.5121431355
 40
0.7578966357
 40
1.0
 40
1.0
 40
1.0
 40
1.0
 10
50.4623844074
 20
56.7351698455
 30
0.0
 10
50.4605496704
 20
56.7775687089
 30
0.0
 10
50.4658970748
 20
56.8618249007
 30
0.0
 10
50.5021382188
 20
56.9813208602
 30
0.0
 10
50.564804865
 20
57.0860465597
 30
0.0
 10
50.6224845313
 20
57.1424820861
 30
0.0
 10
50.6540835991
 20
57.1662230727
 30
0.0
  0
SPLINE
  5
714
100
AcDbEntity
  8
0
100
AcDbSpline
 62
7
  6
CONTINUOUS
 70
0
 71
3
 72
11
 73
7
 74
0
 42
0.0000001
 43
0.0000001
 44
0.0000000001
 40
0.0
 40
0.0
 40
0.0
 40
0.0
 40
0.2452677924
 40
0.4925855525
 40
0.7437327096
 40
1.0
 40
1.0
 40
1.0
 40
1.0
 10
50.6540835991
 20
57.1662230727
 30
0.0
 10
50.6773211899
 20
57.183681921
 30
0.0
 10
50.7274769595
 20
57.2143535247
 30
0.0
 10
50.8104571477
 20
57.2455021718
 30
0.0
 10
50.8990102005
 20
57.2611102253
 30
0.0
 10
50.9594975326
 20
57.260883112
 30
0.0
 10
50.9897492301
 20
57.2582177912
 30
0.0
  0
SPLINE
  5
715
100
AcDbEntity
  8
0
100
AcDbSpline
 62
7
  6
CONTINUOUS
 70
0
 71
3
 72
15
 73
11
 74
0
 42
0.0000001
 43
0.0000001
 44
0.0000000001
 40
0.0
 40
0.0
 40
0.0
 40
0.0
 40
0.125997179
 40
0.2494683471
 40
0.3714270119
 40
0.4931381104
 40
0.6159085855
 40
0.740867379
 40
0.868789753
 40
1.0
 40
1.0
 40
1.0
 40
1.0
 10
54.5869493766
 20
55.0443652683
 30
0.0
 10
54.4671415498
 20
55.0466857481
 30
0.0
 10
54.2287200177
 20
55.0282074936
 30
0.0
 10
53.8871452527
 20
54.9288325233
 30
0.0
 10
53.5776361243
 20
54.7613925248
 30
0.0
 10
53.311785417
 20
54.531874306
 30
0.0
 10
53.099257238
 20
54.2487735567
 30
0.0
 10
52.9475687045
 20
53.9225303845
 30
0.0
 10
52.8617875806
 20
53.5651685962
 30
0.0
 10
52.8504475805
 20
53.3173248282
 30
0.0
 10
52.8558425243
 20
53.192653289
 30
0.0
  0
SPLINE
  5
716
100
AcDbEntity
  8
0
100
AcDbSpline
 62
7
  6
CONTINUOUS
 70
0
 71
3
 72
15
 73
11
 74
0
 42
0.0000001
 43
0.0000001
 44
0.0000000001
 40
0.0
 40
0.0
 40
0.0
 40
0.0
 40
0.1259972022
 40
0.2494683787
 40
0.3714270443
 40
0.4931381394
 40
0.6159086069
 40
0.7408673937
 40
0.8687897546
 40
1.0
 40
1.0
 40
1.0
 40
1.0
 10
120.6970239924
 20
30.9460755361
 30
0.0
 10
120.7844274874
 20
30.9443825221
 30
0.0
 10
120.9583633454
 20
30.957862858
 30
0.0
 10
121.2075526871
 20
31.030359697
 30
0.0
 10
121.4333492456
 20
31.1525120334
 30
0.0
 10
121.6272955756
 20
31.3199524989
 30
0.0
 10
121.7823415356
 20
31.5264830604
 30
0.0
 10
121.8930029627
 20
31.7644874356
 30
0.0
 10
121.955583093
 20
32.0251937557
 30
0.0
 10
121.9638559414
 20
32.20600338
 30
0.0
 10
121.9599201646
 20
32.2969550879
 30
0.0
  0
SPLINE
  5
717
100
AcDbEntity
  8
0
100
AcDbSpline
 62
7
  6
CONTINUOUS
 70
0
 71
3
 72
15
 73
11
 74
0
 42
0.0000001
 43
0.0000001
 44
0.0000000001
 40
0.0
 40
0.0
 40
0.0
 40
0.0
 40
0.1284142424
 40
0.2543673565
 40
0.3784242326
 40
0.5013673267
 40
0.6241115848
 40
0.7475959902
 40
0.8726706417
 40
1.0
 40
1.0
 40
1.0
 40
1.0
 10
120.6265938801
 20
30.4057784091
 30
0.0
 10
120.72804029
 20
30.3968404897
 30
0.0
 10
120.9308430817
 20
30.3952422313
 30
0.0
 10
121.2284744078
 20
30.4435875929
 30
0.0
 10
121.5091938529
 20
30.5416175031
 30
0.0
 10
121.7657017383
 20
30.6869666559
 30
0.0
 10
121.9914118089
 20
30.8759506774
 30
0.0
 10
122.1805435371
 20
31.1037226897
 30
0.0
 10
122.3283149094
 20
31.3642903509
 30
0.0
 10
122.3962402175
 20
31.5537644105
 30
0.0
 10
122.4224669878
 20
31.651278091
 30
0.0
  0
SPLINE
  5
718
100
AcDbEntity
  8
0
100
AcDbSpline
 62
9
  6
CONTINUOUS
 70
0
 71
3
 72
18
 73
14
 74
0
 42
0.0000001
 43
0.0000001
 44
0.0000000001
 40
0.0
 40
0.0
 40
0.0
 40
0.0
 40
0.0312285026
 40
0.0667813204
 40
0.1089228101
 40
0.1585412291
 40
0.2156089726
 40
0.2795170129
 40
0.4235132841
 40
0.5799670905
 40
0.7362684368
 40
0.8798290103
 40
1.0
 40
1.0
 40
1.0
 40
1.0
 10
54.7215636143
 20
55.0369522274
 30
0.0
 10
54.727605033
 20
55.0360513944
 30
0.0
 10
54.7401780295
 20
55.0312866193
 30
0.0
 10
54.75651316
 20
55.0171666327
 30
0.0
 10
54.7709909224
 20
54.9966990007
 30
0.0
 10
54.7835169627
 20
54.9703079975
 30
0.0
 10
54.793907868
 20
54.9385264963
 30
0.0
 10
54.8050369147
 20
54.8878410576
 30
0.0
 10
54.8115620047
 20
54.8165958861
 30
0.0
 10
54.8087284071
 20
54.7271242481
 30
0.0
 10
54.7956448844
 20
54.6385964698
 30
0.0
 10
54.7736053659
 20
54.5592667112
 30
0.0
 10
54.7520499624
 20
54.5119064524
 30
0.0
 10
54.7394416585
 20
54.4920690786
 30
0.0
  0
SPLINE
  5
719
100
AcDbEntity
  8
0
100
AcDbSpline
 62
7
  6
CONTINUOUS
 70
0
 71
3
 72
15
 73
11
 74
0
 42
0.0000001
 43
0.0000001
 44
0.0000000001
 40
0.0
 40
0.0
 40
0.0
 40
0.0
 40
0.123464395
 40
0.2493778478
 40
0.3768424767
 40
0.5047592922
 40
0.631971951
 40
0.7574136825
 40
0.8802490555
 40
1.0
 40
1.0
 40
1.0
 40
1.0
 10
53.4990547251
 20
38.3286884223
 30
0.0
 10
53.5048246098
 20
38.1953523895
 30
0.0
 10
53.5422580781
 20
37.9265669685
 30
0.0
 10
53.6703547627
 20
37.5377669681
 30
0.0
 10
53.8660428809
 20
37.1726668337
 30
0.0
 10
54.1218782172
 20
36.8451628683
 30
0.0
 10
54.4282258533
 20
36.567535799
 30
0.0
 10
54.773683178
 20
36.3503296626
 30
0.0
 10
55.145124269
 20
36.2019296361
 30
0.0
 10
55.4046141421
 20
36.1521502493
 30
0.0
 10
55.5335613372
 20
36.1407893778
 30
0.0
  0
SPLINE
  5
71A
100
AcDbEntity
  8
0
100
AcDbSpline
 62
9
  6
CONTINUOUS
 70
0
 71
3
 72
18
 73
14
 74
0
 42
0.0000001
 43
0.0000001
 44
0.0000000001
 40
0.0
 40
0.0
 40
0.0
 40
0.0
 40
0.0313074256
 40
0.0670554997
 40
0.1094241039
 40
0.1592491788
 40
0.216476579
 40
0.2804859121
 40
0.4245068717
 40
0.5807859467
 40
0.7367977081
 40
0.8800545521
 40
1.0
 40
1.0
 40
1.0
 40
1.0
 10
119.8154425264
 20
49.3018066747
 30
0.0
 10
119.8214719115
 20
49.3007880929
 30
0.0
 10
119.8339802298
 20
49.2957826031
 30
0.0
 10
119.850180788
 20
49.2814235533
 30
0.0
 10
119.8645409758
 20
49.2607729053
 30
0.0
 10
119.8769548732
 20
49.234250233
 30
0.0
 10
119.8872384357
 20
49.2023899096
 30
0.0
 10
119.8982227463
 20
49.151693565
 30
0.0
 10
119.9046123982
 20
49.0805529599
 30
0.0
 10
119.9016776832
 20
48.9913007361
 30
0.0
 10
119.8885569578
 20
48.9030622326
 30
0.0
 10
119.8665401983
 20
48.8240160112
 30
0.0
 10
119.8450406941
 20
48.7768296998
 30
0.0
 10
119.8324742014
 20
48.7570581098
 30
0.0
  0
SPLINE
  5
71B
100
AcDbEntity
  8
0
100
AcDbSpline
 62
9
  6
CONTINUOUS
 70
0
 71
3
 72
17
 73
13
 74
0
 42
0.0000001
 43
0.0000001
 44
0.0000000001
 40
0.0
 40
0.0
 40
0.0
 40
0.0
 40
0.0276399105
 40
0.0618486676
 40
0.1038156315
 40
0.1536965836
 40
0.2750357848
 40
0.4187950771
 40
0.5747053704
 40
0.7311296826
 40
0.8763757034
 40
1.0
 40
1.0
 40
1.0
 40
1.0
 10
121.842252866
 20
47.1347195203
 30
0.0
 10
121.8402289942
 20
47.139334147
 30
0.0
 10
121.8333103999
 20
47.1485950461
 30
0.0
 10
121.8181134008
 20
47.1600765635
 30
0.0
 10
121.7975532621
 20
47.1705381879
 30
0.0
 10
121.7609252787
 20
47.1837324351
 30
0.0
 10
121.7044742637
 20
47.1954936077
 30
0.0
 10
121.6279630684
 20
47.2026738007
 30
0.0
 10
121.5447042795
 20
47.2028728706
 30
0.0
 10
121.4614531592
 20
47.1960681566
 30
0.0
 10
121.3849661195
 20
47.1828254045
 30
0.0
 10
121.3376807726
 20
47.1691710215
 30
0.0
 10
121.3167079638
 20
47.1609199546
 30
0.0
  0
SPLINE
  5
71C
100
AcDbEntity
  8
0
100
AcDbSpline
 62
7
  6
CONTINUOUS
 70
0
 71
3
 72
15
 73
11
 74
0
 42
0.0000001
 43
0.0000001
 44
0.0000000001
 40
0.0
 40
0.0
 40
0.0
 40
0.0
 40
0.1284142121
 40
0.2543673722
 40
0.378424261
 40
0.5013673678
 40
0.6241116306
 40
0.7475960297
 40
0.8726706651
 40
1.0
 40
1.0
 40
1.0
 40
1.0
 10
54.7394416585
 20
54.4920690786
 30
0.0
 10
54.6654336057
 20
54.498589546
 30
0.0
 10
54.5174831366
 20
54.4997554948
 30
0.0
 10
54.3003525079
 20
54.4644862798
 30
0.0
 10
54.0955594986
 20
54.3929708446
 30
0.0
 10
53.9084294855
 20
54.28693468
 30
0.0
 10
53.7437673256
 20
54.1490656108
 30
0.0
 10
53.6057900285
 20
53.9828996487
 30
0.0
 10
53.4979860347
 20
53.7928083546
 30
0.0
 10
53.448432572
 20
53.654581633
 30
0.0
 10
53.4292990479
 20
53.5834427078
 30
0.0
  0
SPLINE
  5
71D
100
AcDbEntity
  8
0
100
AcDbSpline
 62
7
  6
CONTINUOUS
 70
0
 71
3
 72
15
 73
11
 74
0
 42
0.0000001
 43
0.0000001
 44
0.0000000001
 40
0.0
 40
0.0
 40
0.0
 40
0.0
 40
0.1234644016
 40
0.2493778484
 40
0.3768424764
 40
0.5047592921
 40
0.6319719514
 40
0.7574136818
 40
0.880249049
 40
1.0
 40
1.0
 40
1.0
 40
1.0
 10
121.3167079638
 20
47.1609199546
 30
0.0
 10
121.3124986592
 20
47.2581926056
 30
0.0
 10
121.2851898087
 20
47.4542796531
 30
0.0
 10
121.1917394253
 20
47.7379209441
 30
0.0
 10
121.0489790691
 20
48.0042724734
 30
0.0
 10
120.8623394825
 20
48.2431964527
 30
0.0
 10
120.6388496828
 20
48.4457337629
 30
0.0
 10
120.3868281729
 20
48.6041921608
 30
0.0
 10
120.1158507285
 20
48.7124544424
 30
0.0
 10
119.9265450632
 20
48.748770012
 30
0.0
 10
119.8324742014
 20
48.7570581098
 30
0.0
  0
SPLINE
  5
71E
100
AcDbEntity
  8
0
100
AcDbSpline
 62
9
  6
CONTINUOUS
 70
0
 71
3
 72
16
 73
12
 74
0
 42
0.0000001
 43
0.0000001
 44
0.0000000001
 40
0.0
 40
0.0
 40
0.0
 40
0.0
 40
0.1210692962
 40
0.2657249864
 40
0.42319193
 40
0.5807379896
 40
0.6555501844
 40
0.7257136504
 40
0.7899564741
 40
0.8472786953
 40
1.0
 40
1.0
 40
1.0
 40
1.0
 10
120.6265938801
 20
30.4057784091
 30
0.0
 10
120.639228876
 20
30.4256577791
 30
0.0
 10
120.6608193718
 20
30.4731287127
 30
0.0
 10
120.6828761432
 20
30.5526416026
 30
0.0
 10
120.6959238074
 20
30.6413448044
 30
0.0
 10
120.6983077996
 20
30.7173306936
 30
0.0
 10
120.6944670419
 20
30.7761376368
 30
0.0
 10
120.6889901103
 20
30.8164134013
 30
0.0
 10
120.6807448245
 20
30.8531839371
 30
0.0
 10
120.6648090358
 20
30.9024404613
 30
0.0
 10
120.6376149269
 20
30.9467203168
 30
0.0
 10
120.6081749148
 20
30.9507388012
 30
0.0
  0
SPLINE
  5
71F
100
AcDbEntity
  8
0
100
AcDbSpline
 62
7
  6
CONTINUOUS
 70
0
 71
3
 72
15
 73
11
 74
0
 42
0.0000001
 43
0.0000001
 44
0.0000000001
 40
0.0
 40
0.0
 40
0.0
 40
0.0
 40
0.1197508038
 40
0.2425863132
 40
0.3680280507
 40
0.4952407065
 40
0.6231575232
 40
0.7506221548
 40
0.8765357514
 40
1.0
 40
1.0
 40
1.0
 40
1.0
 10
123.3705513198
 20
50.8811190804
 30
0.0
 10
123.4071116117
 20
50.8778979419
 30
0.0
 10
123.4806846122
 20
50.8637838908
 30
0.0
 10
123.5859992078
 20
50.821708311
 30
0.0
 10
123.6839464938
 20
50.7601237823
 30
0.0
 10
123.7708052114
 20
50.6814084511
 30
0.0
 10
123.8433419355
 20
50.5885513004
 30
0.0
 10
123.898825473
 20
50.4850346832
 30
0.0
 10
123.9351444559
 20
50.3747983388
 30
0.0
 10
123.9457580735
 20
50.2985897683
 30
0.0
 10
123.9473940041
 20
50.2607851132
 30
0.0
  0
SPLINE
  5
720
100
AcDbEntity
  8
0
100
AcDbSpline
 62
7
  6
CONTINUOUS
 70
0
 71
3
 72
11
 73
7
 74
0
 42
0.0000001
 43
0.0000001
 44
0.0000000001
 40
0.0
 40
0.0
 40
0.0
 40
0.0
 40
0.2599572465
 40
0.5121431355
 40
0.7578966357
 40
1.0
 40
1.0
 40
1.0
 40
1.0
 10
124.886236428
 20
28.5651133174
 30
0.0
 10
124.888071165
 20
28.5227144541
 30
0.0
 10
124.8827237606
 20
28.4384582622
 30
0.0
 10
124.8464826166
 20
28.3189623028
 30
0.0
 10
124.7838159703
 20
28.2142366033
 30
0.0
 10
124.7261363041
 20
28.1578010769
 30
0.0
 10
124.6945372363
 20
28.1340600903
 30
0.0
  0
SPLINE
  5
721
100
AcDbEntity
  8
0
100
AcDbSpline
 62
9
  6
CONTINUOUS
 70
0
 71
3
 72
16
 73
12
 74
0
 42
0.0000001
 43
0.0000001
 44
0.0000000001
 40
0.0
 40
0.0
 40
0.0
 40
0.0
 40
0.0606035978
 40
0.102267711
 40
0.1519108521
 40
0.2730277098
 40
0.4169053249
 40
0.5731997912
 40
0.730155693
 40
0.8759458506
 40
1.0
 40
1.0
 40
1.0
 40
1.0
 10
122.4858093805
 20
32.2699396168
 30
0.0
 10
122.4816461619
 20
32.2801846575
 30
0.0
 10
122.4664206436
 20
32.2934141043
 30
0.0
 10
122.4420201883
 20
32.3060216348
 30
0.0
 10
122.4054430058
 20
32.3194486327
 30
0.0
 10
122.3490970648
 20
32.3313182387
 30
0.0
 10
122.2724489337
 20
32.3386630826
 30
0.0
 10
122.1889315826
 20
32.338955538
 30
0.0
 10
122.1053289394
 20
32.3321963907
 30
0.0
 10
122.0284922397
 20
32.318941757
 30
0.0
 10
121.9809853372
 20
32.3052424923
 30
0.0
 10
121.9599201646
 20
32.2969550879
 30
0.0
  0
SPLINE
  5
722
100
AcDbEntity
  8
0
100
AcDbSpline
 62
9
  6
CONTINUOUS
 70
0
 71
3
 72
16
 73
12
 74
0
 42
0.0000001
 43
0.0000001
 44
0.0000000001
 40
0.0
 40
0.0
 40
0.0
 40
0.0
 40
0.1244026824
 40
0.2706408954
 40
0.4280244185
 40
0.584599046
 40
0.7284990312
 40
0.84931344
 40
0.898686971
 40
0.9400233561
 40
1.0
 40
1.0
 40
1.0
 40
1.0
 10
52.8558425243
 20
53.192653289
 30
0.0
 10
52.876999214
 20
53.2009766978
 30
0.0
 10
52.9247255733
 20
53.2147203564
 30
0.0
 10
53.0019090697
 20
53.2279860756
 30
0.0
 10
53.0858569187
 20
53.2347009088
 30
0.0
 10
53.1696365875
 20
53.2343103226
 30
0.0
 10
53.2463901755
 20
53.2268183185
 30
0.0
 10
53.3026961792
 20
53.214799253
 30
0.0
 10
53.3391089057
 20
53.2012092421
 30
0.0
 10
53.3632468578
 20
53.1885112188
 30
0.0
 10
53.3782024389
 20
53.1750932515
 30
0.0
 10
53.3820476129
 20
53.1648288647
 30
0.0
  0
SPLINE
  5
723
100
AcDbEntity
  8
0
100
AcDbSpline
 62
9
  6
CONTINUOUS
 70
0
 71
3
 72
18
 73
14
 74
0
 42
0.0000001
 43
0.0000001
 44
0.0000000001
 40
0.0
 40
0.0
 40
0.0
 40
0.0
 40
0.1201709897
 40
0.2637315632
 40
0.4200329095
 40
0.5764867159
 40
0.7204829871
 40
0.7843910274
 40
0.8414587709
 40
0.8910771899
 40
0.9332186796
 40
0.9687714974
 40
1.0
 40
1.0
 40
1.0
 40
1.0
 10
55.5335613372
 20
36.1407893778
 30
0.0
 10
55.5461696411
 20
36.1606267516
 30
0.0
 10
55.5677250446
 20
36.2079870105
 30
0.0
 10
55.5897645631
 20
36.287316769
 30
0.0
 10
55.6028480858
 20
36.3758445473
 30
0.0
 10
55.6056816834
 20
36.4653161854
 30
0.0
 10
55.5991565934
 20
36.5365613568
 30
0.0
 10
55.5880275467
 20
36.5872467956
 30
0.0
 10
55.5776366414
 20
36.6190282968
 30
0.0
 10
55.5651106011
 20
36.6454192999
 30
0.0
 10
55.5506328387
 20
36.6658869319
 30
0.0
 10
55.5342977082
 20
36.6800069185
 30
0.0
 10
55.5217247117
 20
36.6847716936
 30
0.0
 10
55.515683293
 20
36.6856725266
 30
0.0
  0
SPLINE
  5
724
100
AcDbEntity
  8
0
100
AcDbSpline
 62
9
  6
CONTINUOUS
 70
0
 71
3
 72
16
 73
12
 74
0
 42
0.0000001
 43
0.0000001
 44
0.0000000001
 40
0.0
 40
0.0
 40
0.0
 40
0.0
 40
0.1240541494
 40
0.269844307
 40
0.4268002088
 40
0.5830946751
 40
0.7269722902
 40
0.8480891479
 40
0.897732289
 40
0.9393964022
 40
1.0
 40
1.0
 40
1.0
 40
1.0
 10
53.4990547251
 20
38.3286884223
 30
0.0
 10
53.5201198977
 20
38.3369758267
 30
0.0
 10
53.5676268003
 20
38.3506750914
 30
0.0
 10
53.6444634999
 20
38.3639297251
 30
0.0
 10
53.7280661432
 20
38.3706888723
 30
0.0
 10
53.8115834942
 20
38.3703964169
 30
0.0
 10
53.8882316254
 20
38.3630515731
 30
0.0
 10
53.9445775663
 20
38.3511819671
 30
0.0
 10
53.9811547488
 20
38.3377549692
 30
0.0
 10
54.0055552042
 20
38.3251474386
 30
0.0
 10
54.0207807224
 20
38.3119179918
 30
0.0
 10
54.024943941
 20
38.3016729512
 30
0.0
  0
SPLINE
  5
725
100
AcDbEntity
  8
0
100
AcDbSpline
 62
7
  6
CONTINUOUS
 70
0
 71
3
 72
11
 73
7
 74
0
 42
0.0000001
 43
0.0000001
 44
0.0000000001
 40
0.0
 40
0.0
 40
0.0
 40
0.0
 40
0.2421033898
 40
0.4878568932
 40
0.7400431812
 40
1.0
 40
1.0
 40
1.0
 40
1.0
 10
112.5987574296
 20
57.95811492
 30
0.0
 10
112.6113969934
 20
57.9676113996
 30
0.0
 10
112.634468919
 20
57.9901855114
 30
0.0
 10
112.6595356258
 20
58.032075827
 30
0.0
 10
112.6740319394
 20
58.0798742367
 30
0.0
 10
112.6761709983
 20
58.1135766969
 30
0.0
 10
112.6754371048
 20
58.130536213
 30
0.0
  0
SPLINE
  5
726
100
AcDbEntity
  8
0
100
AcDbSpline
 62
7
  6
CONTINUOUS
 70
0
 71
3
 72
11
 73
7
 74
0
 42
0.0000001
 43
0.0000001
 44
0.0000000001
 40
0.0
 40
0.0
 40
0.0
 40
0.0
 40
0.2421033898
 40
0.4878568932
 40
0.7400431812
 40
1.0
 40
1.0
 40
1.0
 40
1.0
 10
103.4890454962
 20
58.7607245976
 30
0.0
 10
103.50168506
 20
58.7702210772
 30
0.0
 10
103.5247569855
 20
58.7927951889
 30
0.0
 10
103.5498236924
 20
58.8346855046
 30
0.0
 10
103.5643200059
 20
58.8824839143
 30
0.0
 10
103.5664590648
 20
58.9161863744
 30
0.0
 10
103.5657251713
 20
58.9331458905
 30
0.0
  0
SPLINE
  5
727
100
AcDbEntity
  8
0
100
AcDbSpline
 62
7
  6
CONTINUOUS
 70
0
 71
3
 72
11
 73
7
 74
0
 42
0.0000001
 43
0.0000001
 44
0.0000000001
 40
0.0
 40
0.0
 40
0.0
 40
0.0
 40
0.2421033898
 40
0.4878568932
 40
0.7400431812
 40
1.0
 40
1.0
 40
1.0
 40
1.0
 10
94.3793335627
 20
59.5633342752
 30
0.0
 10
94.3919731265
 20
59.5728307548
 30
0.0
 10
94.4150450521
 20
59.5954048665
 30
0.0
 10
94.4401117589
 20
59.6372951821
 30
0.0
 10
94.4546080724
 20
59.6850935918
 30
0.0
 10
94.4567471314
 20
59.718796052
 30
0.0
 10
94.4560132378
 20
59.7357555681
 30
0.0
  0
SPLINE
  5
728
100
AcDbEntity
  8
0
100
AcDbSpline
 62
7
  6
CONTINUOUS
 70
0
 71
3
 72
11
 73
7
 74
0
 42
0.0000001
 43
0.0000001
 44
0.0000000001
 40
0.0
 40
0.0
 40
0.0
 40
0.0
 40
0.2421033898
 40
0.4878568932
 40
0.7400431812
 40
1.0
 40
1.0
 40
1.0
 40
1.0
 10
81.6809472312
 20
60.6821235227
 30
0.0
 10
81.693586795
 20
60.6916200023
 30
0.0
 10
81.7166587205
 20
60.714194114
 30
0.0
 10
81.7417254274
 20
60.7560844296
 30
0.0
 10
81.7562217409
 20
60.8038828393
 30
0.0
 10
81.7583607998
 20
60.8375852995
 30
0.0
 10
81.7576269063
 20
60.8545448156
 30
0.0
  0
SPLINE
  5
729
100
AcDbEntity
  8
0
100
AcDbSpline
 62
7
  6
CONTINUOUS
 70
0
 71
3
 72
11
 73
7
 74
0
 42
0.0000001
 43
0.0000001
 44
0.0000000001
 40
0.0
 40
0.0
 40
0.0
 40
0.0
 40
0.2421033898
 40
0.4878568932
 40
0.7400431812
 40
1.0
 40
1.0
 40
1.0
 40
1.0
 10
72.5712352977
 20
61.4847332002
 30
0.0
 10
72.5838748615
 20
61.4942296798
 30
0.0
 10
72.6069467871
 20
61.5168037915
 30
0.0
 10
72.6320134939
 20
61.5586941072
 30
0.0
 10
72.6465098074
 20
61.6064925169
 30
0.0
 10
72.6486488664
 20
61.640194977
 30
0.0
 10
72.6479149728
 20
61.6571544932
 30
0.0
  0
SPLINE
  5
72A
100
AcDbEntity
  8
0
100
AcDbSpline
 62
7
  6
CONTINUOUS
 70
0
 71
3
 72
11
 73
7
 74
0
 42
0.0000001
 43
0.0000001
 44
0.0000000001
 40
0.0
 40
0.0
 40
0.0
 40
0.0
 40
0.2421033898
 40
0.4878568932
 40
0.7400431812
 40
1.0
 40
1.0
 40
1.0
 40
1.0
 10
63.4615233642
 20
62.2873428778
 30
0.0
 10
63.474162928
 20
62.2968393574
 30
0.0
 10
63.4972348536
 20
62.3194134691
 30
0.0
 10
63.5223015604
 20
62.3613037848
 30
0.0
 10
63.536797874
 20
62.4091021945
 30
0.0
 10
63.5389369329
 20
62.4428046546
 30
0.0
 10
63.5382030394
 20
62.4597641707
 30
0.0
  0
SPLINE
  5
72B
100
AcDbEntity
  8
RUNDUNGEN
100
AcDbSpline
 62
7
  6
CONTINUOUS
 70
0
 71
3
 72
9
 73
5
 74
0
 42
0.0000001
 43
0.0000001
 44
0.0000000001
 40
0.0
 40
0.0
 40
0.0
 40
0.0
 40
0.5054654628
 40
1.0
 40
1.0
 40
1.0
 40
1.0
 10
119.3107930959
 20
60.0673870697
 30
0.0
 10
119.4778186216
 20
60.0526713131
 30
0.0
 10
119.8118311192
 20
60.0543074126
 30
0.0
 10
120.1392466849
 20
60.1217596879
 30
0.0
 10
120.2956410542
 20
60.1712780557
 30
0.0
  0
SPLINE
  5
72C
100
AcDbEntity
  8
RUNDUNGEN
100
AcDbSpline
 62
7
  6
CONTINUOUS
 70
0
 71
3
 72
15
 73
11
 74
0
 42
0.0000001
 43
0.0000001
 44
0.0000000001
 40
0.0
 40
0.0
 40
0.0
 40
0.0
 40
0.123464387
 40
0.2493778492
 40
0.3768424772
 40
0.5047592922
 40
0.63197195
 40
0.757413681
 40
0.8802490634
 40
1.0
 40
1.0
 40
1.0
 40
1.0
 10
57.5723195464
 20
68.3544018527
 30
0.0
 10
57.5804992091
 20
68.1653783572
 30
0.0
 10
57.6335666121
 20
67.7843353382
 30
0.0
 10
57.8151626202
 20
67.2331539532
 30
0.0
 10
58.0925794728
 20
66.7155706516
 30
0.0
 10
58.4552637407
 20
66.2512853739
 30
0.0
 10
58.8895568052
 20
65.8577081027
 30
0.0
 10
59.3792935203
 20
65.5497862859
 30
0.0
 10
59.9058660861
 20
65.3394072913
 30
0.0
 10
60.2737312978
 20
65.268837728
 30
0.0
 10
60.4565329681
 20
65.2527320168
 30
0.0
  0
SPLINE
  5
72D
100
AcDbEntity
  8
0
100
AcDbSpline
 62
7
  6
CONTINUOUS
 70
0
 71
3
 72
13
 73
9
 74
0
 42
0.0000001
 43
0.0000001
 44
0.0000000001
 40
0.0
 40
0.0
 40
0.0
 40
0.0
 40
0.1087165009
 40
0.2237430216
 40
0.3443446361
 40
0.4696990555
 40
0.7309972339
 40
1.0
 40
1.0
 40
1.0
 40
1.0
 10
88.9054005255
 20
68.1508050403
 30
0.0
 10
88.8627033809
 20
68.3169544956
 30
0.0
 10
88.7852310123
 20
68.6616266267
 30
0.0
 10
88.6938592928
 20
69.1974497443
 30
0.0
 10
88.624619803
 20
69.7630371039
 30
0.0
 10
88.5618300089
 20
70.5611947379
 30
0.0
 10
88.5437575518
 20
71.596702725
 30
0.0
 10
88.5903896121
 20
72.4330062924
 30
0.0
 10
88.6291259056
 20
72.8557048294
 30
0.0
  0
SPLINE
  5
72E
100
AcDbEntity
  8
0
100
AcDbSpline
 62
7
  6
CONTINUOUS
 70
0
 71
3
 72
13
 73
9
 74
0
 42
0.0000001
 43
0.0000001
 44
0.0000000001
 40
0.0
 40
0.0
 40
0.0
 40
0.0
 40
0.2672495728
 40
0.5284875148
 40
0.6542014674
 40
0.7752879626
 40
0.890828887
 40
1.0
 40
1.0
 40
1.0
 40
1.0
 10
88.1450502609
 20
73.2374525417
 30
0.0
 10
88.0985112367
 20
72.8240121171
 30
0.0
 10
88.0372317044
 20
72.0026712461
 30
0.0
 10
88.0384011729
 20
70.983096023
 30
0.0
 10
88.0886803449
 20
70.1935722504
 30
0.0
 10
88.1494039811
 20
69.6325515031
 30
0.0
 10
88.2329797328
 20
69.100531117
 30
0.0
 10
88.3056147673
 20
68.7580944621
 30
0.0
 10
88.3460302848
 20
68.5930132563
 30
0.0
  0
SPLINE
  5
72F
100
AcDbEntity
  8
0
100
AcDbSpline
 62
7
  6
CONTINUOUS
 70
0
 71
3
 72
13
 73
9
 74
0
 42
0.0000001
 43
0.0000001
 44
0.0000000001
 40
0.0
 40
0.0
 40
0.0
 40
0.0
 40
0.1086078296
 40
0.2238508248
 40
0.3448627913
 40
0.470673426
 40
0.7323721013
 40
1.0
 40
1.0
 40
1.0
 40
1.0
 10
90.7249695095
 20
68.6381428363
 30
0.0
 10
90.6854958842
 20
68.7944947668
 30
0.0
 10
90.6146170714
 20
69.1194554881
 30
0.0
 10
90.533278044
 20
69.6252125255
 30
0.0
 10
90.4743505693
 20
70.1597707257
 30
0.0
 10
90.425911805
 20
70.9134707817
 30
0.0
 10
90.4260006527
 20
71.8873319696
 30
0.0
 10
90.4871281296
 20
72.6717721376
 30
0.0
 10
90.5333425755
 20
73.066441943
 30
0.0
  0
SPLINE
  5
730
100
AcDbEntity
  8
0
100
AcDbSpline
 62
7
  6
CONTINUOUS
 70
0
 71
3
 72
10
 73
6
 74
0
 42
0.0000001
 43
0.0000001
 44
0.0000000001
 40
0.0
 40
0.0
 40
0.0
 40
0.0
 40
0.5127729582
 40
0.7560670107
 40
1.0
 40
1.0
 40
1.0
 40
1.0
 10
119.6882221813
 20
77.0548180215
 30
0.0
 10
119.7074732228
 20
77.0368426344
 30
0.0
 10
119.7398570023
 20
77.0138481156
 30
0.0
 10
119.7883242198
 20
76.9961937364
 30
0.0
 10
119.813133954
 20
76.9918827333
 30
0.0
 10
119.8256151886
 20
76.9907830762
 30
0.0
  0
SPLINE
  5
731
100
AcDbEntity
  8
0
100
AcDbSpline
 62
7
  6
CONTINUOUS
 70
0
 71
3
 72
9
 73
5
 74
0
 42
0.0000001
 43
0.0000001
 44
0.0000000001
 40
0.0
 40
0.0
 40
0.0
 40
0.0
 40
0.5132700907
 40
1.0
 40
1.0
 40
1.0
 40
1.0
 10
118.8134928103
 20
77.1263410911
 30
0.0
 10
118.8316890104
 20
77.1100645664
 30
0.0
 10
118.8717268208
 20
77.0827538408
 30
0.0
 10
118.9188275735
 20
77.0706754505
 30
0.0
 10
118.9418895188
 20
77.0686435816
 30
0.0
  0
SPLINE
  5
732
100
AcDbEntity
  8
0
100
AcDbSpline
 62
7
  6
CONTINUOUS
 70
0
 71
3
 72
10
 73
6
 74
0
 42
0.0000001
 43
0.0000001
 44
0.0000000001
 40
0.0
 40
0.0
 40
0.0
 40
0.0
 40
0.5170175336
 40
0.7582564044
 40
1.0
 40
1.0
 40
1.0
 40
1.0
 10
118.9418895188
 20
77.0686435816
 30
0.0
 10
118.9656624944
 20
77.0665490675
 30
0.0
 10
119.001559219
 20
77.0682719922
 30
0.0
 10
119.0451903811
 20
77.0841205341
 30
0.0
 10
119.0643482513
 20
77.0958615807
 30
0.0
 10
119.073269537
 20
77.1025643057
 30
0.0
  0
SPLINE
  5
733
100
AcDbEntity
  8
0
100
AcDbSpline
 62
7
  6
CONTINUOUS
 70
0
 71
3
 72
10
 73
6
 74
0
 42
0.0000001
 43
0.0000001
 44
0.0000000001
 40
0.0
 40
0.0
 40
0.0
 40
0.0
 40
0.5132192537
 40
0.7560043756
 40
1.0
 40
1.0
 40
1.0
 40
1.0
 10
58.3470950473
 20
82.3503868882
 30
0.0
 10
58.3745175962
 20
82.3479708291
 30
0.0
 10
58.4160574981
 20
82.3500177786
 30
0.0
 10
58.4668964678
 20
82.3679860553
 30
0.0
 10
58.4895107651
 20
82.3814350882
 30
0.0
 10
58.5000811684
 20
82.3891523789
 30
0.0
  0
SPLINE
  5
734
100
AcDbEntity
  8
0
100
AcDbSpline
 62
7
  6
CONTINUOUS
 70
0
 71
3
 72
9
 73
5
 74
0
 42
0.0000001
 43
0.0000001
 44
0.0000000001
 40
0.0
 40
0.0
 40
0.0
 40
0.0
 40
0.4843244274
 40
1.0
 40
1.0
 40
1.0
 40
1.0
 10
58.2085605725
 20
82.4026301289
 30
0.0
 10
58.2274963287
 20
82.3876105243
 30
0.0
 10
58.2718602697
 20
82.3627248485
 30
0.0
 10
58.3214606091
 20
82.3526454062
 30
0.0
 10
58.3470950473
 20
82.3503868882
 30
0.0
  0
SPLINE
  5
735
100
AcDbEntity
  8
0
100
AcDbSpline
 62
7
  6
CONTINUOUS
 70
0
 71
3
 72
9
 73
5
 74
0
 42
0.0000001
 43
0.0000001
 44
0.0000000001
 40
0.0
 40
0.0
 40
0.0
 40
0.0
 40
0.2299286332
 40
1.0
 40
1.0
 40
1.0
 40
1.0
 10
58.1371423682
 20
82.4777724708
 30
0.0
 10
58.1415831588
 20
82.4711618513
 30
0.0
 10
58.1622155888
 20
82.4432956078
 30
0.0
 10
58.1876640457
 20
82.4192049921
 30
0.0
 10
58.2085605725
 20
82.4026301289
 30
0.0
  0
SPLINE
  5
736
100
AcDbEntity
  8
0
100
AcDbSpline
 62
7
  6
CONTINUOUS
 70
0
 71
3
 72
10
 73
6
 74
0
 42
0.0000001
 43
0.0000001
 44
0.0000000001
 40
0.0
 40
0.0
 40
0.0
 40
0.0
 40
0.5144764944
 40
0.7566271822
 40
1.0
 40
1.0
 40
1.0
 40
1.0
 10
59.1181659511
 20
82.2824518126
 30
0.0
 10
59.1450452647
 20
82.2800836151
 30
0.0
 10
59.1857510544
 20
82.2822445611
 30
0.0
 10
59.2352527063
 20
82.3004278221
 30
0.0
 10
59.2571168899
 20
82.3138608915
 30
0.0
 10
59.2673220284
 20
82.3215281987
 30
0.0
  0
SPLINE
  5
737
100
AcDbEntity
  8
0
100
AcDbSpline
 62
7
  6
CONTINUOUS
 70
0
 71
3
 72
9
 73
5
 74
0
 42
0.0000001
 43
0.0000001
 44
0.0000000001
 40
0.0
 40
0.0
 40
0.0
 40
0.0
 40
0.4843240292
 40
1.0
 40
1.0
 40
1.0
 40
1.0
 10
58.9796314068
 20
82.3346950793
 30
0.0
 10
58.9985671507
 20
82.3196754701
 30
0.0
 10
59.0429311049
 20
82.2947897546
 30
0.0
 10
59.0925314793
 20
82.2847103335
 30
0.0
 10
59.1181659511
 20
82.2824518126
 30
0.0
  0
SPLINE
  5
738
100
AcDbEntity
  8
0
100
AcDbSpline
 62
7
  6
CONTINUOUS
 70
0
 71
3
 72
9
 73
5
 74
0
 42
0.0000001
 43
0.0000001
 44
0.0000000001
 40
0.0
 40
0.0
 40
0.0
 40
0.0
 40
0.2299286
 40
1.0
 40
1.0
 40
1.0
 40
1.0
 10
58.9082131745
 20
82.4098374012
 30
0.0
 10
58.912653963
 20
82.4032267812
 30
0.0
 10
58.9332864089
 20
82.3753605457
 30
0.0
 10
58.9587348859
 20
82.3512699538
 30
0.0
 10
58.9796314068
 20
82.3346950793
 30
0.0
  0
SPLINE
  5
739
100
AcDbEntity
  8
0
100
AcDbSpline
 62
7
  6
CONTINUOUS
 70
0
 71
3
 72
9
 73
5
 74
0
 42
0.0000001
 43
0.0000001
 44
0.0000000001
 40
0.0
 40
0.0
 40
0.0
 40
0.0
 40
0.2600759652
 40
1.0
 40
1.0
 40
1.0
 40
1.0
 10
118.5944771718
 20
77.122997688
 30
0.0
 10
118.5968578523
 20
77.1243068958
 30
0.0
 10
118.6059297866
 20
77.1294868772
 30
0.0
 10
118.6146647642
 20
77.1352675577
 30
0.0
 10
118.6208446319
 20
77.1399106057
 30
0.0
  0
SPLINE
  5
73A
100
AcDbEntity
  8
0
100
AcDbSpline
 62
7
  6
CONTINUOUS
 70
0
 71
3
 72
9
 73
5
 74
0
 42
0.0000001
 43
0.0000001
 44
0.0000000001
 40
0.0
 40
0.0
 40
0.0
 40
0.0
 40
0.5244277759
 40
1.0
 40
1.0
 40
1.0
 40
1.0
 10
118.5054700699
 20
77.1070942456
 30
0.0
 10
118.521391203
 20
77.1056915168
 30
0.0
 10
118.55224566
 20
77.1061722261
 30
0.0
 10
118.5817770519
 20
77.1160135104
 30
0.0
 10
118.5944771718
 20
77.122997688
 30
0.0
  0
SPLINE
  5
73B
100
AcDbEntity
  8
0
100
AcDbSpline
 62
7
  6
CONTINUOUS
 70
0
 71
3
 72
9
 73
5
 74
0
 42
0.0000001
 43
0.0000001
 44
0.0000000001
 40
0.0
 40
0.0
 40
0.0
 40
0.0
 40
0.5229457203
 40
1.0
 40
1.0
 40
1.0
 40
1.0
 10
118.3748087762
 20
77.1609728217
 30
0.0
 10
118.3946946666
 20
77.146015886
 30
0.0
 10
118.4359386227
 20
77.1211751456
 30
0.0
 10
118.4828583792
 20
77.1090864449
 30
0.0
 10
118.5054700699
 20
77.1070942456
 30
0.0
  0
SPLINE
  5
73C
100
AcDbEntity
  8
RUNDUNGEN
100
AcDbSpline
 62
7
  6
CONTINUOUS
 70
0
 71
3
 72
11
 73
7
 74
0
 42
0.0000001
 43
0.0000001
 44
0.0000000001
 40
0.0
 40
0.0
 40
0.0
 40
0.0
 40
0.2454238463
 40
0.4934079201
 40
0.744744633
 40
1.0
 40
1.0
 40
1.0
 40
1.0
 10
120.3001020267
 20
60.0683147911
 30
0.0
 10
120.202911274
 20
60.0222813519
 30
0.0
 10
120.0008049994
 20
59.9432443574
 30
0.0
 10
119.6826147948
 20
59.8666170701
 30
0.0
 10
119.3528177512
 20
59.8324154047
 30
0.0
 10
119.1302095155
 20
59.8381847438
 30
0.0
 10
119.0187918368
 20
59.8480011801
 30
0.0
  0
SPLINE
  5
73D
100
AcDbEntity
  8
RUNDUNGEN
100
AcDbSpline
 62
7
  6
CONTINUOUS
 70
0
 71
3
 72
15
 73
11
 74
0
 42
0.0000001
 43
0.0000001
 44
0.0000000001
 40
0.0
 40
0.0
 40
0.0
 40
0.0
 40
0.1197509366
 40
0.242586319
 40
0.36802805
 40
0.4952407078
 40
0.6231575228
 40
0.7506221508
 40
0.876535613
 40
1.0
 40
1.0
 40
1.0
 40
1.0
 10
60.164531709
 20
65.0333461273
 30
0.0
 10
59.9817300386
 20
65.0494518385
 30
0.0
 10
59.613864827
 20
65.1200214018
 30
0.0
 10
59.0872922612
 20
65.3304003963
 30
0.0
 10
58.597555546
 20
65.6383222131
 30
0.0
 10
58.1632624815
 20
66.0318994843
 30
0.0
 10
57.8005782136
 20
66.4961847621
 30
0.0
 10
57.5231613611
 20
67.0137680636
 30
0.0
 10
57.3415653529
 20
67.5649494486
 30
0.0
 10
57.2884979499
 20
67.9459924677
 30
0.0
 10
57.2803182873
 20
68.1350159631
 30
0.0
  0
SPLINE
  5
73E
100
AcDbEntity
  8
0
100
AcDbSpline
 62
7
  6
CONTINUOUS
 70
0
 71
3
 72
15
 73
11
 74
0
 42
0.0000001
 43
0.0000001
 44
0.0000000001
 40
0.0
 40
0.0
 40
0.0
 40
0.0
 40
0.1256202955
 40
0.2540715458
 40
0.3838328676
 40
0.513127983
 40
0.6402707591
 40
0.7640038536
 40
0.8837908299
 40
1.0
 40
1.0
 40
1.0
 40
1.0
 10
113.5015065592
 20
58.4499356793
 30
0.0
 10
113.5023174254
 20
58.4311974055
 30
0.0
 10
113.5084622297
 20
58.3933731363
 30
0.0
 10
113.5299441969
 20
58.3397892417
 30
0.0
 10
113.56255058
 20
58.2914664891
 30
0.0
 10
113.6044193242
 20
58.2511888002
 30
0.0
 10
113.6531865525
 20
58.2212565274
 30
0.0
 10
113.7061215982
 20
58.2034469458
 30
0.0
 10
113.7601676256
 20
58.1988826941
 30
0.0
 10
113.7953553119
 20
58.2050677027
 30
0.0
 10
113.8118721923
 20
58.2103817067
 30
0.0
  0
SPLINE
  5
73F
100
AcDbEntity
  8
0
100
AcDbSpline
 62
7
  6
CONTINUOUS
 70
0
 71
3
 72
15
 73
11
 74
0
 42
0.0000001
 43
0.0000001
 44
0.0000000001
 40
0.0
 40
0.0
 40
0.0
 40
0.0
 40
0.1256202955
 40
0.2540715458
 40
0.3838328676
 40
0.513127983
 40
0.6402707591
 40
0.7640038536
 40
0.8837908299
 40
1.0
 40
1.0
 40
1.0
 40
1.0
 10
104.3917946258
 20
59.2525453568
 30
0.0
 10
104.3926054919
 20
59.233807083
 30
0.0
 10
104.3987502962
 20
59.1959828139
 30
0.0
 10
104.4202322634
 20
59.1423989193
 30
0.0
 10
104.4528386466
 20
59.0940761667
 30
0.0
 10
104.4947073908
 20
59.0537984777
 30
0.0
 10
104.543474619
 20
59.023866205
 30
0.0
 10
104.5964096648
 20
59.0060566234
 30
0.0
 10
104.6504556922
 20
59.0014923716
 30
0.0
 10
104.6856433785
 20
59.0076773803
 30
0.0
 10
104.7021602588
 20
59.0129913843
 30
0.0
  0
SPLINE
  5
740
100
AcDbEntity
  8
0
100
AcDbSpline
 62
7
  6
CONTINUOUS
 70
0
 71
3
 72
15
 73
11
 74
0
 42
0.0000001
 43
0.0000001
 44
0.0000000001
 40
0.0
 40
0.0
 40
0.0
 40
0.0
 40
0.1256202955
 40
0.2540715458
 40
0.3838328676
 40
0.513127983
 40
0.6402707591
 40
0.7640038536
 40
0.8837908299
 40
1.0
 40
1.0
 40
1.0
 40
1.0
 10
95.2820826923
 20
60.0551550344
 30
0.0
 10
95.2828935585
 20
60.0364167606
 30
0.0
 10
95.2890383627
 20
59.9985924915
 30
0.0
 10
95.31052033
 20
59.9450085968
 30
0.0
 10
95.3431267131
 20
59.8966858442
 30
0.0
 10
95.3849954573
 20
59.8564081553
 30
0.0
 10
95.4337626855
 20
59.8264758826
 30
0.0
 10
95.4866977313
 20
59.8086663009
 30
0.0
 10
95.5407437587
 20
59.8041020492
 30
0.0
 10
95.575931445
 20
59.8102870578
 30
0.0
 10
95.5924483253
 20
59.8156010618
 30
0.0
  0
SPLINE
  5
741
100
AcDbEntity
  8
0
100
AcDbSpline
 62
7
  6
CONTINUOUS
 70
0
 71
3
 72
15
 73
11
 74
0
 42
0.0000001
 43
0.0000001
 44
0.0000000001
 40
0.0
 40
0.0
 40
0.0
 40
0.0
 40
0.1256202955
 40
0.2540715458
 40
0.3838328676
 40
0.513127983
 40
0.6402707591
 40
0.7640038536
 40
0.8837908299
 40
1.0
 40
1.0
 40
1.0
 40
1.0
 10
82.5836963608
 20
61.1739442819
 30
0.0
 10
82.5845072269
 20
61.1552060081
 30
0.0
 10
82.5906520312
 20
61.117381739
 30
0.0
 10
82.6121339984
 20
61.0637978443
 30
0.0
 10
82.6447403816
 20
61.0154750917
 30
0.0
 10
82.6866091258
 20
60.9751974028
 30
0.0
 10
82.735376354
 20
60.9452651301
 30
0.0
 10
82.7883113998
 20
60.9274555484
 30
0.0
 10
82.8423574272
 20
60.9228912967
 30
0.0
 10
82.8775451135
 20
60.9290763053
 30
0.0
 10
82.8940619938
 20
60.9343903093
 30
0.0
  0
SPLINE
  5
742
100
AcDbEntity
  8
0
100
AcDbSpline
 62
7
  6
CONTINUOUS
 70
0
 71
3
 72
15
 73
11
 74
0
 42
0.0000001
 43
0.0000001
 44
0.0000000001
 40
0.0
 40
0.0
 40
0.0
 40
0.0
 40
0.1256202955
 40
0.2540715458
 40
0.3838328676
 40
0.513127983
 40
0.6402707591
 40
0.7640038536
 40
0.8837908299
 40
1.0
 40
1.0
 40
1.0
 40
1.0
 10
73.4739844273
 20
61.9765539594
 30
0.0
 10
73.4747952935
 20
61.9578156857
 30
0.0
 10
73.4809400977
 20
61.9199914165
 30
0.0
 10
73.502422065
 20
61.8664075219
 30
0.0
 10
73.5350284481
 20
61.8180847693
 30
0.0
 10
73.5768971923
 20
61.7778070803
 30
0.0
 10
73.6256644205
 20
61.7478748076
 30
0.0
 10
73.6785994663
 20
61.730065226
 30
0.0
 10
73.7326454937
 20
61.7255009743
 30
0.0
 10
73.76783318
 20
61.7316859829
 30
0.0
 10
73.7843500604
 20
61.7369999869
 30
0.0
  0
SPLINE
  5
743
100
AcDbEntity
  8
0
100
AcDbSpline
 62
7
  6
CONTINUOUS
 70
0
 71
3
 72
15
 73
11
 74
0
 42
0.0000001
 43
0.0000001
 44
0.0000000001
 40
0.0
 40
0.0
 40
0.0
 40
0.0
 40
0.1256202955
 40
0.2540715458
 40
0.3838328676
 40
0.513127983
 40
0.6402707591
 40
0.7640038536
 40
0.8837908299
 40
1.0
 40
1.0
 40
1.0
 40
1.0
 10
64.3642724938
 20
62.779163637
 30
0.0
 10
64.36508336
 20
62.7604253632
 30
0.0
 10
64.3712281642
 20
62.7226010941
 30
0.0
 10
64.3927101315
 20
62.6690171995
 30
0.0
 10
64.4253165146
 20
62.6206944468
 30
0.0
 10
64.4671852588
 20
62.5804167579
 30
0.0
 10
64.515952487
 20
62.5504844852
 30
0.0
 10
64.5688875328
 20
62.5326749036
 30
0.0
 10
64.6229335602
 20
62.5281106518
 30
0.0
 10
64.6581212465
 20
62.5342956604
 30
0.0
 10
64.6746381269
 20
62.5396096645
 30
0.0
  0
SPLINE
  5
744
100
AcDbEntity
  8
0
100
AcDbSpline
 62
7
  6
CONTINUOUS
 70
0
 71
3
 72
13
 73
9
 74
0
 42
0.0000001
 43
0.0000001
 44
0.0000000001
 40
0.0
 40
0.0
 40
0.0
 40
0.0
 40
0.1087165009
 40
0.2237430216
 40
0.3443446361
 40
0.4696990555
 40
0.7309972339
 40
1.0
 40
1.0
 40
1.0
 40
1.0
 10
89.7335561558
 20
68.0778405242
 30
0.0
 10
89.6908590112
 20
68.2439899794
 30
0.0
 10
89.6133866426
 20
68.5886621105
 30
0.0
 10
89.5220149232
 20
69.1244852282
 30
0.0
 10
89.4527754333
 20
69.6900725877
 30
0.0
 10
89.3899856392
 20
70.4882302218
 30
0.0
 10
89.3719131821
 20
71.5237382089
 30
0.0
 10
89.4185452424
 20
72.3600417762
 30
0.0
 10
89.4572815359
 20
72.7827403132
 30
0.0
  0
SPLINE
  5
745
100
AcDbEntity
  8
0
100
AcDbSpline
 62
7
  6
CONTINUOUS
 70
0
 71
3
 72
14
 73
10
 74
0
 42
0.0000001
 43
0.0000001
 44
0.0000000001
 40
0.0
 40
0.0
 40
0.0
 40
0.0
 40
0.2683417788
 40
0.4010441063
 40
0.5310199305
 40
0.6570258337
 40
0.7778885943
 40
0.8925310643
 40
1.0
 40
1.0
 40
1.0
 40
1.0
 10
89.653362737
 20
73.3341463629
 30
0.0
 10
89.5958452548
 20
72.8781094738
 30
0.0
 10
89.5378757144
 20
72.1925656078
 30
0.0
 10
89.5175307921
 20
71.2830153273
 30
0.0
 10
89.531124511
 20
70.6171367481
 30
0.0
 10
89.5733136084
 20
69.9727834721
 30
0.0
 10
89.6436071593
 20
69.3572711754
 30
0.0
 10
89.7411710202
 20
68.777653693
 30
0.0
 10
89.8266189632
 20
68.4065901333
 30
0.0
 10
89.8742884532
 20
68.2287828759
 30
0.0
  0
SPLINE
  5
746
100
AcDbEntity
  8
0
100
AcDbSpline
 62
7
  6
CONTINUOUS
 70
0
 71
3
 72
9
 73
5
 74
0
 42
0.0000001
 43
0.0000001
 44
0.0000000001
 40
0.0
 40
0.0
 40
0.0
 40
0.0
 40
0.2478419359
 40
1.0
 40
1.0
 40
1.0
 40
1.0
 10
88.8545721028
 20
68.3593711901
 30
0.0
 10
88.810784921
 20
68.3743492515
 30
0.0
 10
88.63568335
 20
68.4393056786
 30
0.0
 10
88.4672549252
 20
68.5220930116
 30
0.0
 10
88.3460302848
 20
68.5930132563
 30
0.0
  0
SPLINE
  5
747
100
AcDbEntity
  8
0
100
AcDbSpline
 62
7
  6
CONTINUOUS
 70
0
 71
3
 72
9
 73
5
 74
0
 42
0.0000001
 43
0.0000001
 44
0.0000000001
 40
0.0
 40
0.0
 40
0.0
 40
0.0
 40
0.248656514
 40
1.0
 40
1.0
 40
1.0
 40
1.0
 10
88.1450502609
 20
73.2374525417
 30
0.0
 10
88.1811804699
 20
73.2530334468
 30
0.0
 10
88.3282041668
 20
73.3116376171
 30
0.0
 10
88.4817386902
 20
73.3537833941
 30
0.0
 10
88.5985443414
 20
73.3759492284
 30
0.0
  0
SPLINE
  5
748
100
AcDbEntity
  8
0
100
AcDbSpline
 62
7
  6
CONTINUOUS
 70
0
 71
3
 72
9
 73
5
 74
0
 42
0.0000001
 43
0.0000001
 44
0.0000000001
 40
0.0
 40
0.0
 40
0.0
 40
0.0
 40
0.4956926854
 40
1.0
 40
1.0
 40
1.0
 40
1.0
 10
89.653362737
 20
73.3341463629
 30
0.0
 10
89.7749057439
 20
73.3025361589
 30
0.0
 10
90.0157900391
 20
73.2210490565
 30
0.0
 10
90.2431828708
 20
73.1073991895
 30
0.0
 10
90.3534652751
 20
73.0428804987
 30
0.0
  0
SPLINE
  5
749
100
AcDbEntity
  8
0
100
AcDbSpline
 62
7
  6
CONTINUOUS
 70
0
 71
3
 72
9
 73
5
 74
0
 42
0.0000001
 43
0.0000001
 44
0.0000000001
 40
0.0
 40
0.0
 40
0.0
 40
0.0
 40
0.4964735484
 40
1.0
 40
1.0
 40
1.0
 40
1.0
 10
90.554445299
 20
68.3984412132
 30
0.0
 10
90.447575258
 20
68.3523542402
 30
0.0
 10
90.2242698083
 20
68.2772413272
 30
0.0
 10
89.9918868592
 20
68.2389519397
 30
0.0
 10
89.8742884532
 20
68.2287828759
 30
0.0
  0
SPLINE
  5
74A
100
AcDbEntity
  8
0
100
AcDbSpline
 62
7
  6
CONTINUOUS
 70
0
 71
3
 72
13
 73
9
 74
0
 42
0.0000001
 43
0.0000001
 44
0.0000000001
 40
0.0
 40
0.0
 40
0.0
 40
0.0
 40
0.109171113
 40
0.2247120374
 40
0.3457985326
 40
0.4715124852
 40
0.7327504272
 40
1.0
 40
1.0
 40
1.0
 40
1.0
 10
90.554445299
 20
68.3984412132
 30
0.0
 10
90.5140297815
 20
68.5635224191
 30
0.0
 10
90.441394747
 20
68.9059590739
 30
0.0
 10
90.3578189952
 20
69.4379794601
 30
0.0
 10
90.297095359
 20
69.9990002074
 30
0.0
 10
90.2468161871
 20
70.7885239799
 30
0.0
 10
90.2456467185
 20
71.8080992031
 30
0.0
 10
90.3069262509
 20
72.6294400741
 30
0.0
 10
90.3534652751
 20
73.0428804987
 30
0.0
  0
SPLINE
  5
74B
100
AcDbEntity
  8
0
100
AcDbSpline
 62
7
  6
CONTINUOUS
 70
0
 71
3
 72
9
 73
5
 74
0
 42
0.0000001
 43
0.0000001
 44
0.0000000001
 40
0.0
 40
0.0
 40
0.0
 40
0.0
 40
0.2465031105
 40
1.0
 40
1.0
 40
1.0
 40
1.0
 10
59.3023621799
 20
82.3478545058
 30
0.0
 10
59.3042906984
 20
82.349303437
 30
0.0
 10
59.3120113774
 20
82.3553174291
 30
0.0
 10
59.3193139438
 20
82.3618648195
 30
0.0
 10
59.3245638463
 20
82.3670422264
 30
0.0
  0
SPLINE
  5
74C
100
AcDbEntity
  8
0
100
AcDbSpline
 62
7
  6
CONTINUOUS
 70
0
 71
3
 72
9
 73
5
 74
0
 42
0.0000001
 43
0.0000001
 44
0.0000000001
 40
0.0
 40
0.0
 40
0.0
 40
0.0
 40
0.2465031105
 40
1.0
 40
1.0
 40
1.0
 40
1.0
 10
59.2673220284
 20
82.3215281987
 30
0.0
 10
59.2692505469
 20
82.32297713
 30
0.0
 10
59.2769712261
 20
82.3289911221
 30
0.0
 10
59.2842737926
 20
82.3355385127
 30
0.0
 10
59.2895236952
 20
82.3407159196
 30
0.0
  0
SPLINE
  5
74D
100
AcDbEntity
  8
0
100
AcDbSpline
 62
7
  6
CONTINUOUS
 70
0
 71
3
 72
8
 73
4
 74
0
 42
0.0000001
 43
0.0000001
 44
0.0000000001
 40
0.0
 40
0.0
 40
0.0
 40
0.0
 40
1.0
 40
1.0
 40
1.0
 40
1.0
 10
59.1352481271
 20
82.3898317521
 30
0.0
 10
59.1280069034
 20
82.389455742
 30
0.0
 10
59.1207228285
 20
82.389644662
 30
0.0
 10
59.1134998289
 20
82.3902810432
 30
0.0
  0
SPLINE
  5
74E
100
AcDbEntity
  8
0
100
AcDbSpline
 62
7
  6
CONTINUOUS
 70
0
 71
3
 72
9
 73
5
 74
0
 42
0.0000001
 43
0.0000001
 44
0.0000000001
 40
0.0
 40
0.0
 40
0.0
 40
0.0
 40
0.4963355822
 40
1.0
 40
1.0
 40
1.0
 40
1.0
 10
58.502075947
 20
82.3906297894
 30
0.0
 10
58.5111920618
 20
82.3974788933
 30
0.0
 10
58.528278738
 20
82.4130794059
 30
0.0
 10
58.5420157723
 20
82.4316813546
 30
0.0
 10
58.5480431859
 20
82.4415581933
 30
0.0
  0
SPLINE
  5
74F
100
AcDbEntity
  8
0
100
AcDbSpline
 62
7
  6
CONTINUOUS
 70
0
 71
3
 72
15
 73
11
 74
0
 42
0.0000001
 43
0.0000001
 44
0.0000000001
 40
0.0
 40
0.0
 40
0.0
 40
0.0
 40
0.1256203628
 40
0.254071548
 40
0.3838328724
 40
0.5131279745
 40
0.6402707651
 40
0.7640038449
 40
0.8837907676
 40
1.0
 40
1.0
 40
1.0
 40
1.0
 10
63.8970704792
 20
62.4281462137
 30
0.0
 10
63.8978813458
 20
62.4094079295
 30
0.0
 10
63.9040261005
 20
62.3715836425
 30
0.0
 10
63.9255081856
 20
62.3179998043
 30
0.0
 10
63.9581144188
 20
62.2696769524
 30
0.0
 10
63.9999833143
 20
62.2293994253
 30
0.0
 10
64.0487504243
 20
62.1994669629
 30
0.0
 10
64.101685528
 20
62.1816575566
 30
0.0
 10
64.1557315342
 20
62.1770931701
 30
0.0
 10
64.1909192226
 20
62.1832782342
 30
0.0
 10
64.2074361122
 20
62.1885922412
 30
0.0
  0
SPLINE
  5
750
100
AcDbEntity
  8
0
100
AcDbSpline
 62
7
  6
CONTINUOUS
 70
0
 71
3
 72
11
 73
7
 74
0
 42
0.0000001
 43
0.0000001
 44
0.0000000001
 40
0.0
 40
0.0
 40
0.0
 40
0.0
 40
0.2618077945
 40
0.5147159603
 40
0.7596988481
 40
1.0
 40
1.0
 40
1.0
 40
1.0
 10
72.355985602
 20
61.4706656233
 30
0.0
 10
72.3737607607
 20
61.4620651024
 30
0.0
 10
72.4108991065
 20
61.4492397189
 30
0.0
 10
72.4687010496
 20
61.4448991898
 30
0.0
 10
72.523974742
 20
61.4561608914
 30
0.0
 10
72.5567450211
 20
61.4738462251
 30
0.0
 10
72.5712352977
 20
61.4847332002
 30
0.0
  0
SPLINE
  5
751
100
AcDbEntity
  8
0
100
AcDbSpline
 62
7
  6
CONTINUOUS
 70
0
 71
3
 72
15
 73
11
 74
0
 42
0.0000001
 43
0.0000001
 44
0.0000000001
 40
0.0
 40
0.0
 40
0.0
 40
0.0
 40
0.1256203628
 40
0.254071548
 40
0.3838328724
 40
0.5131279745
 40
0.6402707651
 40
0.7640038449
 40
0.8837907676
 40
1.0
 40
1.0
 40
1.0
 40
1.0
 10
73.0067824126
 20
61.6255365362
 30
0.0
 10
73.0075932793
 20
61.606798252
 30
0.0
 10
73.0137380339
 20
61.568973965
 30
0.0
 10
73.0352201191
 20
61.5153901267
 30
0.0
 10
73.0678263523
 20
61.4670672748
 30
0.0
 10
73.1096952478
 20
61.4267897477
 30
0.0
 10
73.1584623577
 20
61.3968572853
 30
0.0
 10
73.2113974615
 20
61.379047879
 30
0.0
 10
73.2654434677
 20
61.3744834926
 30
0.0
 10
73.3006311561
 20
61.3806685566
 30
0.0
 10
73.3171480457
 20
61.3859825636
 30
0.0
  0
SPLINE
  5
752
100
AcDbEntity
  8
0
100
AcDbSpline
 62
7
  6
CONTINUOUS
 70
0
 71
3
 72
11
 73
7
 74
0
 42
0.0000001
 43
0.0000001
 44
0.0000000001
 40
0.0
 40
0.0
 40
0.0
 40
0.0
 40
0.2618077945
 40
0.5147159603
 40
0.7596988481
 40
1.0
 40
1.0
 40
1.0
 40
1.0
 10
81.4656975355
 20
60.6680559457
 30
0.0
 10
81.4834726942
 20
60.6594554249
 30
0.0
 10
81.52061104
 20
60.6466300414
 30
0.0
 10
81.5784129831
 20
60.6422895122
 30
0.0
 10
81.6336866755
 20
60.6535512138
 30
0.0
 10
81.6664569546
 20
60.6712365476
 30
0.0
 10
81.6809472312
 20
60.6821235227
 30
0.0
  0
SPLINE
  5
753
100
AcDbEntity
  8
0
100
AcDbSpline
 62
7
  6
CONTINUOUS
 70
0
 71
3
 72
15
 73
11
 74
0
 42
0.0000001
 43
0.0000001
 44
0.0000000001
 40
0.0
 40
0.0
 40
0.0
 40
0.0
 40
0.1256203628
 40
0.254071548
 40
0.3838328724
 40
0.5131279745
 40
0.6402707651
 40
0.7640038449
 40
0.8837907676
 40
1.0
 40
1.0
 40
1.0
 40
1.0
 10
82.1164943461
 20
60.8229268586
 30
0.0
 10
82.1173052127
 20
60.8041885744
 30
0.0
 10
82.1234499674
 20
60.7663642874
 30
0.0
 10
82.1449320526
 20
60.7127804492
 30
0.0
 10
82.1775382858
 20
60.6644575973
 30
0.0
 10
82.2194071813
 20
60.6241800702
 30
0.0
 10
82.2681742912
 20
60.5942476078
 30
0.0
 10
82.321109395
 20
60.5764382014
 30
0.0
 10
82.3751554011
 20
60.571873815
 30
0.0
 10
82.4103430896
 20
60.5780588791
 30
0.0
 10
82.4268599792
 20
60.583372886
 30
0.0
  0
SPLINE
  5
754
100
AcDbEntity
  8
0
100
AcDbSpline
 62
7
  6
CONTINUOUS
 70
0
 71
3
 72
11
 73
7
 74
0
 42
0.0000001
 43
0.0000001
 44
0.0000000001
 40
0.0
 40
0.0
 40
0.0
 40
0.0
 40
0.2618077945
 40
0.5147159603
 40
0.7596988481
 40
1.0
 40
1.0
 40
1.0
 40
1.0
 10
94.164083867
 20
59.5492666982
 30
0.0
 10
94.1818590257
 20
59.5406661774
 30
0.0
 10
94.2189973715
 20
59.5278407939
 30
0.0
 10
94.2767993146
 20
59.5235002647
 30
0.0
 10
94.332073007
 20
59.5347619663
 30
0.0
 10
94.3648432861
 20
59.5524473001
 30
0.0
 10
94.3793335627
 20
59.5633342752
 30
0.0
  0
SPLINE
  5
755
100
AcDbEntity
  8
0
100
AcDbSpline
 62
7
  6
CONTINUOUS
 70
0
 71
3
 72
15
 73
11
 74
0
 42
0.0000001
 43
0.0000001
 44
0.0000000001
 40
0.0
 40
0.0
 40
0.0
 40
0.0
 40
0.1256203628
 40
0.254071548
 40
0.3838328724
 40
0.5131279745
 40
0.6402707651
 40
0.7640038449
 40
0.8837907676
 40
1.0
 40
1.0
 40
1.0
 40
1.0
 10
94.8148806776
 20
59.7041376111
 30
0.0
 10
94.8156915443
 20
59.6853993269
 30
0.0
 10
94.8218362989
 20
59.6475750399
 30
0.0
 10
94.8433183841
 20
59.5939912017
 30
0.0
 10
94.8759246173
 20
59.5456683498
 30
0.0
 10
94.9177935128
 20
59.5053908227
 30
0.0
 10
94.9665606227
 20
59.4754583602
 30
0.0
 10
95.0194957265
 20
59.4576489539
 30
0.0
 10
95.0735417326
 20
59.4530845675
 30
0.0
 10
95.1087294211
 20
59.4592696316
 30
0.0
 10
95.1252463107
 20
59.4645836385
 30
0.0
  0
SPLINE
  5
756
100
AcDbEntity
  8
0
100
AcDbSpline
 62
7
  6
CONTINUOUS
 70
0
 71
3
 72
11
 73
7
 74
0
 42
0.0000001
 43
0.0000001
 44
0.0000000001
 40
0.0
 40
0.0
 40
0.0
 40
0.0
 40
0.2618077945
 40
0.5147159603
 40
0.7596988481
 40
1.0
 40
1.0
 40
1.0
 40
1.0
 10
103.2737958005
 20
58.7466570206
 30
0.0
 10
103.2915709592
 20
58.7380564998
 30
0.0
 10
103.328709305
 20
58.7252311163
 30
0.0
 10
103.3865112481
 20
58.7208905872
 30
0.0
 10
103.4417849405
 20
58.7321522887
 30
0.0
 10
103.4745552196
 20
58.7498376225
 30
0.0
 10
103.4890454962
 20
58.7607245976
 30
0.0
  0
SPLINE
  5
757
100
AcDbEntity
  8
0
100
AcDbSpline
 62
7
  6
CONTINUOUS
 70
0
 71
3
 72
15
 73
11
 74
0
 42
0.0000001
 43
0.0000001
 44
0.0000000001
 40
0.0
 40
0.0
 40
0.0
 40
0.0
 40
0.1256203628
 40
0.254071548
 40
0.3838328724
 40
0.5131279745
 40
0.6402707651
 40
0.7640038449
 40
0.8837907676
 40
1.0
 40
1.0
 40
1.0
 40
1.0
 10
103.9245926111
 20
58.9015279335
 30
0.0
 10
103.9254034777
 20
58.8827896493
 30
0.0
 10
103.9315482324
 20
58.8449653624
 30
0.0
 10
103.9530303176
 20
58.7913815241
 30
0.0
 10
103.9856365508
 20
58.7430586722
 30
0.0
 10
104.0275054462
 20
58.7027811451
 30
0.0
 10
104.0762725562
 20
58.6728486827
 30
0.0
 10
104.1292076599
 20
58.6550392764
 30
0.0
 10
104.1832536661
 20
58.65047489
 30
0.0
 10
104.2184413546
 20
58.656659954
 30
0.0
 10
104.2349582442
 20
58.661973961
 30
0.0
  0
SPLINE
  5
758
100
AcDbEntity
  8
0
100
AcDbSpline
 62
7
  6
CONTINUOUS
 70
0
 71
3
 72
11
 73
7
 74
0
 42
0.0000001
 43
0.0000001
 44
0.0000000001
 40
0.0
 40
0.0
 40
0.0
 40
0.0
 40
0.2618077945
 40
0.5147159603
 40
0.7596988481
 40
1.0
 40
1.0
 40
1.0
 40
1.0
 10
112.383507734
 20
57.9440473431
 30
0.0
 10
112.4012828927
 20
57.9354468222
 30
0.0
 10
112.4384212385
 20
57.9226214387
 30
0.0
 10
112.4962231815
 20
57.9182809096
 30
0.0
 10
112.551496874
 20
57.9295426112
 30
0.0
 10
112.584267153
 20
57.947227945
 30
0.0
 10
112.5987574296
 20
57.95811492
 30
0.0
  0
SPLINE
  5
759
100
AcDbEntity
  8
0
100
AcDbSpline
 62
7
  6
CONTINUOUS
 70
0
 71
3
 72
15
 73
11
 74
0
 42
0.0000001
 43
0.0000001
 44
0.0000000001
 40
0.0
 40
0.0
 40
0.0
 40
0.0
 40
0.1256203628
 40
0.254071548
 40
0.3838328724
 40
0.5131279745
 40
0.6402707651
 40
0.7640038449
 40
0.8837907676
 40
1.0
 40
1.0
 40
1.0
 40
1.0
 10
113.0343045446
 20
58.098918256
 30
0.0
 10
113.0351154112
 20
58.0801799718
 30
0.0
 10
113.0412601659
 20
58.0423556848
 30
0.0
 10
113.062742251
 20
57.9887718465
 30
0.0
 10
113.0953484843
 20
57.9404489947
 30
0.0
 10
113.1372173797
 20
57.9001714675
 30
0.0
 10
113.1859844897
 20
57.8702390051
 30
0.0
 10
113.2389195934
 20
57.8524295988
 30
0.0
 10
113.2929655996
 20
57.8478652124
 30
0.0
 10
113.3281532881
 20
57.8540502765
 30
0.0
 10
113.3446701776
 20
57.8593642834
 30
0.0
  0
SPLINE
  5
75A
100
AcDbEntity
  8
0
100
AcDbSpline
 62
7
  6
CONTINUOUS
 70
0
 71
3
 72
8
 73
4
 74
0
 42
0.0000001
 43
0.0000001
 44
0.0000000001
 40
0.0
 40
0.0
 40
0.0
 40
0.0
 40
1.0
 40
1.0
 40
1.0
 40
1.0
 10
58.3424289251
 20
82.4582161189
 30
0.0
 10
58.3349364859
 20
82.458876239
 30
0.0
 10
58.3274634476
 20
82.4599888212
 30
0.0
 10
58.3201265717
 20
82.461644917
 30
0.0
  0
SPLINE
  5
75B
100
AcDbEntity
  8
0
100
AcDbSpline
 62
7
  6
CONTINUOUS
 70
0
 71
3
 72
9
 73
5
 74
0
 42
0.0000001
 43
0.0000001
 44
0.0000000001
 40
0.0
 40
0.0
 40
0.0
 40
0.0
 40
0.2541529102
 40
1.0
 40
1.0
 40
1.0
 40
1.0
 10
59.2895236952
 20
82.3407159196
 30
0.0
 10
59.2921268731
 20
82.3432831503
 30
0.0
 10
59.3021322728
 20
82.3536209541
 30
0.0
 10
59.311141841
 20
82.3649304767
 30
0.0
 10
59.3171506143
 20
82.3738194855
 30
0.0
  0
SPLINE
  5
75C
100
AcDbEntity
  8
0
100
AcDbSpline
 62
7
  6
CONTINUOUS
 70
0
 71
3
 72
11
 73
7
 74
0
 42
0.0000001
 43
0.0000001
 44
0.0000000001
 40
0.0
 40
0.0
 40
0.0
 40
0.0
 40
0.2618077945
 40
0.5147159603
 40
0.7596988481
 40
1.0
 40
1.0
 40
1.0
 40
1.0
 10
63.2462736685
 20
62.2732753008
 30
0.0
 10
63.2640488273
 20
62.26467478
 30
0.0
 10
63.3011871731
 20
62.2518493965
 30
0.0
 10
63.3589891161
 20
62.2475088674
 30
0.0
 10
63.4142628086
 20
62.2587705689
 30
0.0
 10
63.4470330876
 20
62.2764559027
 30
0.0
 10
63.4615233642
 20
62.2873428778
 30
0.0
  0
SPLINE
  5
75D
100
AcDbEntity
  8
0
100
AcDbSpline
 62
7
  6
CONTINUOUS
 70
0
 71
3
 72
8
 73
4
 74
0
 42
0.0000001
 43
0.0000001
 44
0.0000000001
 40
0.0
 40
0.0
 40
0.0
 40
0.0
 40
1.0
 40
1.0
 40
1.0
 40
1.0
 10
59.1134998289
 20
82.3902810432
 30
0.0
 10
59.1060073622
 20
82.3909411658
 30
0.0
 10
59.0985342958
 20
82.3920537481
 30
0.0
 10
59.0911973929
 20
82.3937098505
 30
0.0
  0
SPLINE
  5
75E
100
AcDbEntity
  8
0
100
AcDbSpline
 62
7
  6
CONTINUOUS
 70
0
 71
3
 72
8
 73
4
 74
0
 42
0.0000001
 43
0.0000001
 44
0.0000000001
 40
0.0
 40
0.0
 40
0.0
 40
0.0
 40
1.0
 40
1.0
 40
1.0
 40
1.0
 10
58.3629751881
 20
82.4578583801
 30
0.0
 10
58.3561369593
 20
82.4574605329
 30
0.0
 10
58.3492522856
 20
82.4576149478
 30
0.0
 10
58.3424289251
 20
82.4582161189
 30
0.0
  0
ENDSEC
  0
SECTION
  2
OBJECTS
  0
DICTIONARY
  5
C
100
AcDbDictionary
280
0
281
1
  3
ACAD_GROUP
350
D
  3
ACAD_MLINESTYLE
350
17
  3
ACAD_LAYOUT
350
1A
  3
ACAD_PLOTSETTINGS
350
19
  3
ACAD_PLOTSTYLENAME
350
E
  3
ACAD_TABLESTYLE
350
       75F
  0
DICTIONARY
  5
D
102
{ACAD_REACTORS
330
C
102
}
100
AcDbDictionary
280
0
281
1
  0
ACDBDICTIONARYWDFLT
  5
E
102
{ACAD_REACTORS
330
C
102
}
100
AcDbDictionary
281
1
  3
Normal
350
F
100
AcDbDictionaryWithDefault
340
F
  0
DICTIONARY
  5
17
102
{ACAD_REACTORS
330
C
102
}
100
AcDbDictionary
280
0
281
1
  3
Standard
350
18
  0
DICTIONARY
  5
75F
330
C
100
AcDbDictionary
281
1
  3
Standard
350
       762
  3
Standard1
350
       763
  0
DICTIONARY
  5
19
102
{ACAD_REACTORS
330
C
102
}
100
AcDbDictionary
281
1
  0
DICTIONARY
  5
1A
102
{ACAD_REACTORS
330
C
102
}
100
AcDbDictionary
281
1
  3
Model
350
760
  3
Layout1
350
761
  0
ACDBPLACEHOLDER
  5
F
102
{ACAD_REACTORS
330
E
102
}
  0
MLINESTYLE
  5
18
102
{ACAD_REACTORS
330
17
102
}
100
AcDbMlineStyle
  2
STANDARD
 70
0
  3

 62
256
 51
90.0
 52
90.0
 71
2
 49
0.5
 62
256
  6
BYLAYER
 49
-0.5
 62
256
  6
BYLAYER
  0
LAYOUT
  5
760
102
{ACAD_REACTORS
330
1A
102
}
100
AcDbPlotSettings
  1

  2
none_device
  4
ISO_A3_(420.00_x_297.00_MM)
  6

 40
0.0
 41
0.0
 42
0.0
 43
0.0
 44
420.0
 45
297.0
 46
0.0
 47
0.0
 48
0.0
 49
0.0
140
0.0
141
0.0
142
1.0
143
1.0
 70
1024
 72
1
 73
0
 74
0
  7

 75
0
147
1.0
148
0.0
149
0.0
100
AcDbLayout
  1
Model
 70
0
 71
0
 10
0.0
 20
0.0
 11
420.0
 21
297.0
 12
0.0
 22
0.0
 32
0.0
 14
0.0
 24
0.0
 34
0.0
 15
0.0
 25
0.0
 35
0.0
146
0.0
 13
0.0
 23
0.0
 33
0.0
 16
1.0
 26
0.0
 36
0.0
 17
0.0
 27
1.0
 37
0.0
 76
0
330
220
345
0
346
0
  0
LAYOUT
  5
761
102
{ACAD_REACTORS
330
1A
102
}
100
AcDbPlotSettings
  1

  2
none_device
  4
ISO_A3_(420.00_x_297.00_MM)
  6

 40
0.0
 41
0.0
 42
0.0
 43
0.0
 44
420.0
 45
297.0
 46
0.0
 47
0.0
 48
0.0
 49
0.0
140
0.0
141
0.0
142
1.0
143
1.0
 70
0
 72
1
 73
0
 74
0
  7

 75
0
147
1.0
148
0.0
149
0.0
100
AcDbLayout
  1
Layout1
 70
0
 71
1
 10
0.0
 20
0.0
 11
420.0
 21
297.0
 12
0.0
 22
0.0
 32
0.0
 14
0.0
 24
0.0
 34
0.0
 15
0.0
 25
0.0
 35
0.0
146
0.0
 13
0.0
 23
0.0
 33
0.0
 16
1.0
 26
0.0
 36
0.0
 17
0.0
 27
1.0
 37
0.0
 76
0
330
221
345
0
346
0
  0
TABLESTYLE
  5
762
102
{ACAD_REACTORS
330
75F
102
}
330
75F
100
AcDbTableStyle
  3
Standard
 70
0
 71
0
 40
0.06
 41
0.06
280
1
281
1
  7
Standard
140
0.18
170
1
 62
0
 63
7
283
0
  7
Standard
140
0.18
170
1
 62
0
 63
7
283
0
  7
Standard
140
0.18
170
1
 62
0
 63
7
283
0
  0
TABLESTYLE
  5
763
102
{ACAD_REACTORS
330
75F
330
3B9
102
}
330
75F
100
AcDbTableStyle
  3
Standard1
 70
1
 71
0
 40
0.06
 41
0.06
280
1
281
1
  7
Standard
140
0.18
170
1
 62
0
 63
7
283
0
  7
Standard
140
0.18
170
1
 62
0
 63
7
283
0
  7
Standard
140
0.18
170
1
 62
0
 63
7
283
0
  0
ENDSEC
  0
EOF
